osu file format v14

[General]
AudioFilename: audio.mp3
AudioLeadIn: 0
PreviewTime: 23445
Countdown: 0
SampleSet: Normal
StackLeniency: 0.7
Mode: 1
LetterboxInBreaks: 0
WidescreenStoryboard: 0

[Editor]
DistanceSpacing: 0.8
BeatDivisor: 6
GridSize: 32
TimelineZoom: 3.399999

[Metadata]
Title:Lancer
TitleUnicode:Lancer
Artist:Toby Fox
ArtistUnicode:Toby Fox
Creator:Skull Kid
Version:Oni
Source:DELTARUNE
Tags:undertale chapter 1 swing chiptune instrumental video game videogame ost original soundtrack sound track radiation
BeatmapID:3317391
BeatmapSetID:1624785

[Difficulty]
HPDrainRate:6
CircleSize:4
OverallDifficulty:6
ApproachRate:9
SliderMultiplier:1.4
SliderTickRate:1

[Events]
//Background and Video events
0,0,"BAD.png",0,0
//Break Periods
//Storyboard Layer 0 (Background)
//Storyboard Layer 1 (Fail)
//Storyboard Layer 2 (Pass)
//Storyboard Layer 3 (Foreground)
//Storyboard Layer 4 (Overlay)
//Storyboard Sound Samples

[TimingPoints]
760,363.636363636364,4,1,0,60,1,0
24032,-83.3333333333333,4,1,0,60,0,1
44214,-83.3333333333333,4,1,0,40,0,1
44396,-90.9090909090909,4,1,0,40,0,0
44638,-99.9999999999999,4,1,0,30,0,0
45002,-111.111111111111,4,1,0,20,0,0
45366,-125,4,1,0,10,0,0
45729,-142.857142857143,4,1,0,5,0,0

[HitObjects]
256,192,275,5,8,0:0:0:0:
256,192,396,1,8,0:0:0:0:
256,192,638,1,0,0:0:0:0:
256,192,760,1,8,0:0:0:0:
256,192,1002,1,8,0:0:0:0:
256,192,1366,1,0,0:0:0:0:
256,192,1487,1,8,0:0:0:0:
256,192,1729,1,8,0:0:0:0:
256,192,1850,1,8,0:0:0:0:
256,192,2093,1,0,0:0:0:0:
256,192,2214,1,8,0:0:0:0:
256,192,2578,1,8,0:0:0:0:
256,192,2820,1,8,0:0:0:0:
256,192,3184,1,8,0:0:0:0:
256,192,3305,1,8,0:0:0:0:
256,192,3547,1,8,0:0:0:0:
256,192,3669,1,0,0:0:0:0:
256,192,3911,1,8,0:0:0:0:
256,192,4275,1,0,0:0:0:0:
256,192,4396,1,8,0:0:0:0:
256,192,4760,1,8,0:0:0:0:
256,192,5123,1,8,0:0:0:0:
256,192,5366,1,0,0:0:0:0:
256,192,5487,1,0,0:0:0:0:
256,192,5729,1,8,0:0:0:0:
256,192,6093,1,8,0:0:0:0:
256,192,6214,1,8,0:0:0:0:
256,192,6456,1,8,0:0:0:0:
256,192,6578,1,0,0:0:0:0:
256,192,6820,1,8,0:0:0:0:
256,192,7184,1,0,0:0:0:0:
256,192,7305,1,8,0:0:0:0:
256,192,7547,1,8,0:0:0:0:
256,192,7669,1,8,0:0:0:0:
256,192,7911,1,8,0:0:0:0:
256,192,8032,1,0,0:0:0:0:
256,192,8396,1,8,0:0:0:0:
256,192,8638,1,0,0:0:0:0:
256,192,9002,1,0,0:0:0:0:
256,192,9123,1,8,0:0:0:0:
256,192,9366,1,8,0:0:0:0:
256,192,9487,1,0,0:0:0:0:
256,192,9729,1,8,0:0:0:0:
256,192,10093,1,0,0:0:0:0:
256,192,10214,1,8,0:0:0:0:
256,192,10578,1,8,0:0:0:0:
256,192,10941,1,0,0:0:0:0:
256,192,11184,1,0,0:0:0:0:
256,192,11305,1,0,0:0:0:0:
256,192,11547,1,0,0:0:0:0:
256,192,11911,1,8,0:0:0:0:
256,192,12032,1,8,0:0:0:0:
256,192,12275,1,0,0:0:0:0:
256,192,12396,1,8,0:0:0:0:
256,192,12638,1,8,0:0:0:0:
256,192,13002,1,0,0:0:0:0:
256,192,13123,1,8,0:0:0:0:
256,192,13366,1,8,0:0:0:0:
256,192,13487,1,8,0:0:0:0:
256,192,13729,1,0,0:0:0:0:
256,192,13850,1,8,0:0:0:0:
256,192,14214,1,8,0:0:0:0:
256,192,14456,1,8,0:0:0:0:
256,192,14820,1,8,0:0:0:0:
256,192,14941,1,8,0:0:0:0:
256,192,15184,1,8,0:0:0:0:
256,192,15305,1,0,0:0:0:0:
256,192,15547,1,8,0:0:0:0:
256,192,15911,1,0,0:0:0:0:
256,192,16032,1,8,0:0:0:0:
256,192,16396,1,8,0:0:0:0:
256,192,16760,1,8,0:0:0:0:
256,192,17002,1,0,0:0:0:0:
256,192,17123,1,0,0:0:0:0:
256,192,17366,1,8,0:0:0:0:
256,192,17729,1,8,0:0:0:0:
256,192,17850,1,8,0:0:0:0:
256,192,18093,1,8,0:0:0:0:
256,192,18214,1,0,0:0:0:0:
256,192,18456,1,8,0:0:0:0:
256,192,18820,1,0,0:0:0:0:
256,192,18941,1,8,0:0:0:0:
256,192,19184,1,8,0:0:0:0:
256,192,19305,1,8,0:0:0:0:
256,192,19547,1,8,0:0:0:0:
256,192,19669,1,0,0:0:0:0:
256,192,20032,1,8,0:0:0:0:
256,192,20275,1,0,0:0:0:0:
256,192,20638,1,0,0:0:0:0:
256,192,20760,1,8,0:0:0:0:
256,192,21002,1,8,0:0:0:0:
256,192,21123,1,0,0:0:0:0:
256,192,21366,1,8,0:0:0:0:
256,192,21729,1,0,0:0:0:0:
256,192,21850,1,8,0:0:0:0:
256,192,22214,1,8,0:0:0:0:
256,192,22578,1,0,0:0:0:0:
256,192,22820,1,0,0:0:0:0:
256,192,22941,1,0,0:0:0:0:
256,192,23184,1,0,0:0:0:0:
256,192,23547,1,8,0:0:0:0:
256,192,23669,1,8,0:0:0:0:
256,192,23911,1,0,0:0:0:0:
256,192,24032,1,12,0:0:0:0:
256,192,24275,1,0,0:0:0:0:
256,192,24396,1,0,0:0:0:0:
256,192,24638,1,0,0:0:0:0:
256,192,24760,1,8,0:0:0:0:
256,192,25002,1,0,0:0:0:0:
256,192,25123,1,8,0:0:0:0:
256,192,25244,1,0,0:0:0:0:
256,192,25305,1,0,0:0:0:0:
256,192,25366,1,0,0:0:0:0:
256,192,25487,1,8,0:0:0:0:
256,192,25729,1,0,0:0:0:0:
256,192,25850,1,0,0:0:0:0:
256,192,26093,1,8,0:0:0:0:
256,192,26214,1,0,0:0:0:0:
256,192,26456,1,8,0:0:0:0:
256,192,26517,1,8,0:0:0:0:
256,192,26578,1,0,0:0:0:0:
256,192,26820,1,0,0:0:0:0:
256,192,26941,1,8,0:0:0:0:
256,192,27184,1,0,0:0:0:0:
256,192,27305,1,0,0:0:0:0:
256,192,27547,1,8,0:0:0:0:
256,192,27669,1,0,0:0:0:0:
256,192,27911,1,8,0:0:0:0:
256,192,27972,1,8,0:0:0:0:
256,192,28032,1,8,0:0:0:0:
256,192,28275,1,8,0:0:0:0:
256,192,28396,1,0,0:0:0:0:
256,192,28638,1,0,0:0:0:0:
256,192,28760,1,0,0:0:0:0:
256,192,29002,1,8,0:0:0:0:
256,192,29123,1,0,0:0:0:0:
256,192,29366,1,0,0:0:0:0:
256,192,29487,1,8,0:0:0:0:
256,192,29608,1,8,0:0:0:0:
256,192,29729,1,8,0:0:0:0:
256,192,29850,1,0,0:0:0:0:
256,192,30093,1,0,0:0:0:0:
256,192,30214,1,8,0:0:0:0:
256,192,30456,1,8,0:0:0:0:
256,192,30578,1,0,0:0:0:0:
256,192,30820,1,8,0:0:0:0:
256,192,30941,1,8,0:0:0:0:
256,192,31063,1,0,0:0:0:0:
256,192,31184,1,8,0:0:0:0:
256,192,31305,1,0,0:0:0:0:
256,192,31547,1,0,0:0:0:0:
256,192,31608,1,0,0:0:0:0:
256,192,31669,1,0,0:0:0:0:
256,192,31911,1,8,0:0:0:0:
256,192,32032,1,0,0:0:0:0:
256,192,32275,1,0,0:0:0:0:
256,192,32396,1,8,0:0:0:0:
256,192,32517,1,0,0:0:0:0:
256,192,32638,1,0,0:0:0:0:
256,192,32760,1,8,0:0:0:0:
256,192,33002,1,0,0:0:0:0:
256,192,33123,1,0,0:0:0:0:
256,192,33366,1,0,0:0:0:0:
256,192,33487,1,8,0:0:0:0:
256,192,33729,1,8,0:0:0:0:
256,192,33850,1,0,0:0:0:0:
256,192,33972,1,0,0:0:0:0:
256,192,34093,1,0,0:0:0:0:
256,192,34214,1,8,0:0:0:0:
256,192,34335,1,8,0:0:0:0:
256,192,34456,1,8,0:0:0:0:
256,192,34578,1,0,0:0:0:0:
256,192,34820,1,8,0:0:0:0:
256,192,34941,1,0,0:0:0:0:
256,192,35184,1,8,0:0:0:0:
256,192,35305,1,8,0:0:0:0:
256,192,35426,1,0,0:0:0:0:
256,192,35547,1,0,0:0:0:0:
256,192,35669,1,12,0:0:0:0:
256,192,35911,1,0,0:0:0:0:
256,192,36032,1,0,0:0:0:0:
256,192,36275,1,0,0:0:0:0:
256,192,36396,1,8,0:0:0:0:
256,192,36638,1,0,0:0:0:0:
256,192,36760,1,8,0:0:0:0:
256,192,36881,1,0,0:0:0:0:
256,192,36941,1,0,0:0:0:0:
256,192,37002,1,0,0:0:0:0:
256,192,37123,1,8,0:0:0:0:
256,192,37366,1,0,0:0:0:0:
256,192,37487,1,0,0:0:0:0:
256,192,37729,1,8,0:0:0:0:
256,192,37850,1,0,0:0:0:0:
256,192,38093,1,8,0:0:0:0:
256,192,38153,1,8,0:0:0:0:
256,192,38214,1,0,0:0:0:0:
256,192,38456,1,0,0:0:0:0:
256,192,38578,1,8,0:0:0:0:
256,192,38820,1,0,0:0:0:0:
256,192,38941,1,0,0:0:0:0:
256,192,39184,1,8,0:0:0:0:
256,192,39305,1,0,0:0:0:0:
256,192,39547,1,8,0:0:0:0:
256,192,39608,1,8,0:0:0:0:
256,192,39669,1,8,0:0:0:0:
256,192,39911,1,8,0:0:0:0:
256,192,40032,1,0,0:0:0:0:
256,192,40275,1,0,0:0:0:0:
256,192,40396,1,0,0:0:0:0:
256,192,40638,1,8,0:0:0:0:
256,192,40760,1,0,0:0:0:0:
256,192,41002,1,0,0:0:0:0:
256,192,41123,1,8,0:0:0:0:
256,192,41244,1,8,0:0:0:0:
256,192,41366,1,8,0:0:0:0:
256,192,41487,1,0,0:0:0:0:
256,192,41729,1,0,0:0:0:0:
256,192,41850,1,8,0:0:0:0:
256,192,42093,1,8,0:0:0:0:
256,192,42214,1,0,0:0:0:0:
256,192,42456,1,8,0:0:0:0:
256,192,42578,1,8,0:0:0:0:
256,192,42699,1,0,0:0:0:0:
256,192,42820,1,8,0:0:0:0:
256,192,42941,1,0,0:0:0:0:
256,192,43184,1,0,0:0:0:0:
256,192,43244,1,0,0:0:0:0:
256,192,43305,1,0,0:0:0:0:
256,192,43547,1,8,0:0:0:0:
256,192,43669,1,0,0:0:0:0:
256,192,43911,1,0,0:0:0:0:
256,192,44032,1,8,0:0:0:0:
256,192,44396,1,0,0:0:0:0:
256,192,44760,1,0,0:0:0:0:
256,192,45123,1,0,0:0:0:0:
256,192,45487,1,0,0:0:0:0:
256,192,45850,12,0,47305,0:0:0:0:
