osu file format v14

[General]
AudioFilename: audio.mp3
AudioLeadIn: 0
PreviewTime: 23445
Countdown: 0
SampleSet: Normal
StackLeniency: 0.7
Mode: 1
LetterboxInBreaks: 0
WidescreenStoryboard: 1

[Editor]
DistanceSpacing: 0.8
BeatDivisor: 6
GridSize: 32
TimelineZoom: 3.399999

[Metadata]
Title:Lancer
TitleUnicode:Lancer
Artist:Toby Fox
ArtistUnicode:Toby Fox
Creator:Skull Kid
Version:Kantan
Source:DELTARUNE
Tags:undertale chapter 1 swing chiptune instrumental video game videogame ost original soundtrack sound track radiation
BeatmapID:3317389
BeatmapSetID:1624785

[Difficulty]
HPDrainRate:9
CircleSize:4
OverallDifficulty:3
ApproachRate:9
SliderMultiplier:1.4
SliderTickRate:1

[Events]
//Background and Video events
0,0,"BAD.png",0,0
//Break Periods
//Storyboard Layer 0 (Background)
//Storyboard Layer 1 (Fail)
//Storyboard Layer 2 (Pass)
//Storyboard Layer 3 (Foreground)
//Storyboard Layer 4 (Overlay)
//Storyboard Sound Samples

[TimingPoints]
760,363.636363636364,4,1,0,60,1,0
24032,-100,4,1,0,60,0,1
44214,-100,4,1,0,40,0,1
44396,-100,4,1,0,40,0,0
45729,-142.857142857143,4,1,0,5,0,0

[HitObjects]
256,192,396,5,0,0:0:0:0:
256,192,760,1,8,0:0:0:0:
256,192,1850,1,0,0:0:0:0:
256,192,2214,1,8,0:0:0:0:
256,192,2820,1,8,0:0:0:0:
256,192,3305,1,8,0:0:0:0:
256,192,3669,1,0,0:0:0:0:
256,192,4396,1,8,0:0:0:0:
256,192,5123,1,0,0:0:0:0:
256,192,5729,1,8,0:0:0:0:
256,192,6578,1,0,0:0:0:0:
256,192,7669,1,8,0:0:0:0:
256,192,8032,1,0,0:0:0:0:
256,192,8638,1,8,0:0:0:0:
256,192,9123,1,8,0:0:0:0:
256,192,9487,1,0,0:0:0:0:
256,192,10214,1,8,0:0:0:0:
256,192,10941,1,0,0:0:0:0:
256,192,12032,1,0,0:0:0:0:
256,192,12396,1,8,0:0:0:0:
256,192,13487,1,0,0:0:0:0:
256,192,13850,1,8,0:0:0:0:
256,192,14456,1,8,0:0:0:0:
256,192,14941,1,8,0:0:0:0:
256,192,15305,1,0,0:0:0:0:
256,192,16032,1,8,0:0:0:0:
256,192,16760,1,0,0:0:0:0:
256,192,17366,1,8,0:0:0:0:
256,192,18214,1,0,0:0:0:0:
256,192,19305,1,8,0:0:0:0:
256,192,19669,1,0,0:0:0:0:
256,192,20275,1,8,0:0:0:0:
256,192,20760,1,8,0:0:0:0:
256,192,21123,1,0,0:0:0:0:
256,192,21850,1,8,0:0:0:0:
256,192,22578,1,0,0:0:0:0:
256,192,24032,1,12,0:0:0:0:
256,192,25123,1,0,0:0:0:0:
256,192,25487,1,8,0:0:0:0:
256,192,26093,1,8,0:0:0:0:
256,192,26578,1,0,0:0:0:0:
256,192,26941,1,8,0:0:0:0:
256,192,27547,1,0,0:0:0:0:
256,192,28032,1,8,0:0:0:0:
256,192,28396,1,0,0:0:0:0:
256,192,29487,1,8,0:0:0:0:
256,192,29850,1,0,0:0:0:0:
256,192,30941,1,8,0:0:0:0:
256,192,31305,1,8,0:0:0:0:
256,192,31911,1,0,0:0:0:0:
256,192,32396,1,0,0:0:0:0:
256,192,32760,1,8,0:0:0:0:
256,192,33487,1,0,0:0:0:0:
256,192,34214,1,8,0:0:0:0:
256,192,35669,1,12,0:0:0:0:
256,192,36760,1,0,0:0:0:0:
256,192,37123,1,8,0:0:0:0:
256,192,37729,1,8,0:0:0:0:
256,192,38214,1,0,0:0:0:0:
256,192,38578,1,8,0:0:0:0:
256,192,39184,1,0,0:0:0:0:
256,192,39669,1,8,0:0:0:0:
256,192,40032,1,0,0:0:0:0:
256,192,41123,1,8,0:0:0:0:
256,192,41487,1,0,0:0:0:0:
256,192,42578,1,8,0:0:0:0:
256,192,42941,1,8,0:0:0:0:
256,192,43547,1,0,0:0:0:0:
256,192,44032,1,8,0:0:0:0:
256,192,44396,1,0,0:0:0:0:
256,192,45850,12,0,47305,0:0:0:0:
