osu file format v14

[General]
AudioFilename: Undertale OST - Hopes And Dreams & SAVE The World.mp3
AudioLeadIn: 0
PreviewTime: -1
Countdown: 1
SampleSet: Soft
StackLeniency: 0.7
Mode: 2
LetterboxInBreaks: 0
WidescreenStoryboard: 0

[Editor]
DistanceSpacing: 1.2
BeatDivisor: 4
GridSize: 4
TimelineZoom: 2.5

[Metadata]
Title:Hopes And Dreams & SAVE The World!
TitleUnicode:Hopes And Dreams & SAVE The World!
Artist:Toby Fox
ArtistUnicode:Toby Fox
Creator:Kitokofox
Version:Rain
Source:Undertale OST
Tags:chiptune videogame asriel rpg
BeatmapID:830511
BeatmapSetID:379400

[Difficulty]
HPDrainRate:8
CircleSize:4.5
OverallDifficulty:8.5
ApproachRate:8.5
SliderMultiplier:1.76
SliderTickRate:1

[Events]
//Background and Video events
0,0,"Ee6291c0d18c94a08d9e8fbb7118aac1.jpg",0,0
//Break Periods
//Storyboard Layer 0 (Background)
//Storyboard Layer 1 (Fail)
//Storyboard Layer 2 (Pass)
//Storyboard Layer 3 (Foreground)
//Storyboard Sound Samples

[TimingPoints]
190,351.514441384967,4,2,0,40,1,0
177353,333.333333333333,4,1,0,100,1,0

[Colours]
Combo1 : 128,0,255
Combo2 : 255,128,0
Combo3 : 255,255,0
Combo4 : 0,255,0
Combo5 : 0,0,255
Combo6 : 0,255,255

[HitObjects]
96,192,190,6,0,L|184:176,1,88
432,200,717,1,0,0:0:0:0:
408,196,893,2,0,L|320:176,1,88
80,200,1420,1,0,0:0:0:0:
104,200,1596,6,0,L|192:180,1,88
340,200,1947,2,0,L|252:180,1,88
68,120,2299,2,0,L|156:100,1,88
304,120,2650,2,0,L|216:100,1,88
32,40,3002,5,0,0:0:0:0:
200,124,3177,2,0,L|312:260,1,176
480,344,3705,1,0,0:0:0:0:
312,260,3880,2,0,L|200:124,1,176
292,156,4408,6,0,L|336:76,1,88
220,156,4759,2,0,L|176:76,1,88
292,156,5111,2,0,L|360:96,1,88
220,156,5462,2,0,L|152:96,1,88
256,56,5814,6,0,B|161:75|159:152|159:152|166:228|79:216,1,264
256,56,6517,2,0,B|350:75|352:152|352:152|345:228|432:216,1,264
256,56,7220,6,0,L|164:56,1,88
468,192,7747,2,0,L|372:192,2,88
468,192,8274,1,0,0:0:0:0:
40,192,8626,5,0,0:0:0:0:
400,192,9329,1,0,0:0:0:0:
112,192,10032,6,0,L|196:160,1,88
400,192,10383,2,0,L|316:160,1,88
184,192,10735,2,0,L|160:100,1,88
328,192,11086,2,0,L|352:100,1,88
256,192,11438,6,0,L|256:100,1,88
80,132,11965,2,0,L|168:112,2,88
432,132,12668,2,0,L|344:112,2,88
296,120,13196,6,0,L|380:96,1,88
276,120,13547,2,0,L|168:64,1,88
284,120,13899,1,0,0:0:0:0:
432,132,14074,6,0,L|344:112,2,88
80,132,14777,2,0,L|168:112,2,88
256,80,15480,1,0,0:0:0:0:
256,80,15656,6,0,L|188:144,1,88
256,80,16006,2,0,L|324:144,1,88
191,140,16358,2,0,L|123:204,1,88
321,140,16710,2,0,L|389:204,1,88
208,232,17061,6,0,B|80:240|104:292|104:292|128:348|-16:340,1,264
304,232,17764,2,0,B|432:240|408:292|408:292|384:348|528:340,1,264
256,96,18467,1,0,0:0:0:0:
256,192,19873,12,0,21279,0:0:0:0:
184,192,21456,5,0,0:0:0:0:
256,192,21544,1,0,0:0:0:0:
328,192,21632,1,0,0:0:0:0:
256,192,21808,1,0,0:0:0:0:
376,192,21983,2,0,L|376:104,1,88
136,192,22335,2,0,L|136:104,1,88
336,228,22686,6,0,L|296:180,1,44
256,192,22862,2,0,L|216:144,1,44
176,156,23038,1,0,0:0:0:0:
