osu file format v14

[General]
AudioFilename: audio.mp3
AudioLeadIn: 0
PreviewTime: 200
Countdown: 0
SampleSet: Soft
StackLeniency: 0.7
Mode: 0
LetterboxInBreaks: 0
WidescreenStoryboard: 1

[Editor]
DistanceSpacing: 2.9
BeatDivisor: 4
GridSize: 32
TimelineZoom: 1.5

[Metadata]
Title:Holiday Studio
TitleUnicode:Holiday Studio
Artist:Toby Fox
ArtistUnicode:Toby Fox
Creator:SilverYako
Version:Merry Krismas
Source:DELTARUNE
Tags:"radiation" vgm music ost original official soundtrack sound track video game instrumental chapter 2 Ogg 0gg 7Falcon7 MonsieurSebas xmas x-mas ggraterson axelixiya christmas Aranel Falcon
BeatmapID:3354035
BeatmapSetID:1643205

[Difficulty]
HPDrainRate:4.7
CircleSize:4
OverallDifficulty:7
ApproachRate:8
SliderMultiplier:1.7
SliderTickRate:1

[Events]
//Background and Video events
0,0,"bgg.jpg",0,0
//Break Periods
//Storyboard Layer 0 (Background)
//Storyboard Layer 1 (Fail)
//Storyboard Layer 2 (Pass)
//Storyboard Layer 3 (Foreground)
//Storyboard Layer 4 (Overlay)
//Storyboard Sound Samples

[TimingPoints]
200,521.739130434783,4,2,1,75,1,0
200,-100,4,2,1,75,0,0
2808,-83.3333333333333,4,2,1,75,0,0
3330,-100,4,2,1,75,0,0
5417,-90.9090909090909,4,2,1,75,0,0
5939,-100,4,2,1,75,0,0
8026,-83.3333333333333,4,2,1,75,0,0
8547,-100,4,2,1,75,0,0
11156,-90.9090909090909,4,2,1,75,0,0
11678,-100,4,2,1,75,0,0
13765,-83.3333333333333,4,2,1,75,0,0
14286,-100,4,2,1,75,0,0
16373,-90.9090909090909,4,2,1,75,0,0
16895,-100,4,2,1,75,0,0
19504,-83.3333333333333,4,2,1,75,0,0
20026,-100,4,2,1,75,0,0
22113,-90.9090909090909,4,2,1,75,0,0
22634,-100,4,2,1,75,0,0
24721,-83.3333333333333,4,2,1,75,0,0
25243,-100,4,2,1,75,0,0
27852,-90.9090909090909,4,2,1,75,0,0
28373,-100,4,2,1,75,0,0
30460,-83.3333333333333,4,2,1,75,0,0
30982,-100,4,2,1,75,0,0
33069,-90.9090909090909,4,2,1,75,0,0
33591,-100,4,2,1,75,0,0
34113,-100,4,2,1,60,0,0
66200,-83.3333333333333,4,2,1,65,0,0
66460,-83.3333333333333,4,2,1,45,0,0
66721,-83.3333333333333,4,2,1,25,0,0

[Colours]
Combo1 : 124,211,147
Combo2 : 84,192,224
Combo3 : 247,183,140

[HitObjects]
464,37,200,5,2,0:0:0:0:
374,115,460,1,2,0:0:0:0:
455,211,721,2,0,L|462:301,1,85,10|0,0:1|0:0,0:0:0:0:
359,361,1243,1,2,0:0:0:0:
269,278,1504,1,2,0:0:0:0:
363,189,1765,2,0,L|370:99,1,85,10|0,2:1|0:0,0:0:0:0:
138,45,2286,5,2,0:0:0:0:
16,65,2547,1,2,0:2:0:0:
88,153,2808,2,0,P|113:199|110:250,1,101.999996887207,10|0,0:1|0:0,0:0:0:0:
98,277,3200,1,0,0:0:0:0:
98,277,3330,1,2,0:0:0:0:
215,167,3591,1,2,0:2:0:0:
30,217,3852,1,10,0:1:0:0:
300,221,4373,5,2,0:0:0:0:
394,134,4634,1,2,0:0:0:0:
504,197,4895,1,10,0:1:0:0:
478,324,5156,1,0,0:0:0:0:
345,331,5417,2,0,L|245:303,1,93.5000028533936,2|2,0:0|0:0,0:0:0:0:
119,187,5939,2,0,L|37:206,1,85,10|0,2:1|0:0,0:0:0:0:
250,197,6460,5,2,0:0:0:0:
371,181,6721,1,2,0:2:0:0:
395,60,6982,1,10,0:1:0:0:
289,0,7243,1,0,0:0:0:0:
193,84,7504,2,0,L|107:101,1,85,2|2,0:0|0:2,0:0:0:0:
342,276,8026,2,0,P|368:222|370:180,1,101.999996887207,10|0,0:1|0:0,0:0:0:0:
254,100,8547,5,2,0:0:0:0:
118,153,8808,1,2,0:0:0:0:
18,23,9069,2,0,P|76:16|113:27,1,85,10|0,0:1|0:0,0:0:0:0:
254,100,9591,1,2,0:0:0:0:
390,153,9852,1,2,0:0:0:0:
490,23,10113,2,0,P|432:16|395:27,1,85,10|0,2:1|0:0,0:0:0:0:
118,153,10634,5,2,0:0:0:0:
184,253,10895,1,2,0:2:0:0:
112,342,11156,2,0,P|60:351|20:332,1,93.5000028533936,10|0,0:1|0:0,0:0:0:0:
18,304,11547,1,0,0:0:0:0:
18,304,11678,1,2,0:0:0:0:
184,253,11939,1,2,0:2:0:0:
41,160,12200,2,0,L|24:63,1,85,10|0,0:1|0:0,0:0:0:0:
213,341,12721,5,2,0:0:0:0:
110,261,12982,1,2,0:0:0:0:
155,141,13243,1,10,0:1:0:0:
290,144,13504,1,0,0:0:0:0:
310,271,13765,2,0,L|327:379,1,101.999996887207,2|2,0:0|0:0,0:0:0:0:
290,144,14286,2,0,L|274:41,1,85,10|0,2:1|0:0,0:0:0:0:
376,241,14808,5,2,0:0:0:0:
393,113,15069,1,2,0:2:0:0:
276,60,15330,1,10,0:1:0:0:
190,157,15591,1,0,0:0:0:0:
253,259,15852,2,0,L|145:279,1,85,2|2,0:0|0:2,0:0:0:0:
0,139,16373,2,0,L|95:124,1,93.5000028533936,10|0,0:1|0:0,0:0:0:0:
291,125,16895,5,2,0:0:0:0:
253,259,17156,1,2,0:0:0:0:
223,83,17417,2,0,P|261:54|321:51,1,85,10|0,0:1|0:0,0:0:0:0:
420,101,17939,1,2,0:0:0:0:
314,199,18200,1,2,0:0:0:0:
223,83,18460,2,0,P|185:63|143:62,1,85,10|0,2:1|0:0,0:0:0:0:
231,249,18982,5,2,0:0:0:0:
165,138,19243,1,2,0:2:0:0:
163,335,19504,2,0,P|216:321|263:335,1,101.999996887207,10|0,0:1|0:0,0:0:0:0:
280,361,19895,1,0,0:0:0:0:
280,361,20026,1,2,0:0:0:0:
244,161,20286,1,2,0:2:0:0:
105,384,20547,1,10,0:1:0:0:
430,364,21069,5,2,0:0:0:0:
503,263,21330,1,2,0:0:0:0:
432,163,21591,1,10,0:1:0:0:
314,199,21852,1,0,0:0:0:0:
308,322,22113,2,0,P|259:315|221:284,1,93.5000028533936,2|2,0:0|0:0,0:0:0:0:
278,128,22634,2,0,P|327:122|368:138,1,85,10|0,2:1|0:0,0:0:0:0:
417,279,23156,5,2,0:0:0:0:
314,199,23417,1,2,0:2:0:0:
432,163,23678,1,10,0:1:0:0:
347,50,23939,1,0,0:0:0:0:
226,201,24200,2,0,B|182:207|182:207|134:193,1,85,2|2,0:0|0:2,0:0:0:0:
248,35,24721,2,0,B|301:31|301:31|348:50,1,101.999996887207,10|0,0:1|0:0,0:0:0:0:
498,222,25243,5,2,0:0:0:0:
412,309,25504,1,2,0:0:0:0:
421,148,25765,2,0,P|428:103|455:63,1,85,10|0,0:1|0:0,0:0:0:0:
498,222,26286,5,2,0:0:0:0:
412,309,26547,1,2,0:0:0:0:
301,253,26808,2,0,P|260:241|217:243,1,85,10|0,2:1|0:0,0:0:0:0:
8,292,27330,5,2,0:0:0:0:
101,367,27591,1,2,0:2:0:0:
129,255,27852,2,0,L|122:161,1,93.5000028533936,10|0,0:1|0:0,0:0:0:0:
109,128,28243,1,0,0:0:0:0:
109,128,28373,1,2,0:0:0:0:
0,22,28634,1,2,0:2:0:0:
190,106,28895,1,10,0:1:0:0:
257,364,29417,5,2,0:0:0:0:
136,243,29678,1,2,0:0:0:0:
257,123,29939,1,10,0:1:0:0:
377,243,30200,1,0,0:0:0:0:
252,363,30460,2,0,L|136:352,1,101.999996887207,2|2,0:0|0:0,0:0:0:0:
377,243,30982,2,0,L|488:231,1,85,10|0,2:1|0:0,0:0:0:0:
253,250,31504,5,2,0:0:0:0:
374,129,31765,1,2,0:2:0:0:
253,9,32026,1,10,0:1:0:0:
133,129,32286,1,0,0:0:0:0:
374,129,32547,2,0,L|475:121,1,85,2|2,0:0|0:2,0:0:0:0:
133,129,33069,2,0,L|28:137,1,93.5000028533936,10|0,0:1|0:0,0:0:0:0:
171,237,33591,5,2,0:0:0:0:
278,256,33852,1,2,0:0:0:0:
353,325,34113,2,0,P|405:338|447:328,1,85,10|0,0:1|0:0,0:0:0:0:
282,161,34634,2,0,P|230:174|188:164,1,85,2|2,0:0|0:0,0:0:0:0:
387,29,35156,2,0,P|439:42|481:32,1,85,10|0,2:1|0:0,0:0:0:0:
512,142,35678,5,2,0:0:0:0:
484,228,35939,1,2,0:2:0:0:
403,261,36200,2,0,P|397:218|414:175,1,85,10|0,0:1|0:0,0:0:0:0:
387,29,36721,2,0,P|345:36|312:62,1,85,2|2,0:0|0:2,0:0:0:0:
267,219,37243,2,0,P|233:245|192:252,1,85,10|0,0:1|0:0,0:0:0:0:
97,155,37765,5,2,0:0:0:0:
199,168,38026,1,2,0:0:0:0:
117,336,38286,1,10,0:1:0:0:
192,252,38547,1,0,0:0:0:0:
127,82,38808,1,2,0:0:0:0:
412,263,39330,1,10,2:1:0:0:
305,181,39591,1,0,0:0:0:0:
170,330,39852,5,2,0:0:0:0:
366,336,40113,1,2,0:2:0:0:
251,121,40373,1,10,0:1:0:0:
243,87,40439,1,0,0:0:0:0:
237,57,40504,2,0,L|290:81,1,42.5
430,133,40895,1,2,0:0:0:0:
305,181,41156,1,2,0:2:0:0:
476,8,41417,2,0,L|495:90,1,85,10|0,0:1|0:0,0:0:0:0:
512,326,41939,5,2,0:0:0:0:
435,382,42200,1,2,0:0:0:0:
341,366,42460,2,0,P|290:357|242:366,1,85,10|0,0:1|0:0,0:0:0:0:
120,370,42982,2,0,P|77:373|36:365,1,85,2|2,0:0|0:0,0:0:0:0:
200,253,43504,2,0,P|251:244|299:253,1,85,10|0,2:1|0:0,0:0:0:0:
485,276,44026,5,2,0:0:0:0:
428,188,44286,1,2,0:2:0:0:
334,166,44547,2,0,P|283:157|235:166,1,85,10|0,0:1|0:0,0:0:0:0:
113,170,45069,2,0,P|70:173|29:165,1,85,2|2,0:0|0:2,0:0:0:0:
186,66,45591,2,0,P|237:57|285:66,1,85,10|0,0:1|0:0,0:0:0:0:
372,91,46113,5,2,0:0:0:0:
469,49,46373,1,2,0:0:0:0:
448,221,46634,1,10,0:1:0:0:
311,165,46895,1,0,0:0:0:0:
398,3,47156,1,2,0:0:0:0:
165,249,47678,1,10,2:1:0:0:
274,341,47939,1,0,0:0:0:0:
410,203,48200,5,2,0:0:0:0:
280,66,48460,1,2,0:2:0:0:
276,250,48721,1,10,0:1:0:0:
276,282,48786,1,0,0:0:0:0:
276,314,48852,2,0,L|238:291,1,42.5
42,192,49243,5,2,0:0:0:0:
204,128,49504,1,2,0:2:0:0:
101,14,49765,1,10,0:1:0:0:
114,98,50026,1,0,0:0:0:0:
186,39,50286,5,2,0:0:0:0:
271,70,50547,1,2,0:0:0:0:
344,21,50808,2,0,L|436:30,1,85,10|0,0:1|0:0,0:0:0:0:
252,188,51330,2,0,L|160:197,1,85,2|2,0:0|0:0,0:0:0:0:
319,344,51852,2,0,L|411:353,1,85,10|0,2:1|0:0,0:0:0:0:
505,229,52373,5,2,0:0:0:0:
414,204,52634,1,2,0:2:0:0:
377,124,52895,2,0,L|469:133,1,85,10|0,0:1|0:0,0:0:0:0:
174,251,53417,2,0,L|82:260,1,85,2|2,0:0|0:2,0:0:0:0:
366,376,53939,2,0,L|458:385,1,85,10|0,0:1|0:0,0:0:0:0:
436,289,54460,5,2,0:0:0:0:
341,269,54721,1,2,0:0:0:0:
211,306,54982,1,10,0:1:0:0:
233,170,55243,1,0,0:0:0:0:
453,210,55504,1,2,0:0:0:0:
137,236,56026,1,10,2:1:0:0:
211,306,56286,1,0,0:0:0:0:
222,103,56547,5,2,0:0:0:0:
341,269,56808,1,2,0:2:0:0:
365,118,57069,1,10,0:1:0:0:
374,89,57134,1,0,0:0:0:0:
386,59,57200,2,0,L|393:100,1,42.5
408,233,57591,1,2,0:0:0:0:
238,108,57852,1,2,0:2:0:0:
490,65,58113,2,0,L|469:152,1,85,10|0,0:1|0:0,0:0:0:0:
214,261,58634,5,2,0:0:0:0:
180,176,58895,1,2,0:0:0:0:
238,108,59156,2,0,P|295:96|344:101,1,85,10|0,0:1|0:0,0:0:0:0:
447,244,59678,2,0,P|390:232|341:237,1,85,2|2,0:0|0:0,0:0:0:0:
217,373,60200,2,0,P|274:361|323:366,1,85,10|0,2:1|0:0,0:0:0:0:
447,244,60721,5,2,0:0:0:0:
501,168,60982,1,2,0:2:0:0:
447,96,61243,2,0,L|438:4,1,85,10|0,0:1|0:0,0:0:0:0:
262,122,61765,2,0,L|270:206,1,85,2|2,0:0|0:2,0:0:0:0:
105,119,62286,2,0,L|95:27,1,85,10|0,0:1|0:0,0:0:0:0:
17,96,62808,5,2,0:0:0:0:
48,182,63069,1,2,0:0:0:0:
105,119,63330,1,10,0:1:0:0:
171,248,63591,1,0,0:0:0:0:
238,57,63852,1,2,0:0:0:0:
286,343,64373,1,10,2:1:0:0:
364,216,64634,1,0,0:0:0:0:
171,248,64895,5,2,0:0:0:0:
240,65,65156,1,2,0:2:0:0:
286,343,65417,1,10,0:1:0:0:
289,356,65482,1,0,0:0:0:0:
294,373,65547,2,0,L|311:333,1,42.5
361,79,65939,5,2,0:0:0:0:
264,221,66200,1,2,0:2:0:0:
402,317,66460,1,10,0:1:0:0:
500,178,66721,1,0,0:0:0:0:
