osu file format v14

[General]
AudioFilename: audio.mp3
AudioLeadIn: 0
PreviewTime: 200
Countdown: 0
SampleSet: Soft
StackLeniency: 0.7
Mode: 0
LetterboxInBreaks: 0
WidescreenStoryboard: 1

[Editor]
DistanceSpacing: 1.5
BeatDivisor: 4
GridSize: 16
TimelineZoom: 1

[Metadata]
Title:Holiday Studio
TitleUnicode:Holiday Studio
Artist:Toby Fox
ArtistUnicode:Toby Fox
Creator:SilverYako
Version:Falcon's Hard
Source:DELTARUNE
Tags:"radiation" vgm music ost original official soundtrack sound track video game instrumental chapter 2 Ogg 0gg 7Falcon7 MonsieurSebas xmas x-mas ggraterson axelixiya christmas Aranel Falcon
BeatmapID:3354034
BeatmapSetID:1643205

[Difficulty]
HPDrainRate:4
CircleSize:3.5
OverallDifficulty:5.5
ApproachRate:7
SliderMultiplier:1.5
SliderTickRate:1

[Events]
//Background and Video events
0,0,"bgg.jpg",0,0
//Break Periods
//Storyboard Layer 0 (Background)
//Storyboard Layer 1 (Fail)
//Storyboard Layer 2 (Pass)
//Storyboard Layer 3 (Foreground)
//Storyboard Layer 4 (Overlay)
//Storyboard Sound Samples

[TimingPoints]
200,521.739130434783,4,2,1,80,1,0
200,-100,4,2,1,80,0,0
34113,-83.3333333333333,4,2,1,80,0,0
66200,-83.3333333333333,4,2,1,65,0,0
66460,-83.3333333333333,4,2,1,45,0,0
66721,-83.3333333333333,4,2,1,25,0,0

[Colours]
Combo1 : 124,211,147
Combo2 : 84,192,224
Combo3 : 247,183,140

[HitObjects]
239,109,200,5,2,0:0:0:0:
343,154,461,1,2,0:0:0:0:
291,54,722,2,0,P|259:36|222:36,1,75,10|0,0:1|0:0,0:0:0:0:
265,177,1243,1,2,0:0:0:0:
165,128,1504,1,2,0:0:0:0:
211,232,1766,2,0,P|241:253|278:253,1,75,10|0,2:1|0:0,0:0:0:0:
354,171,2286,5,2,0:0:0:0:
465,152,2547,1,2,0:2:0:0:
508,256,2808,2,0,P|476:301|422:315,1,112.5,10|0,0:1|0:0,0:0:0:0:
360,273,3330,2,0,B|316:243|277:262|290:267|247:289|200:259,1,150,2|10,0:0|0:1,0:0:0:0:
251,159,4113,1,0,0:0:0:0:
138,154,4373,6,0,P|117:184|108:220,1,75,2|2,0:0|0:0,0:0:0:0:
184,305,4895,2,0,P|203:273|214:237,1,75,10|0,0:1|0:0,0:0:0:0:
301,165,5417,2,0,B|320:196|320:196|331:232,1,75,2|2,0:0|0:0,0:0:0:0:
213,237,5939,2,0,B|193:205|193:205|182:169,1,75,10|0,2:1|0:0,0:0:0:0:
269,98,6460,6,0,L|261:189,1,75,2|2,0:0|0:2,0:0:0:0:
193,262,6982,1,10,0:1:0:0:
109,186,7243,1,0,0:0:0:0:
153,82,7504,2,0,P|119:62|82:66,1,75,2|2,0:0|0:2,0:0:0:0:
9,150,8026,1,10,0:1:0:0:
227,182,8547,5,2,0:0:0:0:
125,146,8808,1,2,0:0:0:0:
182,244,9070,2,0,P|216:258|253:254,1,75,10|0,0:1|0:0,0:0:0:0:
347,137,9591,1,2,0:0:0:0:
240,170,9852,1,2,0:0:0:0:
301,75,10114,2,0,P|335:60|372:64,1,75,10|0,2:1|0:0,0:0:0:0:
444,150,10634,6,0,B|429:184|429:184|403:212,1,75,2|2,0:0|0:2,0:0:0:0:
293,239,11156,2,0,L|322:363,1,112.5,10|0,0:1|0:0,0:0:0:0:
389,374,11678,2,0,P|460:365|493:285,1,150,2|10,0:0|0:1,0:0:0:0:
430,199,12460,1,0,0:0:0:0:
338,264,12721,6,0,L|264:270,1,75,2|2,0:0|0:0,0:0:0:0:
177,198,13243,2,0,L|252:192,1,75,10|0,0:1|0:0,0:0:0:0:
356,149,13765,2,0,P|346:113|321:86,1,75,2|2,0:0|0:0,0:0:0:0:
209,69,14286,2,0,P|220:33|245:6,1,75,10|0,2:1|0:0,0:0:0:0:
357,3,14808,5,2,0:0:0:0:
445,72,15069,1,2,0:2:0:0:
398,174,15330,1,10,0:1:0:0:
308,105,15591,1,0,0:0:0:0:
230,187,15852,2,0,P|157:187|102:138,1,150,2|10,0:0|0:1,0:0:0:0:
317,73,16895,5,2,0:0:0:0:
314,186,17156,1,2,0:0:0:0:
391,103,17417,2,0,P|397:66|385:31,1,75,10|0,0:1|0:0,0:0:0:0:
234,38,17939,1,2,0:0:0:0:
247,149,18200,1,2,0:0:0:0:
166,71,18460,2,0,P|160:34|171:-2,1,75,10|0,2:1|0:0,0:0:0:0:
267,56,18982,6,0,B|298:81|298:81|312:114,1,75,2|2,0:0|0:2,0:0:0:0:
280,221,19504,2,0,P|234:251|179:244,1,112.5,10|0,0:1|0:0,0:0:0:0:
207,174,20026,2,0,P|135:177|103:241,1,150,2|10,0:0|0:1,0:0:0:0:
178,323,20808,1,0,0:0:0:0:
274,264,21069,6,0,P|282:307|266:349,1,75,2|2,0:0|0:0,0:0:0:0:
165,304,21591,2,0,P|157:261|173:219,1,75,10|0,0:1|0:0,0:0:0:0:
276,167,22113,2,0,B|267:203|267:203|240:230,1,75,2|2,0:0|0:0,0:0:0:0:
150,140,22635,2,0,B|158:103|158:103|193:66,1,75,10|0,2:1|0:0,0:0:0:0:
295,60,23156,5,2,0:0:0:0:
361,150,23417,1,2,0:2:0:0:
314,252,23678,1,10,0:1:0:0:
201,254,23939,1,0,0:0:0:0:
145,156,24200,2,0,B|124:147|101:157|109:161|87:172|65:161,1,75,2|2,0:0|0:2,0:0:0:0:
0,77,24721,1,10,0:1:0:0:
224,95,25243,5,2,0:0:0:0:
232,214,25504,1,2,0:0:0:0:
300,100,25766,2,0,P|293:63|268:35,1,75,10|0,0:1|0:0,0:0:0:0:
203,127,26286,1,2,0:0:0:0:
174,18,26547,1,2,0:0:0:0:
125,125,26809,2,0,P|133:161|156:191,1,75,10|0,2:1|0:0,0:0:0:0:
239,266,27330,6,0,B|269:288|269:288|306:286,1,75,2|2,0:0|0:2,0:0:0:0:
398,352,27852,2,0,L|401:239,1,112.5,10|0,0:1|0:0,0:0:0:0:
458,191,28373,2,0,B|424:153|424:153|330:119,1,150,2|10,0:0|0:1,0:0:0:0:
229,168,29156,1,0,0:0:0:0:
144,94,29417,6,0,L|218:86,1,75,2|2,0:0|0:0,0:0:0:0:
310,20,29939,2,0,L|235:12,1,75,10|0,0:1|0:0,0:0:0:0:
122,14,30460,2,0,P|85:22|59:48,1,75,2|2,0:0|0:0,0:0:0:0:
137,130,30982,2,0,P|169:148|206:149,1,75,10|0,2:1|0:0,0:0:0:0:
306,95,31504,5,2,0:0:0:0:
202,57,31765,1,2,0:2:0:0:
308,21,32026,2,0,P|344:28|369:54,1,75,10|0,0:1|0:0,0:0:0:0:
425,152,32547,2,0,P|374:224|307:256,1,150,2|10,0:0|0:1,0:0:0:0:
124,140,33591,6,0,L|198:146,1,75,2|2,0:0|0:0,0:0:0:0:
318,70,34113,6,0,P|306:113|277:146,1,89.9999972534181,10|0,0:1|0:0,0:0:0:0:
284,281,34634,2,0,P|246:250|237:207,1,89.9999972534181,2|2,0:0|0:0,0:0:0:0:
111,149,35156,2,0,P|154:137|197:145,1,89.9999972534181,10|0,2:1|0:0,0:0:0:0:
319,86,35678,6,0,L|245:34,1,89.9999972534181,2|2,0:0|0:2,0:0:0:0:
398,88,36200,2,0,L|480:51,1,89.9999972534181,10|0,0:1|0:0,0:0:0:0:
355,154,36721,2,0,L|348:244,1,89.9999972534181,2|2,0:0|0:2,0:0:0:0:
465,310,37243,2,0,P|489:224|470:137,1,179.999994506836,10|2,0:1|0:0,0:0:0:0:
374,232,38026,5,2,0:0:0:0:
309,113,38286,2,0,P|269:143|246:187,1,89.9999972534181,10|0,0:1|0:0,0:0:0:0:
245,316,38808,1,2,0:0:0:0:
245,316,39069,1,2,0:0:0:0:
360,246,39330,2,0,P|400:216|423:172,1,89.9999972534181,10|0,2:1|0:0,0:0:0:0:
284,177,39852,5,2,0:0:0:0:
172,256,40113,1,2,0:2:0:0:
132,127,40373,2,0,P|115:104|92:89,2,44.999998626709,10|0|0,0:1|0:0|0:0,0:0:0:0:
230,33,40895,2,0,P|269:58|294:95,1,89.9999972534181,2|2,0:0|0:2,0:0:0:0:
346,218,41417,2,0,P|385:193|410:157,1,89.9999972534181,10|0,0:1|0:0,0:0:0:0:
510,66,41939,6,0,L|503:156,1,89.9999972534181,2|2,0:0|0:0,0:0:0:0:
395,75,42460,6,0,B|347:79|347:79|303:111,1,89.9999972534181,10|0,0:1|0:0,0:0:0:0:
262,258,42982,2,0,B|282:214|282:214|276:160,1,89.9999972534181,2|2,0:0|0:0,0:0:0:0:
167,52,43504,2,0,B|194:91|194:91|244:113,1,89.9999972534181,10|0,2:1|0:0,0:0:0:0:
148,213,44026,6,0,P|103:215|62:234,1,89.9999972534181,2|2,0:0|0:2,0:0:0:0:
209,164,44547,2,0,P|229:124|233:79,1,89.9999972534181,10|0,0:1|0:0,0:0:0:0:
224,241,45069,2,0,P|248:278|285:304,1,89.9999972534181,2|2,0:0|0:2,0:0:0:0:
388,216,45591,2,0,B|414:218|437:195|437:195|469:274|397:331,1,179.999994506836,10|2,0:1|0:0,0:0:0:0:
301,243,46373,5,2,0:0:0:0:
179,302,46634,2,0,P|165:259|172:215,1,89.9999972534181,10|0,0:1|0:0,0:0:0:0:
207,87,47156,1,2,0:0:0:0:
207,87,47417,1,2,0:0:0:0:
294,190,47678,2,0,L|389:181,1,89.9999972534181,10|0,2:1|0:0,0:0:0:0:
398,46,48200,5,2,0:0:0:0:
282,113,48460,1,2,0:2:0:0:
173,32,48721,2,0,P|154:18|134:10,2,44.999998626709,10|0|0,0:1|0:0|0:0,0:0:0:0:
120,160,49243,2,0,B|161:147|161:147|200:117,1,89.9999972534181,2|2,0:0|0:2,0:0:0:0:
293,21,49765,2,0,B|334:33|334:33|373:63,1,89.9999972534181,10|0,0:1|0:0,0:0:0:0:
462,161,50286,6,0,L|452:266,1,89.9999972534181,2|2,0:0|0:0,0:0:0:0:
325,291,50808,6,0,L|332:201,1,89.9999972534181,10|0,0:1|0:0,0:0:0:0:
240,77,51330,2,0,L|313:128,1,89.9999972534181,2|2,0:0|0:0,0:0:0:0:
466,111,51852,2,0,L|384:149,1,89.9999972534181,10|0,2:1|0:0,0:0:0:0:
251,176,52373,6,0,B|232:221|232:221|253:281,1,89.9999972534181,2|2,0:0|0:2,0:0:0:0:
219,99,52895,2,0,B|189:60|189:60|127:49,1,89.9999972534181,10|0,0:1|0:0,0:0:0:0:
300,112,53417,2,0,B|348:105|348:105|389:58,1,89.9999972534181,2|2,0:0|0:2,0:0:0:0:
509,38,53939,2,0,B|526:89|500:139|496:124|468:174|502:235,1,179.999994506836,10|2,0:1|0:0,0:0:0:0:
405,315,54721,5,2,0:0:0:0:
365,185,54982,2,0,P|335:137|285:113,1,89.9999972534181,10|0,0:1|0:0,0:0:0:0:
180,159,55504,1,2,0:0:0:0:
180,159,55765,1,2,0:0:0:0:
204,26,56026,2,0,B|250:22|250:22|300:47,1,89.9999972534181,10|0,2:1|0:0,0:0:0:0:
354,159,56547,5,2,0:0:0:0:
452,66,56808,1,2,0:2:0:0:
456,200,57069,2,0,P|476:188|491:171,2,44.999998626709,10|0|0,0:1|0:0|0:0,0:0:0:0:
395,323,57591,2,0,L|388:234,1,89.9999972534181,2|2,0:0|0:2,0:0:0:0:
291,137,58113,2,0,L|299:227,1,89.9999972534181,10|0,0:1|0:0,0:0:0:0:
182,294,58634,6,0,L|273:302,1,89.9999972534181,2|2,0:0|0:0,0:0:0:0:
351,192,59156,6,0,B|371:157|371:157|416:136,1,89.9999972534181,10|0,0:1|0:0,0:0:0:0:
280,224,59678,2,0,B|239:224|239:224|200:195,1,89.9999972534181,2|2,0:0|0:0,0:0:0:0:
345,269,60200,2,0,B|367:303|367:303|362:352,1,89.9999972534181,10|0,2:1|0:0,0:0:0:0:
416,228,60721,6,0,P|382:198|339:186,1,89.9999972534181,2|2,0:0|0:2,0:0:0:0:
207,280,61243,2,0,P|249:265|281:234,1,89.9999972534181,10|0,0:1|0:0,0:0:0:0:
268,74,61765,2,0,P|259:117|270:161,1,89.9999972534181,2|2,0:0|0:2,0:0:0:0:
394,108,62286,2,0,B|429:146|417:192|417:192|446:227|437:282,1,179.999994506836,10|2,0:1|0:0,0:0:0:0:
303,257,63069,5,2,0:0:0:0:
206,351,63330,2,0,P|163:342|125:319,1,89.9999972534181,10|0,0:1|0:0,0:0:0:0:
73,198,63852,1,2,0:0:0:0:
73,198,64113,1,2,0:0:0:0:
196,251,64373,2,0,B|233:226|233:226|240:178,1,89.9999972534181,10|0,2:1|0:0,0:0:0:0:
299,59,64895,5,2,0:0:0:0:
182,126,65156,1,2,0:2:0:0:
93,31,65417,2,0,P|79:49|69:69,2,44.999998626709,10|0|0,0:1|0:0|0:0,0:0:0:0:
224,62,65939,1,2,0:0:0:0:
108,131,66200,1,2,0:2:0:0:
201,200,66460,1,10,0:1:0:0:
117,253,66721,1,0,0:0:0:0:
