osu file format v14

[General]
AudioFilename: audio.mp3
AudioLeadIn: 0
PreviewTime: 200
Countdown: 0
SampleSet: Soft
StackLeniency: 0.7
Mode: 0
LetterboxInBreaks: 0
WidescreenStoryboard: 1

[Editor]
DistanceSpacing: 1
BeatDivisor: 1
GridSize: 32
TimelineZoom: 1

[Metadata]
Title:Holiday Studio
TitleUnicode:Holiday Studio
Artist:Toby Fox
ArtistUnicode:Toby Fox
Creator:SilverYako
Version:Easy
Source:DELTARUNE
Tags:"radiation" vgm music ost original official soundtrack sound track video game instrumental chapter 2 Ogg 0gg 7Falcon7 MonsieurSebas xmas x-mas ggraterson axelixiya christmas Aranel Falcon
BeatmapID:3354033
BeatmapSetID:1643205

[Difficulty]
HPDrainRate:3
CircleSize:3.5
OverallDifficulty:2
ApproachRate:2.5
SliderMultiplier:1.1
SliderTickRate:1

[Events]
//Background and Video events
0,0,"bgg.jpg",0,0
//Break Periods
//Storyboard Layer 0 (Background)
//Storyboard Layer 1 (Fail)
//Storyboard Layer 2 (Pass)
//Storyboard Layer 3 (Foreground)
//Storyboard Layer 4 (Overlay)
//Storyboard Sound Samples

[TimingPoints]
200,521.739130434783,4,2,1,80,1,0
200,-100,4,2,1,80,0,0

[Colours]
Combo1 : 124,211,147
Combo2 : 84,192,224
Combo3 : 247,183,140

[HitObjects]
33,358,200,6,0,L|54:251,1,110,2|10,0:0|0:1,0:0:0:0:
164,248,1243,2,0,L|185:355,1,110,2|10,0:0|2:1,0:0:0:0:
294,364,2286,2,0,B|346:319|410:331|380:360|447:368|497:321,1,220,2|2,0:0|0:0,0:0:0:0:
501,101,4373,6,0,L|390:83,1,110,2|10,0:0|0:1,0:0:0:0:
297,26,5417,2,0,L|176:40,1,110,2|10,0:0|2:1,0:0:0:0:
80,62,6460,2,0,P|54:167|112:255,1,220,2|2,0:0|0:0,0:0:0:0:
210,305,8026,1,10,0:1:0:0:
291,230,8547,6,0,L|309:116,1,110,2|10,0:0|0:1,0:0:0:0:
418,124,9591,2,0,L|436:238,1,110,2|10,0:0|2:1,0:0:0:0:
489,328,10634,2,0,B|407:337|407:337|358:372|358:372|279:380,1,220,2|2,0:0|0:0,0:0:0:0:
68,325,12721,6,0,P|42:279|42:221,1,110,2|10,0:0|0:1,0:0:0:0:
117,143,13765,2,0,L|104:22,1,110,2|10,0:0|2:1,0:0:0:0:
213,11,14808,2,0,P|320:3|405:68,1,220,2|2,0:0|0:0,0:0:0:0:
425,177,16373,1,10,0:1:0:0:
339,246,16895,6,0,B|282:250|282:250|216:222,1,110,2|10,0:0|0:1,0:0:0:0:
139,172,17939,2,0,B|90:151|90:151|33:155,1,110,2|10,0:0|2:1,0:0:0:0:
16,264,18982,2,0,P|70:345|184:347,1,220,2|2,0:0|0:0,0:0:0:0:
366,223,21069,6,0,L|382:106,1,110,2|10,0:0|0:1,0:0:0:0:
271,99,22113,2,0,L|287:216,1,110,2|10,0:0|2:1,0:0:0:0:
276,317,23156,2,0,B|215:305|198:253|198:253|156:288|88:276,1,220,2|2,0:0|0:0,0:0:0:0:
2,210,24721,1,10,0:1:0:0:
59,116,25243,6,0,L|81:8,1,110,2|10,0:0|0:1,0:0:0:0:
166,77,26286,2,0,L|197:189,1,110,2|10,0:0|2:1,0:0:0:0:
269,265,27330,2,0,B|316:215|308:148|279:178|267:114|312:62,1,220,2|2,0:0|0:0,0:0:0:0:
488,193,29417,6,0,L|504:323,1,110,2|10,0:0|0:1,0:0:0:0:
391,298,30460,2,0,L|399:169,1,110,2|10,0:0|2:1,0:0:0:0:
407,78,31504,2,0,B|306:36|306:36|188:63,1,220,2|2,0:0|0:0,0:0:0:0:
113,132,33069,1,10,0:1:0:0:
79,236,33591,5,2,0:0:0:0:
126,335,34113,2,0,L|235:346,1,110,10|2,0:1|0:0,0:0:0:0:
344,362,35156,2,0,L|453:355,1,110,10|2,2:1|0:0,0:0:0:0:
443,245,36200,2,0,L|334:256,1,110,10|2,0:1|0:0,0:0:0:0:
226,258,37243,2,0,L|117:251,1,110,10|2,0:1|0:0,0:0:0:0:
34,177,38286,6,0,B|84:130|151:138|121:167|185:179|237:134,2,220,10|10|10,0:1|2:1|0:1,0:0:0:0:
18,287,40895,1,2,0:0:0:0:
235,319,41939,5,2,0:0:0:0:
305,234,42460,2,0,L|295:120,1,110,10|2,0:1|0:0,0:0:0:0:
224,40,43504,2,0,L|214:154,1,110,10|2,2:1|0:0,0:0:0:0:
133,224,44547,2,0,L|123:110,2,110,10|2|10,0:1|0:0|0:1,0:0:0:0:
154,332,46113,6,0,B|203:373|203:373|375:356,2,220,2|2|2,0:0|0:0|0:0,0:0:0:0:
55,284,48721,2,0,L|46:172,1,110,10|2,0:1|0:0,0:0:0:0:
116,89,49765,1,10,0:1:0:0:
219,36,50286,5,2,0:0:0:0:
328,25,50808,2,0,L|447:45,1,110,10|2,0:1|0:0,0:0:0:0:
495,136,51852,2,0,L|376:156,1,110,10|2,2:1|0:0,0:0:0:0:
313,236,52895,2,0,L|432:256,1,110,10|2,0:1|0:0,0:0:0:0:
498,332,53939,2,0,L|379:352,1,110,10|2,0:1|0:0,0:0:0:0:
279,340,54982,6,0,P|211:259|234:155,2,220,10|10|10,0:1|2:1|0:1,0:0:0:0:
389,350,57591,1,2,0:0:0:0:
474,147,58634,5,2,0:0:0:0:
401,64,59156,2,0,L|286:49,1,110,10|2,0:1|0:0,0:0:0:0:
181,46,60200,2,0,L|71:60,1,110,10|2,2:1|0:0,0:0:0:0:
68,170,61243,2,0,L|183:155,2,110,10|2|10,0:1|0:0|0:1,0:0:0:0:
18,268,62808,6,0,B|94:281|94:281|141:321|141:321|238:334,2,220,2|2|2,0:0|0:0|0:0,0:0:0:0:
7,158,65417,2,0,L|15:49,1,110,10|2,0:1|0:0,0:0:0:0:
120,15,66460,1,10,0:1:0:0:
