osu file format v14

[General]
AudioFilename: audio.mp3
AudioLeadIn: 0
PreviewTime: 200
Countdown: 0
SampleSet: Soft
StackLeniency: 0.7
Mode: 0
LetterboxInBreaks: 0
WidescreenStoryboard: 1

[Editor]
Bookmarks: 3939
DistanceSpacing: 1.2
BeatDivisor: 4
GridSize: 32
TimelineZoom: 1

[Metadata]
Title:Holiday Studio
TitleUnicode:Holiday Studio
Artist:Toby Fox
ArtistUnicode:Toby Fox
Creator:SilverYako
Version:Collab Normal
Source:DELTARUNE
Tags:"radiation" vgm music ost original official soundtrack sound track video game instrumental chapter 2 Ogg 0gg 7Falcon7 MonsieurSebas xmas x-mas ggraterson axelixiya christmas Aranel Falcon
BeatmapID:3356422
BeatmapSetID:1643205

[Difficulty]
HPDrainRate:2
CircleSize:4
OverallDifficulty:3
ApproachRate:4.5
SliderMultiplier:1.2
SliderTickRate:1

[Events]
//Background and Video events
0,0,"bgg.jpg",0,0
//Break Periods
//Storyboard Layer 0 (Background)
//Storyboard Layer 1 (Fail)
//Storyboard Layer 2 (Pass)
//Storyboard Layer 3 (Foreground)
//Storyboard Layer 4 (Overlay)
//Storyboard Sound Samples

[TimingPoints]
200,521.739130434783,4,2,1,80,1,0
200,-100,4,2,1,80,0,0

[Colours]
Combo1 : 124,211,147
Combo2 : 84,192,224
Combo3 : 247,183,140

[HitObjects]
103,85,200,6,0,B|156:112|156:112|233:78,1,120,2|10,0:0|0:1,0:0:0:0:
274,53,982,1,0,0:0:0:0:
340,25,1243,2,0,B|395:0|395:0|448:27,1,120,2|10,0:0|2:1,0:0:0:0:
484,166,2286,2,0,L|408:145,1,60,2|2,0:0|0:2,0:0:0:0:
369,194,2808,2,0,L|293:215,1,60,10|0,0:1|0:0,0:0:0:0:
267,267,3330,2,0,B|236:252|204:267|204:267|183:306|130:311,1,120,2|10,0:0|0:1,0:0:0:0:
24,276,4373,6,0,P|10:218|28:154,1,120,2|10,0:0|0:1,0:0:0:0:
62,99,5156,1,0,0:0:0:0:
121,57,5417,2,0,P|179:43|243:61,1,120,2|10,0:0|2:1,0:0:0:0:
298,95,6200,1,0,0:0:0:0:
340,152,6460,2,0,L|326:234,1,60,2|2,0:0|0:2,0:0:0:0:
275,258,6982,2,0,L|289:340,1,60,10|0,0:1|0:0,0:0:0:0:
331,372,7504,1,2,0:0:0:0:
475,384,8026,1,10,0:1:0:0:
499,243,8547,6,0,B|504:155|504:155|467:111,1,120,2|10,0:0|0:1,0:0:0:0:
423,90,9330,1,0,0:0:0:0:
362,51,9591,2,0,B|341:75|341:75|346:163,1,120,2|10,0:0|2:1,0:0:0:0:
279,284,10634,6,0,P|239:259|223:263,1,60,2|2,0:0|0:2,0:0:0:0:
171,304,11156,2,0,P|142:306|122:328,1,60,10|0,0:1|0:0,0:0:0:0:
50,316,11678,2,0,B|38:294|37:255|67:275|72:233|45:204,1,120,2|10,0:0|0:1,0:0:0:0:
98,70,12721,6,0,P|157:92|232:74,1,120,2|10,0:0|0:1,0:0:0:0:
284,70,13504,1,0,0:0:0:0:
319,132,13765,2,0,P|297:191|315:266,1,120,2|10,0:0|2:1,0:0:0:0:
346,304,14547,1,0,0:0:0:0:
414,326,14808,2,0,L|483:314,1,60,2|2,0:0|0:2,0:0:0:0:
507,251,15330,2,0,L|493:169,1,60,10|0,0:1|0:0,0:0:0:0:
444,142,15852,1,2,0:0:0:0:
330,229,16373,1,10,0:1:0:0:
211,311,16895,6,0,P|131:345|87:322,1,120,2|10,0:0|0:1,0:0:0:0:
63,276,17678,1,0,0:0:0:0:
77,205,17939,2,0,P|157:171|201:194,1,120,2|10,0:0|2:1,0:0:0:0:
296,270,18982,2,0,L|376:292,1,60,2|2,0:0|0:2,0:0:0:0:
399,341,19504,2,0,L|468:320,1,60,10|0,0:1|0:0,0:0:0:0:
500,266,20026,2,0,B|511:244|512:205|482:225|477:183|504:154,1,120,2|10,0:0|0:1,0:0:0:0:
448,21,21069,6,0,L|323:36,1,120,2|10,0:0|0:1,0:0:0:0:
256,42,21852,1,0,0:0:0:0:
185,55,22113,2,0,L|60:70,1,120,2|10,0:0|2:1,0:0:0:0:
0,96,22895,1,0,0:0:0:0:
47,149,23156,2,0,L|61:231,1,60,2|2,0:0|0:2,0:0:0:0:
106,260,23678,2,0,L|92:342,1,60,10|0,0:1|0:0,0:0:0:0:
48,373,24200,1,2,0:0:0:0:
176,311,24722,1,10,0:1:0:0:
302,378,25243,6,0,B|317:299|317:299|294:235,1,120,2|10,0:0|0:1,0:0:0:0:
260,203,26026,1,0,0:0:0:0:
260,203,26286,2,0,B|245:124|245:124|268:60,1,120,2|10,0:0|2:1,0:0:0:0:
393,35,27330,2,0,P|427:47|445:75,1,60,2|2,0:0|0:2,0:0:0:0:
495,112,27852,2,0,P|499:147|482:176,1,60,10|0,0:1|0:0,0:0:0:0:
458,234,28373,2,0,B|413:240|413:240|379:267|379:267|343:274,1,120,2|10,0:0|0:1,0:0:0:0:
211,233,29417,6,0,P|217:177|193:101,1,120,2|10,0:0|0:1,0:0:0:0:
159,56,30200,1,0,0:0:0:0:
128,120,30460,2,0,P|122:176|146:252,1,120,2|10,0:0|2:1,0:0:0:0:
181,301,31243,1,0,0:0:0:0:
181,301,31504,2,0,L|261:316,1,60,2|2,0:0|0:2,0:0:0:0:
303,345,32026,2,0,L|383:330,1,60,10|0,0:1|0:0,0:0:0:0:
431,314,32548,1,2,0:0:0:0:
500,187,33070,1,10,0:1:0:0:
403,84,33591,6,0,L|304:70,1,60,2|2,0:0|0:0,0:0:0:0:
273,59,34113,2,0,L|174:45,1,60,10|0,0:1|0:0,0:0:0:0:
162,101,34634,2,0,L|172:242,1,120,2|10,0:0|2:1,0:0:0:0:
256,336,35678,2,0,L|123:354,1,120,2|10,0:0|0:1,0:0:0:0:
68,368,36460,1,0,0:0:0:0:
15,319,36721,2,0,L|20:235,1,60,2|2,0:0|0:2,0:0:0:0:
25,187,37243,1,10,0:1:0:0:
91,72,37764,5,2,0:0:0:0:
233,91,38286,2,0,L|299:103,1,60,10|0,0:1|0:0,0:0:0:0:
362,116,38808,1,2,0:0:0:0:
460,221,39330,2,0,L|448:287,1,60,10|0,2:1|0:0,0:0:0:0:
433,350,39852,2,0,B|350:378|350:378|292:329|292:329|214:355,1,240,2|2,0:0|0:0,0:0:0:0:
150,371,41156,1,2,0:2:0:0:
110,310,41417,1,10,0:1:0:0:
22,195,41939,6,0,P|24:135|38:117,1,60,2|2,0:0|0:0,0:0:0:0:
83,97,42460,2,0,P|134:76|160:81,1,60,10|0,0:1|0:0,0:0:0:0:
207,58,42982,2,0,L|339:93,1,120,2|10,0:0|2:1,0:0:0:0:
443,7,44026,2,0,P|491:46|504:114,1,120,2|10,0:0|0:1,0:0:0:0:
484,170,44808,1,0,0:0:0:0:
453,235,45069,2,0,L|466:309,1,60,2|2,0:0|0:2,0:0:0:0:
476,365,45591,1,10,0:1:0:0:
343,308,46112,5,2,0:0:0:0:
209,362,46634,2,0,L|143:374,1,60,10|0,0:1|0:0,0:0:0:0:
87,336,47156,1,2,0:0:0:0:
9,214,47678,2,0,L|19:154,1,60,10|0,2:1|0:0,0:0:0:0:
9,83,48200,2,0,B|113:32|141:138|241:79,1,240,2|2,0:0|0:0,0:0:0:0:
298,38,49504,1,2,0:2:0:0:
360,74,49765,1,10,0:1:0:0:
288,198,50286,6,0,L|303:276,1,60,2|2,0:0|0:0,0:0:0:0:
318,326,50808,1,10,0:1:0:0:
459,352,51330,2,0,L|477:216,1,120,2|10,0:0|2:1,0:0:0:0:
501,91,52373,2,0,P|449:54|385:59,1,120,2|10,0:0|0:1,0:0:0:0:
329,79,53155,1,0,0:0:0:0:
329,79,53417,2,0,L|252:69,1,60,2|2,0:0|0:2,0:0:0:0:
198,59,53938,1,10,0:1:0:0:
67,119,54459,5,2,0:0:0:0:
96,260,54982,2,0,P|127:273|162:272,1,60,10|0,0:1|0:0,0:0:0:0:
222,254,55503,1,2,0:0:0:0:
327,352,56026,2,0,P|358:339|393:340,1,60,10|0,2:1|0:0,0:0:0:0:
455,347,56547,2,0,B|506:243|400:215|459:115,1,240,2|2,0:0|0:0,0:0:0:0:
506,64,57851,1,2,0:2:0:0:
456,11,58112,1,10,0:1:0:0:
336,91,58634,6,0,L|267:102,1,60,2|2,0:0|0:0,0:0:0:0:
205,113,59156,1,10,0:1:0:0:
90,25,59678,2,0,P|45:65|38:124,1,120,2|10,0:0|2:1,0:0:0:0:
109,247,60721,2,0,L|237:271,1,120,2|10,0:0|0:1,0:0:0:0:
289,314,61503,1,0,0:0:0:0:
289,314,61765,2,0,L|366:304,1,60,2|2,0:0|0:2,0:0:0:0:
419,295,62286,1,10,0:1:0:0:
482,166,62807,5,2,0:0:0:0:
389,55,63330,2,0,P|358:42|323:43,1,60,10|0,0:1|0:0,0:0:0:0:
263,61,63851,1,2,0:0:0:0:
160,163,64374,2,0,P|129:176|94:175,1,60,10|0,2:1|0:0,0:0:0:0:
44,134,64895,2,0,L|23:10,2,120,2|10|2,0:0|0:1|0:0,0:0:0:0:
16,202,66200,1,2,0:2:0:0:
16,202,66460,2,0,L|30:287,1,60,10|0,0:1|0:0,0:0:0:0:
