osu file format v14

[General]
AudioFilename: UnderTale Demo Heartache.mp3
AudioLeadIn: 0
PreviewTime: 30140
Countdown: 0
SampleSet: Normal
StackLeniency: 0.7
Mode: 0
LetterboxInBreaks: 1
WidescreenStoryboard: 1

[Editor]
Bookmarks: 20336
DistanceSpacing: 1.7
BeatDivisor: 4
GridSize: 8
TimelineZoom: 1

[Metadata]
Title:Heartache
TitleUnicode:Heartache
Artist:Toby Fox
ArtistUnicode:Toby Fox
Creator:Rakyero
Version:Broken Heart
Source:Undertale
Tags:
BeatmapID:739897
BeatmapSetID:334397

[Difficulty]
HPDrainRate:7
CircleSize:5
OverallDifficulty:8.5
ApproachRate:9.5
SliderMultiplier:1.5
SliderTickRate:1

[Events]
//Background and Video events
0,0,"photo-original.jpg",0,0
//Break Periods
2,51353,53764
//Storyboard Layer 0 (Background)
//Storyboard Layer 1 (Fail)
//Storyboard Layer 2 (Pass)
//Storyboard Layer 3 (Foreground)
//Storyboard Sound Samples

[TimingPoints]
57,251.077541113947,4,1,0,100,1,0
69228,251.077541113947,4,1,0,100,1,0
69328,-133.333333333333,4,1,0,100,0,0
72366,251.077541113947,4,1,0,100,1,0
72466,-100,4,1,0,100,0,0
81404,251.077541113947,4,1,0,100,1,0
81404,-133.333333333333,4,1,0,100,0,0
84793,251.077541113947,4,1,0,100,1,0
84793,-100,4,1,0,100,0,0

[HitObjects]
128,80,58,5,0,0:0:0:0:
224,104,183,1,0,0:0:0:0:
224,200,309,2,0,L|320:200,1,75
376,136,560,1,0,0:0:0:0:
376,328,811,1,0,0:0:0:0:
296,280,936,2,0,P|256:280|224:240,1,75
136,288,1188,1,0,0:0:0:0:
136,192,1313,1,0,0:0:0:0:
72,72,1564,5,0,0:0:0:0:
168,96,1690,1,0,0:0:0:0:
168,192,1815,1,0,0:0:0:0:
80,240,1941,2,0,L|80:144,1,75
248,64,2318,2,0,P|288:64|312:96,1,75
408,88,2569,1,0,0:0:0:0:
448,176,2694,1,0,0:0:0:0:
352,176,2820,1,0,0:0:0:0:
184,256,3071,5,0,0:0:0:0:
184,160,3197,2,0,L|264:160,1,75
328,224,3448,1,0,0:0:0:0:
328,128,3573,1,0,0:0:0:0:
152,48,3824,1,0,0:0:0:0:
88,120,3950,1,0,0:0:0:0:
184,120,4076,1,0,0:0:0:0:
128,200,4201,1,0,0:0:0:0:
224,200,4327,1,0,0:0:0:0:
360,48,4578,6,0,P|360:120|280:120,1,150
296,264,5080,1,0,0:0:0:0:
472,176,5331,1,0,0:0:0:0:
376,176,5457,2,0,L|280:176,1,75
256,40,5833,1,0,0:0:0:0:
256,232,6085,1,0,0:0:0:0:
256,136,6210,5,0,0:0:0:0:
184,64,6336,2,0,L|184:168,1,75
184,240,6587,1,0,0:0:0:0:
64,88,6838,6,0,P|64:136|88:176,1,75
72,256,7087,2,0,P|72:304|48:344,1,75
152,296,7340,1,0,0:0:0:0:
344,296,7591,2,0,L|416:248,1,75
408,152,7843,1,0,0:0:0:0:
336,80,7968,1,0,0:0:0:0:
408,152,8094,1,0,0:0:0:0:
176,192,8345,6,0,L|112:144,1,75
200,104,8596,1,0,0:0:0:0:
296,104,8721,1,0,0:0:0:0:
248,184,8847,1,0,0:0:0:0:
384,40,9098,1,0,0:0:0:0:
384,136,9224,2,0,L|384:216,1,75
456,272,9475,1,0,0:0:0:0:
456,176,9600,1,0,0:0:0:0:
392,104,9726,1,0,0:0:0:0:
272,104,9852,6,0,L|344:152,1,75
336,248,10104,1,0,0:0:0:0:
264,320,10229,1,0,0:0:0:0:
296,224,10354,1,0,0:0:0:0:
200,224,10479,1,0,0:0:0:0:
120,280,10605,6,0,P|56:280|56:208,1,150
56,112,11107,1,0,0:0:0:0:
152,112,11358,2,0,L|248:112,1,75
280,40,11609,1,0,0:0:0:0:
280,232,11861,1,0,0:0:0:0:
88,232,12112,5,0,0:0:0:0:
144,176,12237,1,0,0:0:0:0:
184,168,12300,1,0,0:0:0:0:
224,168,12363,1,0,0:0:0:0:
312,120,12488,2,0,P|368:88|392:88,1,75
440,160,12740,2,0,P|384:192|360:192,1,75
376,288,12991,5,0,0:0:0:0:
280,288,13116,1,0,0:0:0:0:
184,288,13242,2,0,L|120:232,1,75
64,168,13493,1,0,0:0:0:0:
144,112,13619,1,0,0:0:0:0:
208,184,13744,1,0,0:0:0:0:
240,160,13807,1,0,0:0:0:0:
272,136,13870,1,0,0:0:0:0:
352,80,13995,6,0,L|352:176,1,75
352,256,14246,2,0,L|248:256,1,75
264,160,14497,1,0,0:0:0:0:
168,160,14623,1,0,0:0:0:0:
168,256,14749,1,0,0:0:0:0:
256,296,14874,1,0,0:0:0:0:
264,200,15000,2,0,P|288:184|288:120,1,75
248,56,15251,1,0,0:0:0:0:
216,80,15314,1,0,0:0:0:0:
184,104,15376,1,0,0:0:0:0:
72,216,15502,5,0,0:0:0:0:
104,312,15628,1,0,0:0:0:0:
200,312,15753,2,0,L|288:312,1,75
360,264,16004,1,0,0:0:0:0:
456,264,16130,1,0,0:0:0:0:
456,168,16255,2,0,P|456:144|416:88,1,75
344,56,16507,1,0,0:0:0:0:
344,152,16632,1,0,0:0:0:0:
240,152,16758,1,0,0:0:0:0:
200,152,16820,1,0,0:0:0:0:
160,152,16883,1,0,0:0:0:0:
112,72,17009,5,0,0:0:0:0:
64,176,17134,2,0,P|64:216|112:240,1,75
184,240,17385,1,0,0:0:0:0:
352,240,17511,1,0,0:0:0:0:
248,136,17637,1,0,0:0:0:0:
392,88,17762,1,0,0:0:0:0:
392,240,17888,1,0,0:0:0:0:
256,312,18013,2,0,P|192:312|176:296,1,75
120,240,18264,5,0,0:0:0:0:
216,224,18390,1,0,0:0:0:0:
184,320,18516,1,0,0:0:0:0:
280,304,18641,1,0,0:0:0:0:
440,192,18892,2,0,L|352:192,1,75
296,120,19143,2,0,L|384:120,1,75
472,120,19395,1,0,0:0:0:0:
256,152,19646,5,0,0:0:0:0:
256,248,19771,1,0,0:0:0:0:
192,320,19897,2,0,L|192:216,1,75
192,144,20148,1,0,0:0:0:0:
376,80,20399,2,0,P|416:96|416:136,1,75
464,200,20650,1,0,0:0:0:0:
368,200,20776,2,0,P|328:184|328:144,1,75
152,72,21152,5,0,0:0:0:0:
248,72,21278,1,0,0:0:0:0:
248,168,21404,1,0,0:0:0:0:
152,168,21529,1,0,0:0:0:0:
152,72,21655,1,0,0:0:0:0:
360,72,21906,1,0,0:0:0:0:
264,72,22032,1,0,0:0:0:0:
264,168,22158,1,0,0:0:0:0:
360,168,22283,1,0,0:0:0:0:
360,72,22409,1,0,0:0:0:0:
360,264,22659,6,0,B|328:264|304:296|272:352|272:240,1,150
160,176,23161,1,0,0:0:0:0:
88,288,23413,2,0,L|168:288,1,75
264,288,23664,1,0,0:0:0:0:
264,192,23915,2,0,B|392:192|392:192|392:152,1,150
296,136,24292,5,0,0:0:0:0:
384,88,24417,1,0,0:0:0:0:
384,184,24543,1,0,0:0:0:0:
288,240,24668,1,0,0:0:0:0:
216,136,24919,1,0,0:0:0:0:
128,88,25044,1,0,0:0:0:0:
128,184,25170,1,0,0:0:0:0:
224,240,25295,1,0,0:0:0:0:
256,144,25422,1,0,0:0:0:0:
64,304,25673,6,0,L|64:208,1,75
152,264,25924,1,0,0:0:0:0:
248,264,26049,1,0,0:0:0:0:
200,176,26175,1,0,0:0:0:0:
392,176,26426,2,0,L|304:176,1,75
256,96,26677,1,0,0:0:0:0:
352,96,26803,1,0,0:0:0:0:
440,56,26928,1,0,0:0:0:0:
256,32,27180,6,0,L|168:32,1,75
88,64,27431,1,0,0:0:0:0:
128,152,27556,1,0,0:0:0:0:
232,112,27682,2,0,L|232:192,1,75
232,288,27933,1,0,0:0:0:0:
160,216,28059,1,0,0:0:0:0:
56,280,28184,2,0,L|112:352,1,75
176,280,28435,2,0,L|232:352,1,75
256,192,28686,6,0,P|296:192|296:96,1,150
211,126,29189,6,0,P|171:126|171:222,1,150
256,192,29565,1,0,0:0:0:0:
256,96,29691,1,0,0:0:0:0:
256,288,29942,2,0,L|256:136,1,150
184,72,30319,5,0,0:0:0:0:
168,104,30381,1,0,0:0:0:0:
152,136,30444,1,0,0:0:0:0:
72,192,30570,2,0,L|152:192,1,75
248,192,30821,2,0,L|192:272,1,75
112,296,31072,1,0,0:0:0:0:
208,296,31198,1,0,0:0:0:0:
304,296,31323,2,0,L|360:232,1,75
352,144,31574,1,0,0:0:0:0:
352,48,31700,1,0,0:0:0:0:
256,48,31825,5,0,0:0:0:0:
256,56,31888,1,0,0:0:0:0:
256,64,31951,1,0,0:0:0:0:
184,128,32077,2,0,P|200:168|256:168,1,75
328,176,32328,1,0,0:0:0:0:
280,256,32453,2,0,L|192:256,1,75
120,200,32704,1,0,0:0:0:0:
120,104,32830,1,0,0:0:0:0:
216,104,32956,2,0,P|216:144|256:144,1,75
344,152,33207,1,0,0:0:0:0:
352,48,33332,5,0,0:0:0:0:
384,48,33395,1,0,0:0:0:0:
416,48,33458,1,0,0:0:0:0:
416,144,33583,2,0,L|416:224,1,75
320,216,33834,2,0,L|376:288,1,75
456,312,34086,1,0,0:0:0:0:
360,312,34211,1,0,0:0:0:0:
264,312,34337,2,0,P|224:312|192:264,2,75
264,216,34713,1,0,0:0:0:0:
168,192,34839,5,0,0:0:0:0:
168,184,34902,1,0,0:0:0:0:
168,176,34965,1,0,0:0:0:0:
168,88,35090,2,0,P|208:112|248:112,1,75
320,56,35341,1,0,0:0:0:0:
320,152,35467,1,0,0:0:0:0:
400,104,35592,1,0,0:0:0:0:
472,40,35718,2,0,L|472:136,1,75
384,160,35969,2,0,L|384:56,1,75
288,88,36220,1,0,0:0:0:0:
192,88,36346,5,0,0:0:0:0:
168,112,36409,1,0,0:0:0:0:
144,144,36471,1,0,0:0:0:0:
144,240,36597,2,0,P|184:240|208:208,1,75
296,176,36848,2,0,P|296:224|336:240,1,75
416,240,37099,2,0,L|416:160,1,75
400,72,37350,1,0,0:0:0:0:
304,72,37476,1,0,0:0:0:0:
224,128,37601,1,0,0:0:0:0:
304,184,37727,1,0,0:0:0:0:
224,264,37852,1,0,0:0:0:0:
248,264,37915,1,0,0:0:0:0:
280,264,37978,1,0,0:0:0:0:
376,272,38104,6,0,P|392:232|392:176,2,75
296,328,38480,2,0,L|200:328,1,75
144,264,38732,1,0,0:0:0:0:
144,168,38857,1,0,0:0:0:0:
224,224,38983,1,0,0:0:0:0:
224,128,39108,2,0,P|256:96|304:96,1,75
352,168,39360,1,0,0:0:0:0:
352,200,39423,1,0,0:0:0:0:
352,232,39485,1,0,0:0:0:0:
448,240,39610,6,0,P|448:192|400:192,1,75
368,104,39862,2,0,L|288:104,1,75
208,56,40113,1,0,0:0:0:0:
128,112,40238,1,0,0:0:0:0:
128,208,40364,1,0,0:0:0:0:
224,208,40489,2,0,L|224:288,2,75
224,112,40866,1,0,0:0:0:0:
256,112,40929,1,0,0:0:0:0:
288,112,40992,1,0,0:0:0:0:
256,208,41117,6,0,P|216:256|176:256,1,75
96,256,41368,2,0,P|136:208|168:208,2,75
168,328,41745,1,0,0:0:0:0:
264,328,41871,1,0,0:0:0:0:
360,328,41996,2,0,L|360:248,1,75
360,152,42247,1,0,0:0:0:0:
264,152,42373,1,0,0:0:0:0:
264,184,42436,1,0,0:0:0:0:
264,216,42498,1,0,0:0:0:0:
168,216,42624,6,0,L|104:176,1,75
152,88,42875,2,0,L|216:128,1,75
256,216,43126,2,0,L|256:296,1,75
344,248,43377,1,0,0:0:0:0:
344,152,43503,1,0,0:0:0:0:
344,64,43621,2,0,L|248:64,1,75
168,64,43872,1,0,0:0:0:0:
136,72,43935,1,0,0:0:0:0:
104,88,43998,1,0,0:0:0:0:
48,168,44123,6,0,P|48:224|72:256,1,75
152,240,44375,1,0,0:0:0:0:
184,328,44500,1,0,0:0:0:0:
256,256,44626,1,0,0:0:0:0:
352,256,44751,2,0,P|400:256|432:224,1,75
424,144,45002,2,0,L|424:56,2,75
328,144,45379,1,0,0:0:0:0:
296,144,45442,1,0,0:0:0:0:
264,144,45505,1,0,0:0:0:0:
168,144,45630,6,0,L|240:88,1,75
320,72,45881,1,0,0:0:0:0:
416,72,46007,1,0,0:0:0:0:
352,144,46132,1,0,0:0:0:0:
328,168,46195,1,0,0:0:0:0:
304,192,46258,1,0,0:0:0:0:
232,256,46383,1,0,0:0:0:0:
216,144,46509,2,0,L|120:144,1,75
64,208,46760,1,0,0:0:0:0:
112,296,46885,1,0,0:0:0:0:
144,312,46948,1,0,0:0:0:0:
176,328,47010,1,0,0:0:0:0:
272,328,47137,6,0,L|344:288,1,75
344,192,47388,2,0,L|264:232,1,75
368,256,47639,1,0,0:0:0:0:
400,232,47701,1,0,0:0:0:0:
424,200,47764,1,0,0:0:0:0:
360,128,47890,1,0,0:0:0:0:
280,80,48015,2,0,L|176:80,1,75
144,160,48266,6,0,L|224:160,1,75
288,224,48517,2,0,L|240:288,1,75
152,320,48769,1,0,0:0:0:0:
56,320,48894,1,0,0:0:0:0:
128,256,49020,1,0,0:0:0:0:
224,256,49145,1,0,0:0:0:0:
224,160,49271,2,0,P|264:160|296:184,1,75
336,264,49522,2,0,P|296:264|264:240,1,75
256,144,49773,5,0,0:0:0:0:
352,144,49898,1,0,0:0:0:0:
352,48,50024,1,0,0:0:0:0:
256,48,50150,1,0,0:0:0:0:
192,120,50272,2,0,P|136:120|136:88,1,75
32,96,50526,1,0,0:0:0:0:
104,24,50652,1,0,0:0:0:0:
184,96,50777,2,0,L|128:152,1,75
152,248,51028,2,0,L|224:176,1,75
80,160,54289,6,0,L|88:200,3,37.5
144,272,54540,1,0,0:0:0:0:
224,104,54792,5,0,0:0:0:0:
384,216,55043,2,0,B|384:184|384:32|312:120,1,150
216,120,55546,1,0,0:0:0:0:
392,72,55921,6,0,L|360:120,2,37.5
392,232,56298,1,0,0:0:0:0:
200,232,56549,1,0,0:0:0:0:
256,152,56800,1,0,0:0:0:0:
256,56,56926,1,0,0:0:0:0:
344,96,57051,1,0,0:0:0:0:
256,8,57302,1,0,0:0:0:0:
112,64,57428,5,0,0:0:0:0:
64,144,57553,1,0,0:0:0:0:
64,240,57679,2,0,L|160:240,1,75
288,272,58055,6,0,L|288:176,1,75
376,232,58306,1,0,0:0:0:0:
472,232,58431,1,0,0:0:0:0:
424,144,58557,1,0,0:0:0:0:
232,192,58809,6,0,P|192:192|168:160,1,75
208,80,59060,1,0,0:0:0:0:
296,128,59185,2,0,P|272:160|216:160,1,75
72,272,59562,2,0,P|96:304|128:304,1,75
224,304,59813,2,0,P|224:272|256:248,1,75
352,248,60064,1,0,0:0:0:0:
352,56,60315,5,0,0:0:0:0:
496,192,60566,1,0,0:0:0:0:
304,192,60817,1,0,0:0:0:0:
152,72,61068,1,0,0:0:0:0:
152,264,61319,1,0,0:0:0:0:
152,72,61570,1,0,0:0:0:0:
48,184,61822,6,0,B|48:248|80:288|128:304|160:304,1,150
216,128,62324,1,0,0:0:0:0:
408,128,62575,1,0,0:0:0:0:
344,200,62700,1,0,0:0:0:0:
408,272,62826,1,0,0:0:0:0:
216,272,63077,2,0,P|256:192|320:192,1,150
336,280,63454,5,0,0:0:0:0:
408,216,63579,1,0,0:0:0:0:
408,120,63705,2,0,L|328:120,1,75
136,120,64081,2,0,L|224:120,1,75
160,208,64332,1,0,0:0:0:0:
256,208,64458,1,0,0:0:0:0:
312,128,64583,1,0,0:0:0:0:
336,320,64835,6,0,P|336:272|304:256,1,75
216,264,65086,2,0,P|160:264|144:240,1,75
96,176,65337,1,0,0:0:0:0:
256,64,65588,2,0,L|336:64,2,75
160,64,65964,1,0,0:0:0:0:
272,64,66090,1,0,0:0:0:0:
416,192,66341,6,0,P|368:192|344:224,1,75
360,312,66592,2,0,L|440:312,1,75
480,224,66843,1,0,0:0:0:0:
288,224,67094,2,0,L|224:264,1,75
128,264,67345,1,0,0:0:0:0:
128,168,67471,2,0,P|168:168|192:200,1,75
32,64,67847,5,0,0:0:0:0:
159,123,68098,2,0,L|191:195,1,75
288,64,68349,1,0,0:0:0:0:
288,256,68600,1,0,0:0:0:0:
144,128,68851,1,0,0:0:0:0:
144,320,69102,1,0,0:0:0:0:
48,320,69354,6,0,B|48:272|88:272|88:232|120:216|120:112,1,225.000008583069
464,320,70106,2,0,B|464:272|424:272|424:232|392:216|392:112,1,225.000008583069
256,192,70860,2,0,P|256:304|152:304,1,225.000008583069
256,192,71613,2,0,P|256:304|360:304,1,225.000008583069
376,120,72366,6,0,L|376:64,2,37.5
280,120,72617,1,0,0:0:0:0:
280,312,72868,1,0,0:0:0:0:
384,208,73119,1,0,0:0:0:0:
192,208,73370,2,0,B|136:208|136:160|48:160,1,150
120,344,73998,2,0,L|120:400,2,37.5
312,344,74374,2,0,B|360:320|360:256|360:192,1,150
168,160,74876,1,0,0:0:0:0:
168,64,75002,1,0,0:0:0:0:
248,112,75127,1,0,0:0:0:0:
440,112,75378,1,0,0:0:0:0:
440,208,75504,5,0,0:0:0:0:
344,208,75630,2,0,L|408:280,1,75
296,264,75881,1,0,0:0:0:0:
112,192,76132,2,0,P|152:192|152:224,1,75
120,312,76383,2,0,P|88:288|104:264,1,75
200,264,76634,1,0,0:0:0:0:
200,72,76885,6,0,L|280:72,1,75
256,168,77136,2,0,L|168:168,1,75
240,120,77387,1,0,0:0:0:0:
432,120,77638,1,0,0:0:0:0:
392,208,77764,1,0,0:0:0:0:
432,296,77889,1,0,0:0:0:0:
336,296,78015,2,0,P|288:296|288:256,1,75
88,288,78391,6,0,L|144:224,1,75
232,232,78642,1,0,0:0:0:0:
176,312,78768,1,0,0:0:0:0:
272,312,78894,1,0,0:0:0:0:
272,120,79145,1,0,0:0:0:0:
176,120,79270,2,0,L|232:56,1,75
128,64,79521,1,0,0:0:0:0:
32,64,79647,1,0,0:0:0:0:
224,64,79898,5,0,0:0:0:0:
352,64,80149,2,0,L|432:64,1,75
368,144,80400,1,0,0:0:0:0:
368,336,80651,1,0,0:0:0:0:
176,336,80902,1,0,0:0:0:0:
176,144,81153,1,0,0:0:0:0:
40,192,81404,6,0,B|128:192|144:272|160:272|176:192|256:192,1,225.000008583069
472,192,82157,2,0,B|384:192|368:272|352:272|336:192|256:192,1,225.000008583069
256,48,82910,6,0,B|256:168|224:168|288:168|288:168|256:224|256:248,1,225.000008583069
256,336,83663,6,0,B|256:216|224:216|288:216|288:216|256:160|256:136,1,225.000008583069
112,152,84416,5,0,0:0:0:0:
184,176,84542,1,0,0:0:0:0:
256,192,84668,1,0,0:0:0:0:
256,192,84919,12,0,85923,0:0:0:0:
152,160,86174,5,0,0:0:0:0:
296,160,86425,1,0,0:0:0:0:
224,288,86676,1,0,0:0:0:0:
296,288,86802,2,0,L|296:208,1,75
296,96,87178,1,0,0:0:0:0:
104,96,87429,5,0,0:0:0:0:
200,96,87554,1,0,0:0:0:0:
200,136,87617,1,0,0:0:0:0:
200,176,87680,1,0,0:0:0:0:
200,272,87805,2,0,L|256:216,1,75
344,192,88057,1,0,0:0:0:0:
440,192,88182,2,0,L|440:112,1,75
344,96,88433,2,0,L|344:176,1,75
256,208,88684,1,0,0:0:0:0:
288,296,88810,1,0,0:0:0:0:
384,296,88935,5,0,0:0:0:0:
384,200,89061,1,0,0:0:0:0:
352,184,89124,1,0,0:0:0:0:
320,160,89186,1,0,0:0:0:0:
224,160,89312,2,0,L|224:80,1,75
128,104,89563,1,0,0:0:0:0:
128,200,89689,1,0,0:0:0:0:
40,152,89814,1,0,0:0:0:0:
40,248,89940,2,0,P|40:296|72:320,1,75
184,264,90191,2,0,L|144:344,1,75
248,312,90442,5,0,0:0:0:0:
248,216,90567,1,0,0:0:0:0:
288,216,90630,1,0,0:0:0:0:
328,216,90693,1,0,0:0:0:0:
328,120,90818,2,0,L|240:160,1,75
288,248,91069,2,0,L|376:208,1,75
456,216,91321,1,0,0:0:0:0:
456,120,91446,1,0,0:0:0:0:
384,56,91572,2,0,L|384:136,1,75
384,232,91823,1,0,0:0:0:0:
344,320,91948,5,0,0:0:0:0:
248,320,92074,1,0,0:0:0:0:
208,312,92137,1,0,0:0:0:0:
176,288,92199,1,0,0:0:0:0:
88,240,92325,2,0,P|88:192|136:192,1,75
120,88,92576,2,0,P|168:88|192:120,1,75
280,72,92828,1,0,0:0:0:0:
256,168,92953,1,0,0:0:0:0:
160,168,93079,1,0,0:0:0:0:
232,240,93204,2,0,L|232:320,2,75
264,136,93580,5,0,0:0:0:0:
296,160,93643,1,0,0:0:0:0:
320,192,93706,1,0,0:0:0:0:
320,288,93831,2,0,L|400:288,1,75
432,200,94082,1,0,0:0:0:0:
432,104,94208,1,0,0:0:0:0:
336,104,94333,1,0,0:0:0:0:
264,40,94459,2,0,P|208:40|208:72,1,75
168,136,94710,1,0,0:0:0:0:
168,232,94836,1,0,0:0:0:0:
264,232,94961,5,0,0:0:0:0:
208,312,95087,1,0,0:0:0:0:
168,312,95149,1,0,0:0:0:0:
128,312,95212,1,0,0:0:0:0:
72,232,95338,2,0,L|72:152,1,75
72,56,95589,2,0,L|128:120,1,75
216,112,95840,1,0,0:0:0:0:
280,40,95965,1,0,0:0:0:0:
280,136,96091,1,0,0:0:0:0:
198,195,96217,2,0,L|270:235,1,75
360,232,96468,5,0,0:0:0:0:
360,136,96593,1,0,0:0:0:0:
400,136,96656,1,0,0:0:0:0:
440,136,96719,1,0,0:0:0:0:
440,232,96844,2,0,L|368:280,1,75
296,328,97095,1,0,0:0:0:0:
208,288,97221,1,0,0:0:0:0:
208,192,97346,2,0,L|288:240,1,75
272,136,97597,1,0,0:0:0:0:
272,40,97723,2,0,L|208:88,1,75
136,144,97974,5,0,0:0:0:0:
136,240,98100,1,0,0:0:0:0:
152,280,98162,1,0,0:0:0:0:
176,312,98225,1,0,0:0:0:0:
272,312,98351,2,0,P|320:272|320:232,1,75
320,168,98602,2,0,L|400:168,2,75
224,168,98978,1,0,0:0:0:0:
168,248,99104,1,0,0:0:0:0:
264,248,99229,2,0,P|304:264|344:248,2,75
264,152,99606,5,0,0:0:0:0:
264,112,99669,1,0,0:0:0:0:
264,72,99732,1,0,0:0:0:0:
360,72,99857,2,0,P|408:72|440:120,1,75
416,184,100108,2,0,P|400:232|368:256,1,75
288,248,100359,1,0,0:0:0:0:
208,304,100485,1,0,0:0:0:0:
112,304,100610,1,0,0:0:0:0:
112,208,100736,2,0,L|200:208,1,75
224,120,100987,5,0,0:0:0:0:
320,144,101113,1,0,0:0:0:0:
296,176,101175,1,0,0:0:0:0:
280,216,101238,1,0,0:0:0:0:
280,312,101364,2,0,P|328:312|360:280,1,75
368,200,101615,2,0,P|384:160|376:104,1,75
304,64,101866,2,0,L|224:64,1,75
144,112,102117,1,0,0:0:0:0:
144,208,102242,1,0,0:0:0:0:
144,304,102368,2,0,L|208:256,1,75
296,296,102619,5,0,0:0:0:0:
328,272,102682,1,0,0:0:0:0:
344,232,102745,1,0,0:0:0:0:
344,136,102870,2,0,P|304:136|272:184,2,75
440,136,103247,2,0,L|376:72,1,75
296,48,103498,1,0,0:0:0:0:
216,104,103623,2,0,P|232:152|264:176,1,75
280,264,103874,2,0,P|256:296|208:312,1,75
128,312,104125,5,0,0:0:0:0:
144,280,104188,1,0,0:0:0:0:
168,248,104251,1,0,0:0:0:0:
256,200,104377,2,0,L|176:144,1,75
112,104,104628,2,0,P|152:104|184:72,1,75
272,112,104879,1,0,0:0:0:0:
192,168,105004,1,0,0:0:0:0:
280,216,105130,1,0,0:0:0:0:
216,288,105255,1,0,0:0:0:0:
312,288,105381,2,0,P|360:288|392:256,1,75
384,176,105632,5,0,0:0:0:0:
320,64,105757,1,0,0:0:0:0:
208,128,105883,1,0,0:0:0:0:
272,240,106009,1,0,0:0:0:0:
128,176,106134,5,0,0:0:0:0:
192,64,106259,1,0,0:0:0:0:
304,128,106385,1,0,0:0:0:0:
240,240,106511,1,0,0:0:0:0:
272,120,106636,1,0,0:0:0:0:
256,304,106762,1,0,0:0:0:0:
184,200,106887,5,0,0:0:0:0:
56,224,107013,2,0,L|72:304,1,75
320,232,107389,2,0,L|296:136,1,75
152,96,107766,5,0,0:0:0:0:
360,96,108017,5,0,0:0:0:0:
256,280,108268,5,0,0:0:0:0:
