osu file format v14

[General]
AudioFilename: audio.mp3
AudioLeadIn: 0
PreviewTime: 274
Countdown: 0
SampleSet: Normal
StackLeniency: 0.7
Mode: 1
LetterboxInBreaks: 0
WidescreenStoryboard: 1

[Editor]
Bookmarks: 9204,18134,27064,35994,44925
DistanceSpacing: 0.4
BeatDivisor: 2
GridSize: 32
TimelineZoom: 1

[Metadata]
Title:Girl Next Door
TitleUnicode:Girl Next Door
Artist:Toby Fox
ArtistUnicode:Toby Fox
Creator:SilverYako
Version:3x's Kantan
Source:DELTARUNE
Tags:ost original soundtrack "radiation" radiation orchestral video game music vgm instrumental deltarune: Chapter 2 two undertale Noelle Holiday xtrem3x
BeatmapID:3670993
BeatmapSetID:1791236

[Difficulty]
HPDrainRate:10
CircleSize:5
OverallDifficulty:3.5
ApproachRate:5
SliderMultiplier:1.4
SliderTickRate:1

[Events]
//Background and Video events
0,0,"bg.jpg",0,0
//Break Periods
//Storyboard Layer 0 (Background)
//Storyboard Layer 1 (Fail)
//Storyboard Layer 2 (Pass)
//Storyboard Layer 3 (Foreground)
//Storyboard Layer 4 (Overlay)
//Storyboard Sound Samples

[TimingPoints]
274,558.139534883721,4,1,0,66,1,0

[HitObjects]
256,192,274,5,8,0:0:0:0:
256,192,1111,1,0,0:0:0:0:
256,192,1948,1,0,0:0:0:0:
256,192,2506,1,8,0:0:0:0:
256,192,3344,1,0,0:0:0:0:
256,192,4181,1,0,0:0:0:0:
256,192,4739,1,8,0:0:0:0:
256,192,5576,1,8,0:0:0:0:
256,192,6971,1,8,0:0:0:0:
256,192,7809,1,8,0:0:0:0:
256,192,8646,1,0,0:0:0:0:
256,192,9204,1,8,0:0:0:0:
256,192,10041,1,0,0:0:0:0:
256,192,10878,1,0,0:0:0:0:
256,192,11436,1,8,0:0:0:0:
256,192,12274,1,0,0:0:0:0:
256,192,13111,1,0,0:0:0:0:
256,192,13669,1,8,0:0:0:0:
256,192,14506,1,8,0:0:0:0:
256,192,15901,1,8,0:0:0:0:
256,192,16739,1,8,0:0:0:0:
256,192,17576,1,0,0:0:0:0:
256,192,18134,1,0,0:0:0:0:
256,192,18553,1,8,0:0:0:0:
256,192,18971,1,0,0:0:0:0:
256,192,20367,1,0,0:0:0:0:
256,192,21204,1,0,0:0:0:0:
256,192,22041,1,0,0:0:0:0:
256,192,22599,1,8,0:0:0:0:
256,192,23018,1,0,0:0:0:0:
256,192,23436,1,8,0:0:0:0:
256,192,24832,1,8,0:0:0:0:
256,192,25669,1,8,0:0:0:0:
256,192,25948,1,0,0:0:0:0:
256,192,26506,1,8,0:0:0:0:
256,192,27064,1,0,0:0:0:0:
256,192,27901,1,0,0:0:0:0:
256,192,29297,1,0,0:0:0:0:
256,192,29715,1,8,0:0:0:0:
256,192,30134,1,0,0:0:0:0:
256,192,30971,1,0,0:0:0:0:
256,192,31529,1,8,0:0:0:0:
256,192,32367,1,0,0:0:0:0:
256,192,32646,1,0,0:0:0:0:
256,192,33762,1,8,0:0:0:0:
256,192,34180,1,8,0:0:0:0:
256,192,34599,1,0,0:0:0:0:
256,192,35994,1,0,0:0:0:0:
256,192,36832,1,0,0:0:0:0:
256,192,38227,1,0,0:0:0:0:
256,192,38646,1,8,0:0:0:0:
256,192,39064,1,0,0:0:0:0:
256,192,39901,1,0,0:0:0:0:
256,192,40460,1,8,0:0:0:0:
256,192,40878,1,0,0:0:0:0:
256,192,41297,1,8,0:0:0:0:
256,192,42692,1,8,0:0:0:0:
256,192,43111,1,8,0:0:0:0:
256,192,43529,1,8,0:0:0:0:
256,192,44367,1,0,0:0:0:0:
256,192,44925,1,0,0:0:0:0:
256,192,45343,1,8,0:0:0:0:
256,192,45762,1,0,0:0:0:0:
256,192,47157,1,0,0:0:0:0:
256,192,47576,1,8,0:0:0:0:
256,192,47994,1,0,0:0:0:0:
256,192,48832,1,0,0:0:0:0:
256,192,49391,1,8,0:0:0:0:
256,192,49809,1,8,0:0:0:0:
256,192,50228,1,8,0:0:0:0:
256,192,51065,1,0,0:0:0:0:
256,192,51623,1,8,0:0:0:0:
256,192,52042,1,8,0:0:0:0:
256,192,52460,1,0,0:0:0:0:
256,192,53297,1,8,0:0:0:0:
