osu file format v14

[General]
AudioFilename: audio.mp3
AudioLeadIn: 0
PreviewTime: 274
Countdown: 0
SampleSet: Soft
StackLeniency: 0.3
Mode: 0
LetterboxInBreaks: 0
WidescreenStoryboard: 1

[Editor]
Bookmarks: 274,53297
DistanceSpacing: 1.2
BeatDivisor: 8
GridSize: 4
TimelineZoom: 1

[Metadata]
Title:Girl Next Door
TitleUnicode:Girl Next Door
Artist:Toby Fox
ArtistUnicode:Toby Fox
Creator:Chompy
Version:Gero's Normal
Source:DELTARUNE
Tags:ost original soundtrack midi orchestral video game music vgm instrumental deltarune: Chapter 2 two undertale Noelle Holiday Gero
BeatmapID:3225777
BeatmapSetID:1579568

[Difficulty]
HPDrainRate:3
CircleSize:4
OverallDifficulty:4
ApproachRate:5
SliderMultiplier:1.2
SliderTickRate:1

[Events]
//Background and Video events
0,0,"noelle.jpg",0,0
//Break Periods
//Storyboard Layer 0 (Background)
//Storyboard Layer 1 (Fail)
//Storyboard Layer 2 (Pass)
//Storyboard Layer 3 (Foreground)
//Storyboard Layer 4 (Overlay)
//Storyboard Sound Samples

[TimingPoints]
274,558.139534883721,4,2,1,35,1,0
274,-83.3333333333333,4,2,1,35,0,0
1111,-83.3333333333333,4,2,1,25,0,0
1669,-83.3333333333333,4,2,1,30,0,0
2506,-83.3333333333333,4,2,1,35,0,0
3343,-83.3333333333333,4,2,1,25,0,0
4460,-83.3333333333333,4,2,1,30,0,0
4739,-83.3333333333333,4,2,1,35,0,0
5576,-83.3333333333333,4,2,1,30,0,0
6971,-83.3333333333333,4,2,1,35,0,0
7808,-83.3333333333333,4,2,1,30,0,0
8367,-83.3333333333333,4,2,1,35,0,0
8646,-83.3333333333333,4,2,1,30,0,0
8925,-83.3333333333333,4,2,1,25,0,0
9204,-83.3333333333333,4,2,1,35,0,0
10041,-83.3333333333333,4,2,1,25,0,0
10599,-83.3333333333333,4,2,1,30,0,0
11436,-83.3333333333333,4,2,1,35,0,0
12274,-83.3333333333333,4,2,1,30,0,0
13390,-83.3333333333333,4,2,1,35,0,0
13669,-83.3333333333333,4,2,1,35,0,0
14506,-83.3333333333333,4,2,1,30,0,0
15901,-83.3333333333333,4,2,1,35,0,0
16739,-83.3333333333333,4,2,1,30,0,0
17297,-83.3333333333333,4,2,1,35,0,0
17576,-83.3333333333333,4,2,1,30,0,0
17855,-83.3333333333333,4,2,1,25,0,0
18134,-83.3333333333333,4,2,1,45,0,0
38506,-83.3333333333333,4,2,1,35,0,0
53297,-83.3333333333333,4,2,1,45,0,0

[Colours]
Combo1 : 251,142,106
Combo2 : 226,250,207
Combo3 : 251,228,153

[HitObjects]
320,336,274,6,0,P|368:315|416:336,1,107.999996704102,2|2,0:2|0:2,0:0:0:0:
320,248,1111,2,0,P|256:276|192:248,1,143.999995605469,2|2,0:2|0:2,0:0:0:0:
128,192,1948,1,2,0:2:0:0:
192,136,2227,1,2,0:2:0:0:
192,48,2506,6,0,P|144:69|96:48,1,107.999996704102,2|2,0:2|0:2,0:0:0:0:
192,136,3343,2,0,P|256:108|320:136,1,143.999995605469,2|2,0:2|0:2,0:0:0:0:
384,192,4180,1,2,0:2:0:0:
320,248,4459,1,2,0:2:0:0:
320,336,4739,6,0,B|348:336|348:336|392:336|410:377,2,107.999996704102,2|2|2,0:2|0:2|0:2,0:0:0:0:
320,336,6134,1,2,0:2:0:0:
256,276,6413,1,2,0:2:0:0:
256,276,6692,1,2,0:2:0:0:
192,336,6971,6,0,B|164:336|164:336|120:336|101:377,2,107.999996704102,2|2|2,0:2|0:2|0:2,0:0:0:0:
192,336,8367,1,2,0:2:0:0:
256,276,8646,1,2,0:2:0:0:
256,276,8925,1,2,0:2:0:0:
320,336,9204,6,0,B|336:316|336:316|392:316|392:316|408:336,1,107.999996704102,2|2,0:2|0:2,0:0:0:0:
492,248,10041,2,0,B|505:212|481:172|441:172|441:172|405:172,1,143.999995605469,2|2,0:2|0:2,0:0:0:0:
343,110,10878,1,2,0:2:0:0:
256,110,11157,1,2,0:2:0:0:
192,48,11436,6,0,B|176:68|176:68|120:68|120:68|104:48,1,107.999996704102,2|2,0:2|0:2,0:0:0:0:
20,136,12274,2,0,B|7:172|31:212|71:212|71:212|107:212,1,143.999995605469,2|2,0:2|0:2,0:0:0:0:
169,274,13111,1,2,0:2:0:0:
256,274,13390,1,2,0:2:0:0:
320,336,13669,6,0,B|428:336,2,107.999996704102,2|2|2,0:2|0:2|0:2,0:0:0:0:
320,336,15064,1,2,0:2:0:0:
256,274,15343,1,2,0:2:0:0:
256,274,15622,1,2,0:2:0:0:
192,336,15901,6,0,B|84:336,2,107.999996704102,2|2|2,0:2|0:2|0:2,0:0:0:0:
192,336,17297,1,2,0:2:0:0:
256,274,17576,1,2,0:2:0:0:
256,274,17855,1,2,0:2:0:0:
320,336,18134,6,0,P|368:315|416:336,2,107.999996704102,2|2|2,0:2|0:2|0:2,0:0:0:0:
256,176,19529,2,0,L|256:104,1,71.9999978027344,2|2,0:2|0:2,0:0:0:0:
192,48,20087,1,2,0:2:0:0:
192,48,20367,6,0,P|144:69|96:48,2,107.999996704102,2|0|0,0:2|0:0|0:0,0:0:0:0:
256,208,21762,2,0,L|256:280,1,71.9999978027344
320,336,22320,1,2,0:2:0:0:
320,336,22599,6,0,B|280:336|256:363|256:363|232:336|192:336,1,143.999995605469,2|2,0:2|0:0,0:0:0:0:
256,280,23436,2,0,B|296:280|320:253|320:253|344:280|384:280,1,143.999995605469,2|2,0:2|0:2,0:0:0:0:
460,236,24274,1,2,0:2:0:0:
460,148,24553,1,2,0:2:0:0:
384,104,24832,6,0,B|360:56|360:56|384:8,2,107.999996704102,2|2|2,0:2|0:2|0:2,0:0:0:0:
384,192,25948,1,2,0:2:0:0:
256,104,26506,1,2,0:2:0:0:
256,104,26785,1,0,0:0:0:0:
192,48,27064,6,0,B|232:48|256:21|256:21|280:48|320:48,1,143.999995605469,2|0,0:2|0:0,0:0:0:0:
256,104,27901,2,0,B|216:104|192:131|192:131|168:104|128:104,1,143.999995605469
52,148,28739,1,0,0:0:0:0:
52,236,29018,1,0,0:0:0:0:
128,280,29297,6,0,B|152:328|152:328|128:376,2,107.999996704102,2|2|2,0:2|0:2|0:2,0:0:0:0:
128,280,30692,1,2,0:2:0:0:
128,192,30971,1,2,0:2:0:0:
128,104,31250,1,2,0:2:0:0:
204,148,31529,6,0,L|312:148,2,107.999996704102,0|0|2,0:2|0:0|0:2,0:0:0:0:
128,104,32646,2,0,L|56:104,2,71.9999978027344,2|0|0,0:2|0:0|0:0,0:0:0:0:
204,236,33762,6,0,L|312:236,2,107.999996704102,2|2|2,0:2|0:0|0:2,0:0:0:0:
204,236,35436,1,2,0:2:0:0:
128,192,35715,1,2,0:2:0:0:
204,148,35994,6,0,B|236:140|256:102|256:102|276:140|308:148,1,143.999995605469,2|0,0:2|0:0,0:0:0:0:
383,192,36832,2,0,P|337:245|319:314,1,143.999995605469
256,372,37669,1,0,0:0:0:0:
256,372,37948,1,0,0:0:0:0:
192,314,38227,6,0,P|174:245|128:192,1,143.999995605469,2|2,0:0|0:2,0:0:0:0:
52,148,39064,1,2,0:2:0:0:
127,103,39343,2,0,P|104:76|72:62,2,71.9999978027344,2|2|2,0:2|0:2|0:2,0:0:0:0:
319,69,40460,6,0,P|337:138|383:191,1,143.999995605469,2|2,0:2|0:2,0:0:0:0:
459,235,41297,1,2,0:2:0:0:
383,279,41576,2,0,P|406:306|439:320,2,71.9999978027344,2|0|2,0:2|0:0|0:2,0:0:0:0:
192,314,42692,6,0,B|168:246|168:246|192:178,1,143.999995605469,2|2,0:2|0:2,0:0:0:0:
320,314,43808,2,0,B|344:246|344:246|320:178,1,143.999995605469,2|2,0:2|0:2,0:0:0:0:
192,48,44925,6,0,P|144:69|96:48,1,107.999996704102,2|2,0:2|0:0,0:0:0:0:
192,136,45762,2,0,P|256:108|320:136,1,143.999995605469,2|0,0:0|0:0,0:0:0:0:
384,192,46599,1,0,0:0:0:0:
320,248,46878,1,0,0:0:0:0:
320,336,47157,6,0,P|368:315|416:336,1,107.999996704102,2|2,0:0|0:0,0:0:0:0:
320,248,47994,2,0,P|256:276|192:248,1,143.999995605469,2|2,0:2|0:2,0:0:0:0:
128,192,48831,1,2,0:2:0:0:
192,136,49110,1,2,0:2:0:0:
192,48,49390,6,0,B|164:48|164:48|120:48|102:7,2,107.999996704102,2|2|2,0:2|0:0|0:0,0:0:0:0:
192,48,50785,1,0,0:0:0:0:
256,108,51064,1,0,0:0:0:0:
256,108,51343,1,0,0:0:0:0:
320,48,51622,6,0,B|348:48|348:48|392:48|410:7,2,107.999996704102,2|2|2,0:2|0:0|0:0,0:0:0:0:
320,48,53297,5,2,0:2:0:0:
