osu file format v14

[General]
AudioFilename: audio.mp3
AudioLeadIn: 0
PreviewTime: 274
Countdown: 0
SampleSet: Soft
StackLeniency: 0.3
Mode: 0
LetterboxInBreaks: 0
WidescreenStoryboard: 0

[Editor]
DistanceSpacing: 0.4
BeatDivisor: 8
GridSize: 4
TimelineZoom: 1

[Metadata]
Title:Girl Next Door
TitleUnicode:Girl Next Door
Artist:Toby Fox
ArtistUnicode:Toby Fox
Creator:Chompy
Version::3c
Source:DELTARUNE
Tags:ost original soundtrack midi orchestral video game music vgm instrumental deltarune: Chapter 2 two undertale Noelle Holiday Gero
BeatmapID:3225244
BeatmapSetID:1579568

[Difficulty]
HPDrainRate:4
CircleSize:5.5
OverallDifficulty:6.5
ApproachRate:8
SliderMultiplier:2.2
SliderTickRate:1

[Events]
//Background and Video events
0,0,"noelle.jpg",0,0
//Break Periods
//Storyboard Layer 0 (Background)
//Storyboard Layer 1 (Fail)
//Storyboard Layer 2 (Pass)
//Storyboard Layer 3 (Foreground)
//Storyboard Layer 4 (Overlay)
//Storyboard Sound Samples

[TimingPoints]
274,558.139534883721,4,2,1,35,1,0
274,-57.1428571428571,4,2,1,35,0,0
1111,-57.1428571428571,4,2,1,25,0,0
1669,-57.1428571428571,4,2,1,30,0,0
2506,-57.1428571428571,4,2,1,35,0,0
3343,-57.1428571428571,4,2,1,25,0,0
4460,-57.1428571428571,4,2,1,30,0,0
4739,-83.3333333333333,4,2,1,35,0,0
5576,-83.3333333333333,4,2,1,30,0,0
6971,-83.3333333333333,4,2,1,35,0,0
7808,-83.3333333333333,4,2,1,30,0,0
8367,-83.3333333333333,4,2,1,35,0,0
8646,-83.3333333333333,4,2,1,30,0,0
8925,-83.3333333333333,4,2,1,25,0,0
9204,-66.6666666666667,4,2,1,35,0,0
10041,-66.6666666666667,4,2,1,25,0,0
10599,-66.6666666666667,4,2,1,30,0,0
11436,-66.6666666666667,4,2,1,35,0,0
12274,-66.6666666666667,4,2,1,30,0,0
13390,-66.6666666666667,4,2,1,35,0,0
13669,-83.3333333333333,4,2,1,35,0,0
14506,-83.3333333333333,4,2,1,30,0,0
15901,-83.3333333333333,4,2,1,35,0,0
16739,-83.3333333333333,4,2,1,30,0,0
17297,-83.3333333333333,4,2,1,35,0,0
17576,-83.3333333333333,4,2,1,30,0,0
17855,-83.3333333333333,4,2,1,25,0,0
18134,-83.3333333333333,4,2,1,45,0,0
38506,-83.3333333333333,4,2,1,35,0,0
53297,-83.3333333333333,4,2,1,45,0,0

[Colours]
Combo1 : 251,142,106
Combo2 : 226,250,207
Combo3 : 251,228,153

[HitObjects]
418,192,274,6,0,B|393:211|363:197|354:172|356:147|385:130|421:119|449:126|482:165,1,192.500001835823,2|0,0:2|0:2,0:2:0:0:
481,217,692,1,2,0:2:0:0:
315,252,1111,1,2,0:2:0:0:
315,252,1669,5,2,0:2:0:0:
256,191,1948,1,2,0:2:0:0:
197,252,2227,1,2,0:2:0:0:
94,192,2506,6,0,B|119:211|149:197|158:172|156:147|127:130|91:119|63:126|30:165,1,192.500001835823,2|0,0:2|0:2,0:2:0:0:
31,217,2924,1,2,0:2:0:0:
197,252,3343,1,2,0:2:0:0:
197,252,3901,5,2,0:2:0:0:
256,311,4180,1,2,0:2:0:0:
315,252,4459,1,2,0:2:0:0:
372,335,4739,6,0,B|407:319|438:338|438:338|468:355|498:339,1,131.99999597168,2|0,0:2|0:2,0:2:0:0:
470,277,5157,1,2,0:2:0:0:
315,252,5576,1,2,0:2:0:0:
315,252,6134,5,2,0:2:0:0:
256,311,6413,1,2,0:2:0:0:
197,252,6692,1,2,0:2:0:0:
140,335,6971,6,0,B|105:319|74:338|74:338|44:355|13:339,1,131.99999597168,2|0,0:2|0:2,0:2:0:0:
42,277,7389,1,2,0:2:0:0:
197,252,7808,1,2,0:2:0:0:
197,252,8367,5,2,0:2:0:0:
315,252,8646,1,2,0:2:0:0:
256,192,8925,1,2,0:2:0:0:
390,192,9204,6,0,B|426:175|438:129|438:129|437:177|467:203,1,165.000006294251,2|0,0:2|0:2,0:2:0:0:
422,249,9622,1,2,0:2:0:0:
315,133,10041,1,2,0:2:0:0:
315,133,10599,5,2,0:2:0:0:
256,192,10878,1,2,0:2:0:0:
197,133,11157,1,2,0:2:0:0:
122,192,11436,6,0,B|86:175|74:129|74:129|75:177|45:203,1,165.000006294251,2|0,0:2|0:2,0:2:0:0:
90,249,11855,1,2,0:2:0:0:
197,133,12274,1,2,0:2:0:0:
197,133,12832,5,2,0:2:0:0:
256,73,13111,1,2,0:2:0:0:
315,133,13390,1,2,0:2:0:0:
372,49,13669,6,0,B|407:65|438:46|438:46|468:29|498:44,1,131.99999597168,2|0,0:2|0:2,0:2:0:0:
470,107,14087,1,2,0:2:0:0:
315,133,14506,1,2,0:2:0:0:
315,133,15064,5,2,0:2:0:0:
256,74,15343,1,2,0:2:0:0:
197,133,15622,1,2,0:2:0:0:
140,49,15901,6,0,B|105:65|74:46|74:46|44:29|13:44,1,131.99999597168,2|0,0:2|0:2,0:2:0:0:
42,107,16319,1,2,0:2:0:0:
197,133,16738,1,2,0:2:0:0:
197,133,17297,5,2,0:2:0:0:
315,131,17576,1,2,0:2:0:0:
256,191,17855,1,2,0:2:0:0:
196,288,18134,6,0,B|164:307|167:344|167:344|201:344|221:313,1,131.99999597168,2|0,0:2|0:2,0:2:0:0:
291,313,18553,2,0,B|311:344|345:344|345:344|348:307|316:288,1,131.99999597168,2|0,0:2|0:2,0:2:0:0:
348,228,18971,6,0,B|344:192|324:164|284:152|255:152|255:152|226:152|186:164|166:192|162:228,1,263.99999194336,2|2,0:2|0:2,0:2:0:0:
291,313,19808,5,2,0:2:0:0:
221,313,20087,1,2,0:2:0:0:
256,252,20367,1,2,0:2:0:0:
256,252,22320,5,2,0:2:0:0:
256,252,22460,1,2,0:2:0:0:
256,252,22599,2,0,B|220:251|197:276|197:276|189:243|157:227,1,131.99999597168,2|0,0:2|0:2,0:2:0:0:
157,156,23018,2,0,B|189:140|197:107|197:107|220:132|256:132,1,131.99999597168,2|0,0:2|0:2,0:2:0:0:
314,99,23436,6,0,B|350:103|378:123|390:163|390:192|390:192|390:221|378:261|350:281|314:285,1,263.99999194336,2|2,0:2|0:2,0:2:0:0:
222,192,24274,1,2,0:2:0:0:
222,192,24553,1,2,0:2:0:0:
157,156,24832,6,0,B|130:113|74:121|74:121|68:142|77:157,1,131.99999597168,2|0,0:2|0:2,0:2:0:0:
77,227,25250,2,0,B|68:242|74:263|74:263|130:271|157:228,1,131.99999597168,2|0,0:2|0:2,0:2:0:0:
222,192,25669,1,2,0:2:0:0:
334,143,25948,6,0,B|367:138|392:156|392:156|428:150|450:118|450:118|455:123|455:123|488:129|502:155,1,197.99999395752,2|0,0:2|0:2,0:2:0:0:
501,228,26506,2,0,B|488:254|454:261|454:261|450:265|450:265|427:233|391:227|391:227|366:245|333:240,1,197.99999395752,2|0,0:2|0:2,0:2:0:0:
290,192,27064,1,2,0:2:0:0:
290,192,29297,6,0,B|295:159|321:142|321:142|326:104|297:79,1,131.99999597168,2|0,0:2|0:2,0:2:0:0:
215,79,29715,2,0,B|186:104|191:142|191:142|217:159|222:192,1,131.99999597168,2|0,0:2|0:2,0:2:0:0:
181,253,30134,6,0,B|216:277|209:324|209:324|255:345|255:345|302:324|302:324|295:277|330:253,1,263.99999194336,2|2,0:2|0:2,0:2:0:0:
222,192,30971,5,2,0:2:0:0:
290,192,31250,1,2,0:2:0:0:
256,122,31529,1,0,0:2:0:0:
256,122,32367,5,2,0:2:0:0:
256,122,32506,1,2,0:2:0:0:
256,122,32646,1,2,0:2:0:0:
222,192,33762,5,2,0:2:0:0:
290,192,34041,1,2,0:2:0:0:
256,262,34320,1,2,0:2:0:0:
256,262,34460,1,2,0:2:0:0:
256,262,34599,1,2,0:2:0:0:
256,262,35436,5,2,0:2:0:0:
256,192,35715,1,2,0:2:0:0:
256,122,35994,1,2,0:2:0:0:
256,73,38506,5,2,0:2:0:0:
315,133,38785,1,2,0:2:0:0:
256,192,39064,1,2,0:2:0:0:
197,252,39343,1,2,0:2:0:0:
256,311,39622,1,2,0:2:0:0:
315,252,39901,1,2,0:2:0:0:
256,192,40180,1,2,0:2:0:0:
197,133,40460,1,2,0:2:0:0:
197,252,41018,5,2,0:2:0:0:
256,192,41297,1,2,0:2:0:0:
315,133,41576,1,2,0:2:0:0:
256,311,42134,5,2,0:2:0:0:
256,192,42413,1,2,0:2:0:0:
256,73,42692,1,2,0:2:0:0:
315,252,43250,5,2,0:2:0:0:
256,192,43529,1,2,0:2:0:0:
197,133,43809,1,2,0:2:0:0:
256,311,44367,5,2,0:2:0:0:
256,192,44646,1,2,0:2:0:0:
256,192,44925,1,0,0:2:0:0:
256,192,47436,5,2,0:2:0:0:
315,133,47715,1,2,0:2:0:0:
256,73,47994,1,2,0:2:0:0:
197,133,48274,1,2,0:2:0:0:
256,192,48553,1,2,0:2:0:0:
315,252,48832,1,2,0:2:0:0:
256,311,49111,1,2,0:2:0:0:
197,252,49390,1,0,0:2:0:0:
197,252,51901,5,2,0:2:0:0:
256,311,52180,1,2,0:2:0:0:
315,252,52459,1,2,0:2:0:0:
256,192,52738,1,2,0:2:0:0:
256,24,53297,5,2,0:2:0:0:
