osu file format v14

[General]
AudioFilename: Undertale - Finale.mp3
AudioLeadIn: 0
PreviewTime: 20529
Countdown: 0
SampleSet: Normal
StackLeniency: 0.7
Mode: 3
LetterboxInBreaks: 0
SpecialStyle: 0
WidescreenStoryboard: 1

[Editor]
DistanceSpacing: 0.5
BeatDivisor: 4
GridSize: 16
TimelineZoom: 1

[Metadata]
Title:Finale
TitleUnicode:Finale
Artist:Toby Fox
ArtistUnicode:Toby Fox
Creator:Rextor
Version:NM
Source:Undertale
Tags:video game
BeatmapID:907437
BeatmapSetID:419316

[Difficulty]
HPDrainRate:4
CircleSize:4
OverallDifficulty:4
ApproachRate:7
SliderMultiplier:1.4
SliderTickRate:1

[Events]
//Background and Video events
0,0,"undertale.png",0,0
//Break Periods
//Storyboard Layer 0 (Background)
//Storyboard Layer 1 (Fail)
//Storyboard Layer 2 (Pass)
//Storyboard Layer 3 (Foreground)
//Storyboard Sound Samples

[TimingPoints]
318.712871443855,315.789473684211,4,1,1,40,1,0
20529,-100,4,1,1,40,0,1
30555,-100,4,1,1,40,0,0
30634,-100,4,1,1,40,0,1
40739,-100,4,1,1,40,0,0
58423,-100,4,1,1,40,0,1
68450,-100,4,1,1,40,0,0
68529,-100,4,1,1,40,0,1
78555,-100,4,1,1,40,0,0
78634,-100,4,1,1,40,0,1
88660,-100,4,1,1,40,0,0
88739,-100,4,1,1,40,0,1
98766,-100,4,1,1,40,0,0
98866,-100,4,1,1,40,0,1
108871,-100,4,1,1,40,0,0

[HitObjects]
64,192,318,5,0,0:0:0:0:
448,192,318,1,0,0:0:0:0:
64,192,634,1,0,0:0:0:0:
192,192,792,1,0,0:0:0:0:
320,192,950,1,0,0:0:0:0:
64,192,1266,1,0,0:0:0:0:
192,192,1581,1,0,0:0:0:0:
320,192,1897,1,0,0:0:0:0:
192,192,2055,1,0,0:0:0:0:
64,192,2213,1,0,0:0:0:0:
320,192,2529,1,0,0:0:0:0:
448,192,2845,1,0,0:0:0:0:
192,192,2845,1,0,0:0:0:0:
320,192,3160,1,0,0:0:0:0:
192,192,3318,1,0,0:0:0:0:
64,192,3476,1,0,0:0:0:0:
320,192,3792,1,0,0:0:0:0:
448,192,4108,1,0,0:0:0:0:
320,192,4423,1,0,0:0:0:0:
192,192,4739,1,0,0:0:0:0:
64,192,5055,1,0,0:0:0:0:
448,192,5371,1,0,0:0:0:0:
192,192,5371,1,0,0:0:0:0:
64,192,5687,1,0,0:0:0:0:
192,192,5845,1,0,0:0:0:0:
320,192,6002,1,0,0:0:0:0:
64,192,6318,1,0,0:0:0:0:
448,192,6634,1,0,0:0:0:0:
320,192,6950,1,0,0:0:0:0:
192,192,7108,1,0,0:0:0:0:
64,192,7266,1,0,0:0:0:0:
448,192,7581,1,0,0:0:0:0:
64,192,7897,1,0,0:0:0:0:
448,192,7897,1,0,0:0:0:0:
192,192,8213,1,0,0:0:0:0:
448,192,8371,1,0,0:0:0:0:
320,192,8529,1,0,0:0:0:0:
192,192,8845,1,0,0:0:0:0:
64,192,9160,1,0,0:0:0:0:
448,192,9476,1,0,0:0:0:0:
192,192,9792,1,0,0:0:0:0:
320,192,9792,1,0,0:0:0:0:
64,192,10423,1,0,0:0:0:0:
192,192,10423,1,0,0:0:0:0:
448,192,10739,1,0,0:0:0:0:
192,192,10897,1,0,0:0:0:0:
320,192,11055,1,0,0:0:0:0:
192,192,11371,1,0,0:0:0:0:
64,192,11687,1,0,0:0:0:0:
448,192,12002,1,0,0:0:0:0:
320,192,12160,1,0,0:0:0:0:
64,192,12318,1,0,0:0:0:0:
192,192,12634,1,0,0:0:0:0:
448,192,12950,1,0,0:0:0:0:
320,192,12950,1,0,0:0:0:0:
64,192,13266,1,0,0:0:0:0:
192,192,13423,1,0,0:0:0:0:
448,192,13581,1,0,0:0:0:0:
64,192,13897,1,0,0:0:0:0:
448,192,14213,1,0,0:0:0:0:
320,192,14529,1,0,0:0:0:0:
192,192,14845,1,0,0:0:0:0:
64,192,15160,1,0,0:0:0:0:
320,192,15476,1,0,0:0:0:0:
448,192,15476,1,0,0:0:0:0:
64,192,15792,1,0,0:0:0:0:
448,192,15950,1,0,0:0:0:0:
192,192,16108,1,0,0:0:0:0:
64,192,16423,1,0,0:0:0:0:
448,192,16739,1,0,0:0:0:0:
320,192,17055,1,0,0:0:0:0:
192,192,17213,1,0,0:0:0:0:
448,192,17371,1,0,0:0:0:0:
64,192,17687,1,0,0:0:0:0:
192,192,18002,1,0,0:0:0:0:
64,192,18002,1,0,0:0:0:0:
320,192,18318,1,0,0:0:0:0:
448,192,18476,1,0,0:0:0:0:
192,192,18634,1,0,0:0:0:0:
64,192,18950,1,0,0:0:0:0:
320,192,19266,1,0,0:0:0:0:
192,192,19581,1,0,0:0:0:0:
448,192,19897,1,0,0:0:0:0:
64,192,20529,128,0,20845:0:0:0:0:
192,192,20845,1,0,0:0:0:0:
320,192,21002,1,0,0:0:0:0:
448,192,21160,1,0,0:0:0:0:
320,192,21476,128,0,21792:0:0:0:0:
192,192,21792,128,0,22108:0:0:0:0:
64,192,22108,1,0,0:0:0:0:
448,192,22266,1,0,0:0:0:0:
192,192,22423,1,0,0:0:0:0:
320,192,22739,1,0,0:0:0:0:
448,192,23055,128,0,23371:0:0:0:0:
320,192,23371,1,0,0:0:0:0:
192,192,23529,1,0,0:0:0:0:
64,192,23687,1,0,0:0:0:0:
192,192,24002,128,0,24318:0:0:0:0:
320,192,24318,1,0,0:0:0:0:
448,192,24634,128,0,24950:0:0:0:0:
320,192,24950,1,0,0:0:0:0:
64,192,25266,128,0,25581:0:0:0:0:
192,192,25581,128,0,25897:0:0:0:0:
320,192,25897,1,0,0:0:0:0:
448,192,26055,1,0,0:0:0:0:
64,192,26213,1,0,0:0:0:0:
192,192,26529,128,0,26845:0:0:0:0:
320,192,26845,1,0,0:0:0:0:
64,192,27160,1,0,0:0:0:0:
192,192,27318,1,0,0:0:0:0:
320,192,27476,1,0,0:0:0:0:
64,192,27792,1,0,0:0:0:0:
448,192,28108,128,0,28423:0:0:0:0:
320,192,28423,1,0,0:0:0:0:
64,192,28581,1,0,0:0:0:0:
192,192,28739,1,0,0:0:0:0:
320,192,29055,128,0,29371:0:0:0:0:
64,192,29371,1,0,0:0:0:0:
192,192,29687,128,0,30002:0:0:0:0:
448,192,30002,128,0,30634:0:0:0:0:
64,192,30634,128,0,30950:0:0:0:0:
448,192,30950,1,0,0:0:0:0:
320,192,31108,1,0,0:0:0:0:
192,192,31266,1,0,0:0:0:0:
448,192,31581,128,0,31897:0:0:0:0:
192,192,31897,128,0,32213:0:0:0:0:
448,192,32213,1,0,0:0:0:0:
320,192,32371,1,0,0:0:0:0:
64,192,32529,1,0,0:0:0:0:
448,192,32845,1,0,0:0:0:0:
320,192,33160,128,0,33476:0:0:0:0:
448,192,33476,1,0,0:0:0:0:
64,192,33634,1,0,0:0:0:0:
192,192,33792,1,0,0:0:0:0:
192,192,34108,128,0,34423:0:0:0:0:
448,192,34423,1,0,0:0:0:0:
320,192,34739,128,0,35055:0:0:0:0:
192,192,35055,1,0,0:0:0:0:
64,192,35371,128,0,35687:0:0:0:0:
320,192,35687,128,0,36002:0:0:0:0:
448,192,36002,1,0,0:0:0:0:
64,192,36160,1,0,0:0:0:0:
320,192,36318,1,0,0:0:0:0:
64,192,36634,128,0,36950:0:0:0:0:
320,192,36950,128,0,37266:0:0:0:0:
192,192,37266,1,0,0:0:0:0:
64,192,37423,1,0,0:0:0:0:
448,192,37581,1,0,0:0:0:0:
192,192,37897,1,0,0:0:0:0:
64,192,38213,128,0,38529:0:0:0:0:
192,192,38529,1,0,0:0:0:0:
448,192,38687,1,0,0:0:0:0:
320,192,38845,1,0,0:0:0:0:
64,192,39160,128,0,39476:0:0:0:0:
192,192,39476,1,0,0:0:0:0:
448,192,39792,128,0,40108:0:0:0:0:
320,192,40108,128,0,40739:0:0:0:0:
64,192,40739,1,0,0:0:0:0:
448,192,41055,1,0,0:0:0:0:
192,192,41371,128,0,42002:0:0:0:0:
64,192,42002,128,0,42634:0:0:0:0:
320,192,42634,128,0,43266:0:0:0:0:
192,192,43266,128,0,44529:0:0:0:0:
448,192,44529,128,0,45160:0:0:0:0:
320,192,45160,128,0,45792:0:0:0:0:
64,192,45792,128,0,48318:0:0:0:0:
320,192,48318,128,0,50845:0:0:0:0:
192,192,50845,1,0,0:0:0:0:
448,192,51160,1,0,0:0:0:0:
64,192,51476,128,0,52108:0:0:0:0:
192,192,52108,128,0,52739:0:0:0:0:
448,192,52739,128,0,53371:0:0:0:0:
64,192,53371,128,0,54634:0:0:0:0:
320,192,54634,128,0,55266:0:0:0:0:
448,192,55266,128,0,55897:0:0:0:0:
64,192,55897,128,0,58423:0:0:0:0:
192,192,58423,1,0,0:0:0:0:
320,192,58739,1,0,0:0:0:0:
448,192,58897,1,0,0:0:0:0:
64,192,59055,1,0,0:0:0:0:
192,192,59055,1,0,0:0:0:0:
320,192,59371,1,0,0:0:0:0:
64,192,59687,1,0,0:0:0:0:
448,192,59687,1,0,0:0:0:0:
192,192,60002,1,0,0:0:0:0:
448,192,60160,1,0,0:0:0:0:
320,192,60318,1,0,0:0:0:0:
192,192,60318,1,0,0:0:0:0:
64,192,60634,1,0,0:0:0:0:
448,192,60634,1,0,0:0:0:0:
320,192,60950,1,0,0:0:0:0:
448,192,60950,1,0,0:0:0:0:
448,192,61266,1,0,0:0:0:0:
64,192,61423,1,0,0:0:0:0:
320,192,61581,1,0,0:0:0:0:
192,192,61581,1,0,0:0:0:0:
192,192,61897,1,0,0:0:0:0:
64,192,62055,1,0,0:0:0:0:
320,192,62213,1,0,0:0:0:0:
448,192,62213,1,0,0:0:0:0:
192,192,62529,1,0,0:0:0:0:
64,192,62529,1,0,0:0:0:0:
320,192,62845,1,0,0:0:0:0:
192,192,62845,1,0,0:0:0:0:
64,192,63160,1,0,0:0:0:0:
448,192,63160,1,0,0:0:0:0:
192,192,63476,1,0,0:0:0:0:
64,192,63476,1,0,0:0:0:0:
320,192,63792,1,0,0:0:0:0:
192,192,63950,1,0,0:0:0:0:
448,192,64108,1,0,0:0:0:0:
64,192,64108,1,0,0:0:0:0:
192,192,64423,1,0,0:0:0:0:
320,192,64739,1,0,0:0:0:0:
448,192,64739,1,0,0:0:0:0:
192,192,65055,1,0,0:0:0:0:
448,192,65213,1,0,0:0:0:0:
64,192,65371,1,0,0:0:0:0:
320,192,65371,1,0,0:0:0:0:
192,192,65687,1,0,0:0:0:0:
320,192,65687,1,0,0:0:0:0:
64,192,66002,1,0,0:0:0:0:
320,192,66002,1,0,0:0:0:0:
448,192,66318,1,0,0:0:0:0:
192,192,66476,1,0,0:0:0:0:
320,192,66634,1,0,0:0:0:0:
448,192,66634,1,0,0:0:0:0:
192,192,66950,1,0,0:0:0:0:
64,192,66950,1,0,0:0:0:0:
320,192,67266,128,0,67897:0:0:0:0:
64,192,67897,128,0,68529:0:0:0:0:
448,192,68529,1,0,0:0:0:0:
192,192,68845,1,0,0:0:0:0:
448,192,69002,1,0,0:0:0:0:
320,192,69160,1,0,0:0:0:0:
64,192,69160,1,0,0:0:0:0:
64,192,69476,1,0,0:0:0:0:
448,192,69792,1,0,0:0:0:0:
320,192,69792,1,0,0:0:0:0:
64,192,70108,1,0,0:0:0:0:
192,192,70266,1,0,0:0:0:0:
448,192,70423,1,0,0:0:0:0:
320,192,70423,1,0,0:0:0:0:
320,192,70739,1,0,0:0:0:0:
64,192,70739,1,0,0:0:0:0:
192,192,71055,1,0,0:0:0:0:
320,192,71055,1,0,0:0:0:0:
320,192,71371,1,0,0:0:0:0:
64,192,71529,1,0,0:0:0:0:
192,192,71687,1,0,0:0:0:0:
448,192,71687,1,0,0:0:0:0:
448,192,72002,1,0,0:0:0:0:
64,192,72160,1,0,0:0:0:0:
192,192,72318,1,0,0:0:0:0:
320,192,72318,1,0,0:0:0:0:
64,192,72634,1,0,0:0:0:0:
320,192,72634,1,0,0:0:0:0:
192,192,72950,1,0,0:0:0:0:
448,192,72950,1,0,0:0:0:0:
192,192,73266,1,0,0:0:0:0:
64,192,73266,1,0,0:0:0:0:
448,192,73581,1,0,0:0:0:0:
192,192,73581,1,0,0:0:0:0:
64,192,73897,1,0,0:0:0:0:
192,192,74055,1,0,0:0:0:0:
320,192,74213,1,0,0:0:0:0:
448,192,74213,1,0,0:0:0:0:
192,192,74529,1,0,0:0:0:0:
448,192,74845,1,0,0:0:0:0:
64,192,74845,1,0,0:0:0:0:
192,192,75160,1,0,0:0:0:0:
320,192,75318,1,0,0:0:0:0:
448,192,75476,1,0,0:0:0:0:
64,192,75476,1,0,0:0:0:0:
448,192,75792,1,0,0:0:0:0:
192,192,75792,1,0,0:0:0:0:
192,192,76108,1,0,0:0:0:0:
64,192,76108,1,0,0:0:0:0:
448,192,76423,1,0,0:0:0:0:
64,192,76581,1,0,0:0:0:0:
320,192,76739,1,0,0:0:0:0:
192,192,76739,1,0,0:0:0:0:
64,192,77055,1,0,0:0:0:0:
320,192,77055,1,0,0:0:0:0:
448,192,77371,128,0,78002:0:0:0:0:
64,192,78002,128,0,78634:0:0:0:0:
192,192,78634,1,0,0:0:0:0:
448,192,78634,128,0,78950:0:0:0:0:
320,192,78950,1,0,0:0:0:0:
192,192,79108,1,0,0:0:0:0:
64,192,79266,1,0,0:0:0:0:
192,192,79581,128,0,79897:0:0:0:0:
320,192,79897,128,0,80213:0:0:0:0:
448,192,80213,1,0,0:0:0:0:
64,192,80371,1,0,0:0:0:0:
320,192,80529,1,0,0:0:0:0:
192,192,80845,1,0,0:0:0:0:
64,192,81160,128,0,81476:0:0:0:0:
192,192,81476,1,0,0:0:0:0:
320,192,81634,1,0,0:0:0:0:
448,192,81792,1,0,0:0:0:0:
320,192,82108,128,0,82423:0:0:0:0:
192,192,82423,1,0,0:0:0:0:
64,192,82739,128,0,83055:0:0:0:0:
192,192,83055,1,0,0:0:0:0:
448,192,83371,128,0,83687:0:0:0:0:
320,192,83687,128,0,84002:0:0:0:0:
192,192,84002,1,0,0:0:0:0:
64,192,84160,1,0,0:0:0:0:
448,192,84318,1,0,0:0:0:0:
320,192,84634,128,0,84950:0:0:0:0:
192,192,84950,1,0,0:0:0:0:
448,192,85266,1,0,0:0:0:0:
320,192,85423,1,0,0:0:0:0:
192,192,85581,1,0,0:0:0:0:
448,192,85897,1,0,0:0:0:0:
64,192,86213,128,0,86529:0:0:0:0:
192,192,86529,1,0,0:0:0:0:
448,192,86687,1,0,0:0:0:0:
320,192,86845,1,0,0:0:0:0:
192,192,87160,128,0,87476:0:0:0:0:
448,192,87476,1,0,0:0:0:0:
320,192,87792,128,0,88108:0:0:0:0:
64,192,88108,128,0,88739:0:0:0:0:
448,192,88739,128,0,89055:0:0:0:0:
64,192,89055,1,0,0:0:0:0:
192,192,89213,1,0,0:0:0:0:
320,192,89371,1,0,0:0:0:0:
64,192,89687,128,0,90002:0:0:0:0:
320,192,90002,128,0,90318:0:0:0:0:
64,192,90318,1,0,0:0:0:0:
192,192,90476,1,0,0:0:0:0:
448,192,90634,1,0,0:0:0:0:
64,192,90950,1,0,0:0:0:0:
192,192,91266,128,0,91581:0:0:0:0:
64,192,91581,1,0,0:0:0:0:
448,192,91739,1,0,0:0:0:0:
320,192,91897,1,0,0:0:0:0:
320,192,92213,128,0,92529:0:0:0:0:
64,192,92529,1,0,0:0:0:0:
192,192,92845,128,0,93160:0:0:0:0:
320,192,93160,1,0,0:0:0:0:
448,192,93476,128,0,93792:0:0:0:0:
192,192,93792,128,0,94108:0:0:0:0:
64,192,94108,1,0,0:0:0:0:
448,192,94266,1,0,0:0:0:0:
192,192,94423,1,0,0:0:0:0:
448,192,94739,128,0,95055:0:0:0:0:
192,192,95055,128,0,95371:0:0:0:0:
320,192,95371,1,0,0:0:0:0:
448,192,95529,1,0,0:0:0:0:
64,192,95687,1,0,0:0:0:0:
320,192,96002,1,0,0:0:0:0:
448,192,96318,128,0,96634:0:0:0:0:
320,192,96634,1,0,0:0:0:0:
64,192,96792,1,0,0:0:0:0:
192,192,96950,1,0,0:0:0:0:
448,192,97108,1,0,0:0:0:0:
320,192,97266,1,0,0:0:0:0:
64,192,97423,1,0,0:0:0:0:
192,192,97581,128,0,97897:0:0:0:0:
64,192,97897,128,0,98213:0:0:0:0:
320,192,98213,128,0,98845:0:0:0:0:
64,192,98845,1,0,0:0:0:0:
192,192,98845,1,0,0:0:0:0:
192,192,99160,1,0,0:0:0:0:
64,192,99318,1,0,0:0:0:0:
320,192,99476,1,0,0:0:0:0:
448,192,99476,1,0,0:0:0:0:
192,192,99792,1,0,0:0:0:0:
64,192,100108,1,0,0:0:0:0:
448,192,100108,1,0,0:0:0:0:
320,192,100423,1,0,0:0:0:0:
64,192,100581,1,0,0:0:0:0:
320,192,100739,1,0,0:0:0:0:
192,192,100739,1,0,0:0:0:0:
64,192,101055,1,0,0:0:0:0:
448,192,101055,1,0,0:0:0:0:
64,192,101371,1,0,0:0:0:0:
192,192,101371,1,0,0:0:0:0:
64,192,101687,1,0,0:0:0:0:
448,192,101845,1,0,0:0:0:0:
320,192,102002,1,0,0:0:0:0:
192,192,102002,1,0,0:0:0:0:
320,192,102318,1,0,0:0:0:0:
448,192,102476,1,0,0:0:0:0:
64,192,102634,1,0,0:0:0:0:
192,192,102634,1,0,0:0:0:0:
448,192,102950,1,0,0:0:0:0:
320,192,102950,1,0,0:0:0:0:
320,192,103266,1,0,0:0:0:0:
192,192,103266,1,0,0:0:0:0:
64,192,103581,1,0,0:0:0:0:
448,192,103581,1,0,0:0:0:0:
448,192,103897,1,0,0:0:0:0:
320,192,103897,1,0,0:0:0:0:
192,192,104213,1,0,0:0:0:0:
320,192,104371,1,0,0:0:0:0:
448,192,104529,1,0,0:0:0:0:
64,192,104529,1,0,0:0:0:0:
320,192,104845,1,0,0:0:0:0:
64,192,105160,1,0,0:0:0:0:
192,192,105160,1,0,0:0:0:0:
320,192,105476,1,0,0:0:0:0:
64,192,105634,1,0,0:0:0:0:
192,192,105792,1,0,0:0:0:0:
448,192,105792,1,0,0:0:0:0:
192,192,106108,1,0,0:0:0:0:
320,192,106108,1,0,0:0:0:0:
192,192,106423,1,0,0:0:0:0:
448,192,106423,1,0,0:0:0:0:
64,192,106739,1,0,0:0:0:0:
320,192,106897,1,0,0:0:0:0:
64,192,107055,1,0,0:0:0:0:
192,192,107055,1,0,0:0:0:0:
448,192,107371,1,0,0:0:0:0:
320,192,107371,1,0,0:0:0:0:
192,192,107687,128,0,108318:0:0:0:0:
448,192,108318,128,0,108950:0:0:0:0:
64,192,108950,1,0,0:0:0:0:
320,192,109266,1,0,0:0:0:0:
64,192,109423,1,0,0:0:0:0:
448,192,109581,1,0,0:0:0:0:
192,192,109581,1,0,0:0:0:0:
448,192,109897,1,0,0:0:0:0:
192,192,110213,1,0,0:0:0:0:
64,192,110213,1,0,0:0:0:0:
448,192,110529,1,0,0:0:0:0:
320,192,110687,1,0,0:0:0:0:
192,192,110845,1,0,0:0:0:0:
64,192,110845,1,0,0:0:0:0:
448,192,111160,1,0,0:0:0:0:
192,192,111160,1,0,0:0:0:0:
192,192,111476,1,0,0:0:0:0:
320,192,111476,1,0,0:0:0:0:
192,192,111792,1,0,0:0:0:0:
448,192,111950,1,0,0:0:0:0:
64,192,112108,1,0,0:0:0:0:
320,192,112108,1,0,0:0:0:0:
64,192,112423,1,0,0:0:0:0:
448,192,112581,1,0,0:0:0:0:
192,192,112739,1,0,0:0:0:0:
320,192,112739,1,0,0:0:0:0:
192,192,113055,1,0,0:0:0:0:
448,192,113055,1,0,0:0:0:0:
64,192,113371,1,0,0:0:0:0:
320,192,113371,1,0,0:0:0:0:
448,192,113687,1,0,0:0:0:0:
320,192,113687,1,0,0:0:0:0:
320,192,114002,1,0,0:0:0:0:
64,192,114002,1,0,0:0:0:0:
448,192,114318,1,0,0:0:0:0:
320,192,114476,1,0,0:0:0:0:
64,192,114634,1,0,0:0:0:0:
192,192,114634,1,0,0:0:0:0:
320,192,114950,1,0,0:0:0:0:
448,192,115266,1,0,0:0:0:0:
64,192,115266,1,0,0:0:0:0:
320,192,115581,1,0,0:0:0:0:
192,192,115739,1,0,0:0:0:0:
448,192,115897,1,0,0:0:0:0:
64,192,115897,1,0,0:0:0:0:
320,192,116213,1,0,0:0:0:0:
64,192,116213,1,0,0:0:0:0:
448,192,116529,1,0,0:0:0:0:
320,192,116529,1,0,0:0:0:0:
64,192,116845,1,0,0:0:0:0:
448,192,117002,1,0,0:0:0:0:
320,192,117160,1,0,0:0:0:0:
192,192,117160,1,0,0:0:0:0:
192,192,117476,1,0,0:0:0:0:
448,192,117476,1,0,0:0:0:0:
64,192,117792,128,0,118423:0:0:0:0:
192,192,118108,1,0,0:0:0:0:
320,192,118423,128,0,119055:0:0:0:0:
448,192,118739,1,0,0:0:0:0:
