osu file format v14

[General]
AudioFilename: Undertale - Finale.mp3
AudioLeadIn: 0
PreviewTime: 20529
Countdown: 0
SampleSet: Normal
StackLeniency: 0.7
Mode: 3
LetterboxInBreaks: 0
SpecialStyle: 0
WidescreenStoryboard: 1

[Editor]
DistanceSpacing: 0.5
BeatDivisor: 4
GridSize: 16
TimelineZoom: 1.5

[Metadata]
Title:Finale
TitleUnicode:Finale
Artist:Toby Fox
ArtistUnicode:Toby Fox
Creator:Rextor
Version:MX
Source:Undertale
Tags:video game
BeatmapID:908091
BeatmapSetID:419316

[Difficulty]
HPDrainRate:8.5
CircleSize:4
OverallDifficulty:8
ApproachRate:7
SliderMultiplier:1.4
SliderTickRate:1

[Events]
//Background and Video events
0,0,"undertale.png",0,0
//Break Periods
//Storyboard Layer 0 (Background)
//Storyboard Layer 1 (Fail)
//Storyboard Layer 2 (Pass)
//Storyboard Layer 3 (Foreground)
//Storyboard Sound Samples

[TimingPoints]
318.712871443855,315.789473684211,4,1,1,40,1,0
20529,-100,4,1,1,40,0,1
30555,-100,4,1,1,40,0,0
30634,-100,4,1,1,40,0,1
40739,-100,4,1,1,40,0,0
58423,-100,4,1,1,40,0,1
68450,-100,4,1,1,40,0,0
68529,-100,4,1,1,40,0,1
78555,-100,4,1,1,40,0,0
78634,-100,4,1,1,40,0,1
88660,-100,4,1,1,40,0,0
88739,-100,4,1,1,40,0,1
98766,-100,4,1,1,40,0,0
98866,-100,4,1,1,40,0,1
108871,-100,4,1,1,40,0,0

[HitObjects]
448,192,318,128,0,634:0:0:0:0:
192,192,634,1,0,0:0:0:0:
320,192,792,128,0,950:0:0:0:0:
64,192,950,1,0,0:0:0:0:
192,192,1266,1,0,0:0:0:0:
192,192,1581,1,0,0:0:0:0:
320,192,1581,1,0,0:0:0:0:
320,192,1897,1,0,0:0:0:0:
448,192,2055,1,0,0:0:0:0:
64,192,2213,1,0,0:0:0:0:
320,192,2529,1,0,0:0:0:0:
192,192,2529,1,0,0:0:0:0:
64,192,2845,128,0,3160:0:0:0:0:
320,192,3160,1,0,0:0:0:0:
192,192,3318,128,0,3476:0:0:0:0:
448,192,3476,1,0,0:0:0:0:
192,192,3792,128,0,4108:0:0:0:0:
320,192,4108,128,0,4423:0:0:0:0:
64,192,4423,128,0,4739:0:0:0:0:
192,192,4739,128,0,5055:0:0:0:0:
320,192,5055,1,0,0:0:0:0:
320,192,5371,128,0,5687:0:0:0:0:
448,192,5687,1,0,0:0:0:0:
192,192,5845,128,0,6002:0:0:0:0:
64,192,6002,1,0,0:0:0:0:
448,192,6318,1,0,0:0:0:0:
64,192,6634,1,0,0:0:0:0:
320,192,6634,1,0,0:0:0:0:
192,192,6950,1,0,0:0:0:0:
320,192,7108,1,0,0:0:0:0:
192,192,7266,1,0,0:0:0:0:
448,192,7581,1,0,0:0:0:0:
320,192,7581,1,0,0:0:0:0:
192,192,7897,128,0,8213:0:0:0:0:
64,192,8213,1,0,0:0:0:0:
320,192,8371,128,0,8529:0:0:0:0:
448,192,8529,1,0,0:0:0:0:
448,192,8845,128,0,9160:0:0:0:0:
192,192,9160,128,0,9476:0:0:0:0:
320,192,9476,128,0,9792:0:0:0:0:
192,192,9792,128,0,10423:0:0:0:0:
64,192,10423,1,0,0:0:0:0:
448,192,10423,128,0,12950:0:0:0:0:
320,192,10739,1,0,0:0:0:0:
64,192,10897,128,0,11055:0:0:0:0:
192,192,11055,1,0,0:0:0:0:
320,192,11371,1,0,0:0:0:0:
64,192,11687,1,0,0:0:0:0:
192,192,12002,1,0,0:0:0:0:
64,192,12160,128,0,12318:0:0:0:0:
192,192,12318,1,0,0:0:0:0:
320,192,12634,1,0,0:0:0:0:
192,192,12950,128,0,15476:0:0:0:0:
64,192,13266,1,0,0:0:0:0:
320,192,13423,128,0,13581:0:0:0:0:
448,192,13581,1,0,0:0:0:0:
64,192,13897,1,0,0:0:0:0:
320,192,14213,1,0,0:0:0:0:
64,192,14529,1,0,0:0:0:0:
448,192,14845,1,0,0:0:0:0:
320,192,15160,1,0,0:0:0:0:
320,192,15476,128,0,18002:0:0:0:0:
64,192,15792,1,0,0:0:0:0:
448,192,15950,128,0,16108:0:0:0:0:
192,192,16108,1,0,0:0:0:0:
64,192,16423,1,0,0:0:0:0:
448,192,16739,1,0,0:0:0:0:
64,192,17055,1,0,0:0:0:0:
448,192,17213,1,0,0:0:0:0:
192,192,17371,1,0,0:0:0:0:
448,192,17687,1,0,0:0:0:0:
64,192,18002,128,0,20529:0:0:0:0:
320,192,18318,1,0,0:0:0:0:
448,192,18476,128,0,18634:0:0:0:0:
192,192,18634,1,0,0:0:0:0:
192,192,18950,128,0,19266:0:0:0:0:
320,192,19266,128,0,19581:0:0:0:0:
448,192,19581,128,0,19897:0:0:0:0:
192,192,19897,128,0,20529:0:0:0:0:
320,192,19897,128,0,20529:0:0:0:0:
448,192,20529,128,0,20845:0:0:0:0:
192,192,20687,1,0,0:0:0:0:
64,192,20845,128,0,21002:0:0:0:0:
320,192,20845,1,0,0:0:0:0:
192,192,21002,128,0,21160:0:0:0:0:
448,192,21002,1,0,0:0:0:0:
320,192,21160,128,0,21318:0:0:0:0:
64,192,21160,1,0,0:0:0:0:
448,192,21318,1,0,0:0:0:0:
448,192,21476,128,0,21634:0:0:0:0:
192,192,21476,1,0,0:0:0:0:
320,192,21634,1,0,0:0:0:0:
64,192,21792,128,0,21950:0:0:0:0:
192,192,21792,1,0,0:0:0:0:
320,192,21950,1,0,0:0:0:0:
192,192,22108,128,0,22266:0:0:0:0:
448,192,22108,1,0,0:0:0:0:
320,192,22266,128,0,22423:0:0:0:0:
64,192,22266,1,0,0:0:0:0:
448,192,22423,128,0,22581:0:0:0:0:
192,192,22423,1,0,0:0:0:0:
64,192,22581,1,0,0:0:0:0:
64,192,22739,128,0,22897:0:0:0:0:
320,192,22739,1,0,0:0:0:0:
448,192,22897,1,0,0:0:0:0:
320,192,23055,128,0,23213:0:0:0:0:
192,192,23055,1,0,0:0:0:0:
448,192,23213,1,0,0:0:0:0:
448,192,23371,128,0,23529:0:0:0:0:
64,192,23371,1,0,0:0:0:0:
320,192,23529,128,0,23687:0:0:0:0:
192,192,23529,1,0,0:0:0:0:
192,192,23687,128,0,23845:0:0:0:0:
448,192,23687,1,0,0:0:0:0:
64,192,23845,1,0,0:0:0:0:
64,192,24002,128,0,24318:0:0:0:0:
448,192,24002,1,0,0:0:0:0:
320,192,24160,1,0,0:0:0:0:
448,192,24318,128,0,24634:0:0:0:0:
192,192,24318,1,0,0:0:0:0:
320,192,24476,1,0,0:0:0:0:
192,192,24634,128,0,24950:0:0:0:0:
64,192,24634,1,0,0:0:0:0:
320,192,24792,1,0,0:0:0:0:
320,192,24950,128,0,25266:0:0:0:0:
64,192,24950,1,0,0:0:0:0:
448,192,25108,1,0,0:0:0:0:
64,192,25266,128,0,25581:0:0:0:0:
192,192,25266,1,0,0:0:0:0:
320,192,25423,1,0,0:0:0:0:
448,192,25581,128,0,25739:0:0:0:0:
192,192,25581,1,0,0:0:0:0:
320,192,25739,1,0,0:0:0:0:
192,192,25897,128,0,26055:0:0:0:0:
64,192,25897,1,0,0:0:0:0:
448,192,26055,128,0,26213:0:0:0:0:
320,192,26055,1,0,0:0:0:0:
320,192,26213,128,0,26371:0:0:0:0:
64,192,26213,1,0,0:0:0:0:
448,192,26371,1,0,0:0:0:0:
64,192,26529,128,0,26687:0:0:0:0:
192,192,26529,1,0,0:0:0:0:
320,192,26687,1,0,0:0:0:0:
448,192,26845,128,0,27002:0:0:0:0:
192,192,26845,1,0,0:0:0:0:
64,192,27002,1,0,0:0:0:0:
192,192,27160,128,0,27318:0:0:0:0:
320,192,27160,1,0,0:0:0:0:
64,192,27318,128,0,27476:0:0:0:0:
448,192,27318,1,0,0:0:0:0:
448,192,27476,128,0,27634:0:0:0:0:
192,192,27476,1,0,0:0:0:0:
320,192,27634,1,0,0:0:0:0:
64,192,27792,128,0,27950:0:0:0:0:
448,192,27792,1,0,0:0:0:0:
192,192,27950,1,0,0:0:0:0:
320,192,28108,128,0,28266:0:0:0:0:
448,192,28108,1,0,0:0:0:0:
64,192,28266,1,0,0:0:0:0:
448,192,28423,128,0,28581:0:0:0:0:
192,192,28423,1,0,0:0:0:0:
192,192,28581,128,0,28739:0:0:0:0:
320,192,28581,1,0,0:0:0:0:
64,192,28739,128,0,28897:0:0:0:0:
448,192,28739,1,0,0:0:0:0:
320,192,28897,1,0,0:0:0:0:
448,192,29055,128,0,29371:0:0:0:0:
192,192,29055,1,0,0:0:0:0:
64,192,29213,1,0,0:0:0:0:
320,192,29371,128,0,29687:0:0:0:0:
192,192,29371,1,0,0:0:0:0:
448,192,29529,1,0,0:0:0:0:
192,192,29687,128,0,30002:0:0:0:0:
64,192,29687,1,0,0:0:0:0:
320,192,29845,1,0,0:0:0:0:
448,192,30002,128,0,30634:0:0:0:0:
64,192,30002,1,0,0:0:0:0:
192,192,30160,1,0,0:0:0:0:
64,192,30318,1,0,0:0:0:0:
320,192,30476,1,0,0:0:0:0:
192,192,30634,1,0,0:0:0:0:
64,192,30634,1,0,0:0:0:0:
320,192,30792,1,0,0:0:0:0:
192,192,30950,1,0,0:0:0:0:
64,192,30950,1,0,0:0:0:0:
448,192,30950,1,0,0:0:0:0:
320,192,31108,1,0,0:0:0:0:
64,192,31108,1,0,0:0:0:0:
448,192,31266,1,0,0:0:0:0:
192,192,31266,1,0,0:0:0:0:
64,192,31423,1,0,0:0:0:0:
448,192,31581,1,0,0:0:0:0:
64,192,31581,1,0,0:0:0:0:
320,192,31581,1,0,0:0:0:0:
192,192,31739,1,0,0:0:0:0:
448,192,31897,1,0,0:0:0:0:
64,192,31897,1,0,0:0:0:0:
320,192,31897,1,0,0:0:0:0:
192,192,32055,1,0,0:0:0:0:
320,192,32213,1,0,0:0:0:0:
448,192,32213,1,0,0:0:0:0:
320,192,32371,1,0,0:0:0:0:
192,192,32371,1,0,0:0:0:0:
64,192,32529,1,0,0:0:0:0:
192,192,32529,1,0,0:0:0:0:
320,192,32687,1,0,0:0:0:0:
320,192,32845,1,0,0:0:0:0:
192,192,32845,1,0,0:0:0:0:
64,192,33002,1,0,0:0:0:0:
192,192,33160,1,0,0:0:0:0:
320,192,33160,1,0,0:0:0:0:
448,192,33160,1,0,0:0:0:0:
64,192,33318,1,0,0:0:0:0:
64,192,33476,1,0,0:0:0:0:
320,192,33476,1,0,0:0:0:0:
192,192,33634,1,0,0:0:0:0:
448,192,33634,1,0,0:0:0:0:
64,192,33792,1,0,0:0:0:0:
320,192,33792,1,0,0:0:0:0:
448,192,33950,1,0,0:0:0:0:
64,192,34108,1,0,0:0:0:0:
320,192,34108,1,0,0:0:0:0:
192,192,34266,1,0,0:0:0:0:
192,192,34423,1,0,0:0:0:0:
64,192,34423,1,0,0:0:0:0:
448,192,34581,1,0,0:0:0:0:
448,192,34739,1,0,0:0:0:0:
192,192,34739,1,0,0:0:0:0:
64,192,34897,1,0,0:0:0:0:
448,192,35055,1,0,0:0:0:0:
320,192,35055,1,0,0:0:0:0:
64,192,35213,1,0,0:0:0:0:
448,192,35371,1,0,0:0:0:0:
192,192,35371,1,0,0:0:0:0:
320,192,35529,1,0,0:0:0:0:
192,192,35687,1,0,0:0:0:0:
64,192,35687,1,0,0:0:0:0:
448,192,35687,1,0,0:0:0:0:
320,192,35845,1,0,0:0:0:0:
192,192,36002,1,0,0:0:0:0:
64,192,36002,1,0,0:0:0:0:
320,192,36160,1,0,0:0:0:0:
448,192,36160,1,0,0:0:0:0:
192,192,36318,1,0,0:0:0:0:
64,192,36318,1,0,0:0:0:0:
64,192,36476,1,0,0:0:0:0:
448,192,36634,1,0,0:0:0:0:
192,192,36634,1,0,0:0:0:0:
320,192,36792,1,0,0:0:0:0:
192,192,36950,1,0,0:0:0:0:
64,192,36950,1,0,0:0:0:0:
448,192,36950,1,0,0:0:0:0:
64,192,37108,1,0,0:0:0:0:
320,192,37266,1,0,0:0:0:0:
448,192,37266,1,0,0:0:0:0:
192,192,37423,1,0,0:0:0:0:
64,192,37423,1,0,0:0:0:0:
320,192,37581,1,0,0:0:0:0:
448,192,37581,1,0,0:0:0:0:
448,192,37739,1,0,0:0:0:0:
192,192,37897,1,0,0:0:0:0:
320,192,37897,1,0,0:0:0:0:
64,192,38055,1,0,0:0:0:0:
192,192,38213,1,0,0:0:0:0:
320,192,38213,1,0,0:0:0:0:
448,192,38213,1,0,0:0:0:0:
320,192,38371,1,0,0:0:0:0:
192,192,38529,1,0,0:0:0:0:
320,192,38529,1,0,0:0:0:0:
448,192,38687,1,0,0:0:0:0:
64,192,38687,1,0,0:0:0:0:
192,192,38845,1,0,0:0:0:0:
320,192,38845,1,0,0:0:0:0:
448,192,39002,1,0,0:0:0:0:
448,192,39160,1,0,0:0:0:0:
192,192,39160,1,0,0:0:0:0:
64,192,39318,1,0,0:0:0:0:
192,192,39476,1,0,0:0:0:0:
320,192,39476,1,0,0:0:0:0:
448,192,39634,1,0,0:0:0:0:
448,192,39792,1,0,0:0:0:0:
64,192,39792,1,0,0:0:0:0:
192,192,39950,1,0,0:0:0:0:
448,192,40108,1,0,0:0:0:0:
64,192,40108,1,0,0:0:0:0:
320,192,40266,1,0,0:0:0:0:
448,192,40423,1,0,0:0:0:0:
192,192,40581,1,0,0:0:0:0:
448,192,40739,1,0,0:0:0:0:
192,192,40897,1,0,0:0:0:0:
64,192,40976,1,0,0:0:0:0:
320,192,41055,1,0,0:0:0:0:
192,192,41213,1,0,0:0:0:0:
320,192,41292,1,0,0:0:0:0:
192,192,41371,128,0,42002:0:0:0:0:
64,192,41371,1,0,0:0:0:0:
448,192,41529,1,0,0:0:0:0:
64,192,41608,1,0,0:0:0:0:
320,192,41687,1,0,0:0:0:0:
320,192,41845,1,0,0:0:0:0:
448,192,41923,1,0,0:0:0:0:
64,192,42002,128,0,42634:0:0:0:0:
320,192,42002,1,0,0:0:0:0:
448,192,42160,1,0,0:0:0:0:
192,192,42239,1,0,0:0:0:0:
320,192,42318,1,0,0:0:0:0:
192,192,42476,1,0,0:0:0:0:
448,192,42634,128,0,43266:0:0:0:0:
320,192,42634,1,0,0:0:0:0:
192,192,42713,1,0,0:0:0:0:
64,192,42792,1,0,0:0:0:0:
320,192,42950,1,0,0:0:0:0:
192,192,43108,1,0,0:0:0:0:
320,192,43187,1,0,0:0:0:0:
192,192,43266,128,0,44529:0:0:0:0:
64,192,43266,1,0,0:0:0:0:
448,192,43423,1,0,0:0:0:0:
320,192,43502,1,0,0:0:0:0:
64,192,43581,1,0,0:0:0:0:
320,192,43739,1,0,0:0:0:0:
448,192,43818,1,0,0:0:0:0:
64,192,43897,1,0,0:0:0:0:
448,192,44055,1,0,0:0:0:0:
320,192,44134,1,0,0:0:0:0:
448,192,44213,1,0,0:0:0:0:
320,192,44371,1,0,0:0:0:0:
64,192,44450,1,0,0:0:0:0:
320,192,44529,128,0,45160:0:0:0:0:
448,192,44529,1,0,0:0:0:0:
192,192,44687,1,0,0:0:0:0:
448,192,44766,1,0,0:0:0:0:
64,192,44845,1,0,0:0:0:0:
192,192,45002,1,0,0:0:0:0:
64,192,45160,128,0,45792:0:0:0:0:
448,192,45160,1,0,0:0:0:0:
192,192,45239,1,0,0:0:0:0:
448,192,45318,1,0,0:0:0:0:
320,192,45476,1,0,0:0:0:0:
192,192,45634,1,0,0:0:0:0:
448,192,45713,1,0,0:0:0:0:
320,192,45792,128,0,48318:0:0:0:0:
192,192,45792,1,0,0:0:0:0:
192,192,45950,1,0,0:0:0:0:
448,192,46029,1,0,0:0:0:0:
64,192,46108,1,0,0:0:0:0:
448,192,46266,1,0,0:0:0:0:
192,192,46345,1,0,0:0:0:0:
64,192,46423,1,0,0:0:0:0:
448,192,46581,1,0,0:0:0:0:
192,192,46739,1,0,0:0:0:0:
64,192,46897,1,0,0:0:0:0:
192,192,46976,1,0,0:0:0:0:
448,192,47055,1,0,0:0:0:0:
448,192,47213,1,0,0:0:0:0:
64,192,47292,1,0,0:0:0:0:
192,192,47371,1,0,0:0:0:0:
448,192,47529,1,0,0:0:0:0:
64,192,47608,1,0,0:0:0:0:
448,192,47687,1,0,0:0:0:0:
192,192,47766,1,0,0:0:0:0:
64,192,47845,1,0,0:0:0:0:
192,192,48002,1,0,0:0:0:0:
64,192,48160,1,0,0:0:0:0:
448,192,48239,1,0,0:0:0:0:
64,192,48318,128,0,50845:0:0:0:0:
192,192,48318,1,0,0:0:0:0:
448,192,48476,1,0,0:0:0:0:
192,192,48555,1,0,0:0:0:0:
320,192,48634,1,0,0:0:0:0:
448,192,48792,1,0,0:0:0:0:
320,192,48950,1,0,0:0:0:0:
192,192,49108,1,0,0:0:0:0:
320,192,49266,1,0,0:0:0:0:
448,192,49423,1,0,0:0:0:0:
192,192,49502,1,0,0:0:0:0:
320,192,49581,1,0,0:0:0:0:
448,192,49739,1,0,0:0:0:0:
192,192,49818,1,0,0:0:0:0:
448,192,49897,1,0,0:0:0:0:
320,192,50055,1,0,0:0:0:0:
192,192,50213,1,0,0:0:0:0:
448,192,50292,1,0,0:0:0:0:
192,192,50371,1,0,0:0:0:0:
448,192,50529,1,0,0:0:0:0:
192,192,50687,1,0,0:0:0:0:
448,192,50766,1,0,0:0:0:0:
320,192,50845,1,0,0:0:0:0:
448,192,51002,1,0,0:0:0:0:
64,192,51081,1,0,0:0:0:0:
320,192,51160,1,0,0:0:0:0:
192,192,51318,1,0,0:0:0:0:
448,192,51476,128,0,52108:0:0:0:0:
64,192,51476,1,0,0:0:0:0:
320,192,51634,1,0,0:0:0:0:
64,192,51713,1,0,0:0:0:0:
320,192,51792,1,0,0:0:0:0:
192,192,51950,1,0,0:0:0:0:
320,192,52029,1,0,0:0:0:0:
192,192,52108,128,0,52739:0:0:0:0:
64,192,52108,1,0,0:0:0:0:
320,192,52266,1,0,0:0:0:0:
64,192,52345,1,0,0:0:0:0:
448,192,52423,1,0,0:0:0:0:
320,192,52581,1,0,0:0:0:0:
64,192,52739,128,0,53371:0:0:0:0:
320,192,52739,1,0,0:0:0:0:
448,192,52818,1,0,0:0:0:0:
320,192,52897,1,0,0:0:0:0:
192,192,53055,1,0,0:0:0:0:
320,192,53213,1,0,0:0:0:0:
448,192,53292,1,0,0:0:0:0:
320,192,53371,128,0,54634:0:0:0:0:
192,192,53371,1,0,0:0:0:0:
448,192,53529,1,0,0:0:0:0:
192,192,53608,1,0,0:0:0:0:
64,192,53687,1,0,0:0:0:0:
192,192,53845,1,0,0:0:0:0:
448,192,53923,1,0,0:0:0:0:
192,192,54002,1,0,0:0:0:0:
448,192,54160,1,0,0:0:0:0:
192,192,54239,1,0,0:0:0:0:
64,192,54318,1,0,0:0:0:0:
448,192,54476,1,0,0:0:0:0:
64,192,54555,1,0,0:0:0:0:
448,192,54634,128,0,55266:0:0:0:0:
192,192,54634,1,0,0:0:0:0:
320,192,54792,1,0,0:0:0:0:
64,192,54871,1,0,0:0:0:0:
192,192,54950,1,0,0:0:0:0:
192,192,55108,1,0,0:0:0:0:
64,192,55266,128,0,55897:0:0:0:0:
320,192,55266,1,0,0:0:0:0:
192,192,55345,1,0,0:0:0:0:
448,192,55423,1,0,0:0:0:0:
320,192,55581,1,0,0:0:0:0:
192,192,55739,1,0,0:0:0:0:
448,192,55818,1,0,0:0:0:0:
192,192,55897,128,0,58423:0:0:0:0:
320,192,55897,1,0,0:0:0:0:
448,192,56055,1,0,0:0:0:0:
320,192,56213,1,0,0:0:0:0:
64,192,56371,1,0,0:0:0:0:
320,192,56450,1,0,0:0:0:0:
448,192,56529,1,0,0:0:0:0:
64,192,56687,1,0,0:0:0:0:
448,192,56766,1,0,0:0:0:0:
320,192,56845,1,0,0:0:0:0:
448,192,57002,1,0,0:0:0:0:
320,192,57081,1,0,0:0:0:0:
64,192,57160,1,0,0:0:0:0:
448,192,57318,1,0,0:0:0:0:
64,192,57397,1,0,0:0:0:0:
320,192,57476,1,0,0:0:0:0:
320,192,57634,1,0,0:0:0:0:
448,192,57792,1,0,0:0:0:0:
320,192,57871,1,0,0:0:0:0:
64,192,57950,1,0,0:0:0:0:
320,192,58108,1,0,0:0:0:0:
64,192,58266,1,0,0:0:0:0:
448,192,58345,1,0,0:0:0:0:
64,192,58423,1,0,0:0:0:0:
320,192,58423,128,0,58739:0:0:0:0:
448,192,58581,1,0,0:0:0:0:
64,192,58739,1,0,0:0:0:0:
192,192,58739,1,0,0:0:0:0:
448,192,58897,1,0,0:0:0:0:
192,192,59055,1,0,0:0:0:0:
64,192,59055,128,0,59371:0:0:0:0:
320,192,59213,1,0,0:0:0:0:
192,192,59371,1,0,0:0:0:0:
448,192,59371,1,0,0:0:0:0:
320,192,59529,1,0,0:0:0:0:
192,192,59687,1,0,0:0:0:0:
320,192,59687,128,0,60002:0:0:0:0:
448,192,59845,1,0,0:0:0:0:
64,192,60002,1,0,0:0:0:0:
448,192,60002,1,0,0:0:0:0:
192,192,60160,1,0,0:0:0:0:
448,192,60318,1,0,0:0:0:0:
192,192,60318,128,0,60634:0:0:0:0:
64,192,60476,1,0,0:0:0:0:
448,192,60476,1,0,0:0:0:0:
320,192,60555,1,0,0:0:0:0:
448,192,60634,1,0,0:0:0:0:
64,192,60634,1,0,0:0:0:0:
320,192,60713,1,0,0:0:0:0:
448,192,60950,1,0,0:0:0:0:
64,192,60950,128,0,61266:0:0:0:0:
320,192,61108,1,0,0:0:0:0:
192,192,61266,1,0,0:0:0:0:
448,192,61266,1,0,0:0:0:0:
320,192,61423,1,0,0:0:0:0:
192,192,61423,1,0,0:0:0:0:
448,192,61581,1,0,0:0:0:0:
320,192,61581,128,0,61897:0:0:0:0:
192,192,61739,1,0,0:0:0:0:
192,192,61897,1,0,0:0:0:0:
448,192,61897,1,0,0:0:0:0:
64,192,61976,1,0,0:0:0:0:
448,192,62055,1,0,0:0:0:0:
192,192,62055,1,0,0:0:0:0:
64,192,62134,1,0,0:0:0:0:
320,192,62213,1,0,0:0:0:0:
192,192,62213,128,0,62529:0:0:0:0:
448,192,62371,1,0,0:0:0:0:
64,192,62529,1,0,0:0:0:0:
320,192,62529,1,0,0:0:0:0:
64,192,62687,1,0,0:0:0:0:
448,192,62845,128,0,63160:0:0:0:0:
320,192,62845,1,0,0:0:0:0:
192,192,63002,1,0,0:0:0:0:
64,192,63160,1,0,0:0:0:0:
320,192,63160,1,0,0:0:0:0:
192,192,63318,1,0,0:0:0:0:
64,192,63476,128,0,63792:0:0:0:0:
448,192,63476,1,0,0:0:0:0:
320,192,63634,1,0,0:0:0:0:
448,192,63792,1,0,0:0:0:0:
192,192,63792,1,0,0:0:0:0:
320,192,63871,1,0,0:0:0:0:
192,192,63950,1,0,0:0:0:0:
448,192,64029,1,0,0:0:0:0:
192,192,64108,128,0,64423:0:0:0:0:
64,192,64108,1,0,0:0:0:0:
320,192,64266,1,0,0:0:0:0:
64,192,64423,1,0,0:0:0:0:
448,192,64423,1,0,0:0:0:0:
64,192,64581,1,0,0:0:0:0:
448,192,64739,128,0,65055:0:0:0:0:
192,192,64739,1,0,0:0:0:0:
320,192,64897,1,0,0:0:0:0:
192,192,65055,1,0,0:0:0:0:
64,192,65055,1,0,0:0:0:0:
320,192,65213,1,0,0:0:0:0:
192,192,65213,1,0,0:0:0:0:
64,192,65371,128,0,65687:0:0:0:0:
448,192,65371,1,0,0:0:0:0:
320,192,65529,1,0,0:0:0:0:
192,192,65687,1,0,0:0:0:0:
448,192,65687,1,0,0:0:0:0:
192,192,65845,1,0,0:0:0:0:
448,192,66002,1,0,0:0:0:0:
320,192,66002,128,0,66318:0:0:0:0:
192,192,66160,1,0,0:0:0:0:
192,192,66318,1,0,0:0:0:0:
64,192,66318,1,0,0:0:0:0:
448,192,66476,1,0,0:0:0:0:
64,192,66476,1,0,0:0:0:0:
192,192,66634,128,0,66950:0:0:0:0:
320,192,66634,1,0,0:0:0:0:
448,192,66792,1,0,0:0:0:0:
64,192,66950,1,0,0:0:0:0:
320,192,66950,1,0,0:0:0:0:
64,192,67108,1,0,0:0:0:0:
320,192,67266,1,0,0:0:0:0:
448,192,67266,128,0,67897:0:0:0:0:
192,192,67423,1,0,0:0:0:0:
64,192,67581,1,0,0:0:0:0:
320,192,67581,1,0,0:0:0:0:
192,192,67739,1,0,0:0:0:0:
64,192,67897,128,0,68529:0:0:0:0:
320,192,67897,1,0,0:0:0:0:
320,192,68055,1,0,0:0:0:0:
448,192,68213,1,0,0:0:0:0:
192,192,68213,1,0,0:0:0:0:
320,192,68371,1,0,0:0:0:0:
320,192,68529,1,0,0:0:0:0:
448,192,68529,1,0,0:0:0:0:
192,192,68687,1,0,0:0:0:0:
320,192,68845,1,0,0:0:0:0:
448,192,68845,1,0,0:0:0:0:
320,192,69002,1,0,0:0:0:0:
448,192,69160,1,0,0:0:0:0:
192,192,69160,1,0,0:0:0:0:
192,192,69318,1,0,0:0:0:0:
64,192,69476,1,0,0:0:0:0:
320,192,69476,1,0,0:0:0:0:
64,192,69634,1,0,0:0:0:0:
192,192,69792,1,0,0:0:0:0:
448,192,69792,1,0,0:0:0:0:
320,192,69950,1,0,0:0:0:0:
64,192,70108,1,0,0:0:0:0:
448,192,70108,1,0,0:0:0:0:
320,192,70266,1,0,0:0:0:0:
64,192,70423,1,0,0:0:0:0:
192,192,70423,1,0,0:0:0:0:
320,192,70581,1,0,0:0:0:0:
64,192,70581,1,0,0:0:0:0:
192,192,70660,1,0,0:0:0:0:
64,192,70739,1,0,0:0:0:0:
320,192,70739,1,0,0:0:0:0:
448,192,70818,1,0,0:0:0:0:
64,192,71055,1,0,0:0:0:0:
320,192,71055,1,0,0:0:0:0:
192,192,71213,1,0,0:0:0:0:
64,192,71371,1,0,0:0:0:0:
320,192,71371,1,0,0:0:0:0:
320,192,71529,1,0,0:0:0:0:
448,192,71529,1,0,0:0:0:0:
64,192,71687,1,0,0:0:0:0:
192,192,71687,1,0,0:0:0:0:
320,192,71845,1,0,0:0:0:0:
320,192,72002,1,0,0:0:0:0:
192,192,72002,1,0,0:0:0:0:
448,192,72160,1,0,0:0:0:0:
64,192,72318,1,0,0:0:0:0:
320,192,72318,1,0,0:0:0:0:
448,192,72476,1,0,0:0:0:0:
192,192,72634,1,0,0:0:0:0:
448,192,72634,1,0,0:0:0:0:
64,192,72792,1,0,0:0:0:0:
192,192,72950,1,0,0:0:0:0:
320,192,72950,1,0,0:0:0:0:
64,192,73108,1,0,0:0:0:0:
448,192,73266,1,0,0:0:0:0:
320,192,73266,1,0,0:0:0:0:
192,192,73423,1,0,0:0:0:0:
320,192,73581,1,0,0:0:0:0:
64,192,73581,1,0,0:0:0:0:
192,192,73739,1,0,0:0:0:0:
64,192,73897,1,0,0:0:0:0:
192,192,73897,1,0,0:0:0:0:
320,192,73976,1,0,0:0:0:0:
448,192,74055,1,0,0:0:0:0:
64,192,74134,1,0,0:0:0:0:
192,192,74213,1,0,0:0:0:0:
320,192,74213,1,0,0:0:0:0:
192,192,74371,1,0,0:0:0:0:
64,192,74529,1,0,0:0:0:0:
448,192,74529,1,0,0:0:0:0:
448,192,74687,1,0,0:0:0:0:
192,192,74845,1,0,0:0:0:0:
64,192,74845,1,0,0:0:0:0:
192,192,75002,1,0,0:0:0:0:
448,192,75160,1,0,0:0:0:0:
320,192,75160,1,0,0:0:0:0:
192,192,75318,1,0,0:0:0:0:
192,192,75476,1,0,0:0:0:0:
448,192,75476,1,0,0:0:0:0:
64,192,75634,1,0,0:0:0:0:
320,192,75792,1,0,0:0:0:0:
448,192,75792,1,0,0:0:0:0:
320,192,75950,1,0,0:0:0:0:
64,192,76108,1,0,0:0:0:0:
192,192,76108,1,0,0:0:0:0:
320,192,76266,1,0,0:0:0:0:
448,192,76423,1,0,0:0:0:0:
320,192,76423,1,0,0:0:0:0:
64,192,76581,1,0,0:0:0:0:
64,192,76739,1,0,0:0:0:0:
192,192,76739,1,0,0:0:0:0:
320,192,76897,1,0,0:0:0:0:
192,192,77055,1,0,0:0:0:0:
448,192,77055,1,0,0:0:0:0:
448,192,77213,1,0,0:0:0:0:
192,192,77371,1,0,0:0:0:0:
64,192,77371,128,0,78002:0:0:0:0:
320,192,77529,1,0,0:0:0:0:
192,192,77687,1,0,0:0:0:0:
448,192,77687,1,0,0:0:0:0:
320,192,77845,1,0,0:0:0:0:
192,192,78002,1,0,0:0:0:0:
448,192,78002,128,0,78634:0:0:0:0:
192,192,78160,1,0,0:0:0:0:
320,192,78318,1,0,0:0:0:0:
64,192,78318,1,0,0:0:0:0:
192,192,78476,1,0,0:0:0:0:
320,192,78634,1,0,0:0:0:0:
192,192,78713,1,0,0:0:0:0:
448,192,78792,1,0,0:0:0:0:
64,192,78792,1,0,0:0:0:0:
192,192,78871,1,0,0:0:0:0:
448,192,78950,1,0,0:0:0:0:
64,192,79029,1,0,0:0:0:0:
320,192,79108,1,0,0:0:0:0:
448,192,79266,1,0,0:0:0:0:
192,192,79266,1,0,0:0:0:0:
320,192,79423,1,0,0:0:0:0:
448,192,79581,1,0,0:0:0:0:
192,192,79581,1,0,0:0:0:0:
64,192,79581,1,0,0:0:0:0:
192,192,79739,1,0,0:0:0:0:
320,192,79897,1,0,0:0:0:0:
448,192,79897,1,0,0:0:0:0:
64,192,79976,1,0,0:0:0:0:
320,192,80055,1,0,0:0:0:0:
448,192,80134,1,0,0:0:0:0:
320,192,80213,1,0,0:0:0:0:
192,192,80213,1,0,0:0:0:0:
64,192,80292,1,0,0:0:0:0:
448,192,80371,1,0,0:0:0:0:
320,192,80529,1,0,0:0:0:0:
64,192,80529,1,0,0:0:0:0:
192,192,80687,1,0,0:0:0:0:
64,192,80766,1,0,0:0:0:0:
320,192,80845,1,0,0:0:0:0:
448,192,80845,1,0,0:0:0:0:
192,192,80845,1,0,0:0:0:0:
320,192,81002,1,0,0:0:0:0:
64,192,81081,1,0,0:0:0:0:
448,192,81160,1,0,0:0:0:0:
320,192,81160,1,0,0:0:0:0:
192,192,81318,1,0,0:0:0:0:
448,192,81397,1,0,0:0:0:0:
320,192,81397,1,0,0:0:0:0:
64,192,81476,1,0,0:0:0:0:
192,192,81555,1,0,0:0:0:0:
320,192,81634,1,0,0:0:0:0:
448,192,81713,1,0,0:0:0:0:
192,192,81792,1,0,0:0:0:0:
64,192,81792,1,0,0:0:0:0:
320,192,81792,1,0,0:0:0:0:
320,192,81950,1,0,0:0:0:0:
448,192,82108,1,0,0:0:0:0:
320,192,82108,1,0,0:0:0:0:
192,192,82266,1,0,0:0:0:0:
64,192,82266,1,0,0:0:0:0:
448,192,82423,1,0,0:0:0:0:
64,192,82423,1,0,0:0:0:0:
192,192,82581,1,0,0:0:0:0:
448,192,82660,1,0,0:0:0:0:
320,192,82660,1,0,0:0:0:0:
64,192,82739,1,0,0:0:0:0:
192,192,82739,1,0,0:0:0:0:
448,192,82818,1,0,0:0:0:0:
192,192,82897,1,0,0:0:0:0:
64,192,82976,1,0,0:0:0:0:
320,192,83055,1,0,0:0:0:0:
192,192,83055,1,0,0:0:0:0:
448,192,83134,1,0,0:0:0:0:
192,192,83213,1,0,0:0:0:0:
448,192,83292,1,0,0:0:0:0:
64,192,83371,1,0,0:0:0:0:
192,192,83371,1,0,0:0:0:0:
320,192,83450,1,0,0:0:0:0:
64,192,83529,1,0,0:0:0:0:
192,192,83608,1,0,0:0:0:0:
64,192,83687,128,0,84002:0:0:0:0:
448,192,83687,1,0,0:0:0:0:
320,192,83687,1,0,0:0:0:0:
320,192,83845,1,0,0:0:0:0:
192,192,84002,1,0,0:0:0:0:
64,192,84160,1,0,0:0:0:0:
320,192,84160,1,0,0:0:0:0:
448,192,84318,1,0,0:0:0:0:
192,192,84318,1,0,0:0:0:0:
64,192,84318,1,0,0:0:0:0:
320,192,84476,1,0,0:0:0:0:
320,192,84634,1,0,0:0:0:0:
192,192,84634,1,0,0:0:0:0:
448,192,84634,1,0,0:0:0:0:
192,192,84792,1,0,0:0:0:0:
64,192,84950,1,0,0:0:0:0:
320,192,84950,1,0,0:0:0:0:
448,192,84950,1,0,0:0:0:0:
448,192,85108,1,0,0:0:0:0:
320,192,85266,1,0,0:0:0:0:
192,192,85266,1,0,0:0:0:0:
192,192,85423,1,0,0:0:0:0:
448,192,85423,1,0,0:0:0:0:
64,192,85581,1,0,0:0:0:0:
320,192,85581,1,0,0:0:0:0:
448,192,85739,1,0,0:0:0:0:
320,192,85897,1,0,0:0:0:0:
64,192,85897,1,0,0:0:0:0:
192,192,85897,1,0,0:0:0:0:
320,192,86055,1,0,0:0:0:0:
192,192,86213,1,0,0:0:0:0:
448,192,86213,1,0,0:0:0:0:
320,192,86213,1,0,0:0:0:0:
192,192,86371,1,0,0:0:0:0:
192,192,86529,1,0,0:0:0:0:
64,192,86529,1,0,0:0:0:0:
192,192,86687,1,0,0:0:0:0:
320,192,86687,1,0,0:0:0:0:
448,192,86845,1,0,0:0:0:0:
64,192,86845,1,0,0:0:0:0:
192,192,87002,1,0,0:0:0:0:
64,192,87002,1,0,0:0:0:0:
192,192,87160,1,0,0:0:0:0:
448,192,87160,1,0,0:0:0:0:
448,192,87318,1,0,0:0:0:0:
320,192,87318,1,0,0:0:0:0:
192,192,87476,1,0,0:0:0:0:
64,192,87476,1,0,0:0:0:0:
448,192,87555,1,0,0:0:0:0:
320,192,87555,1,0,0:0:0:0:
192,192,87634,1,0,0:0:0:0:
64,192,87634,1,0,0:0:0:0:
448,192,87713,1,0,0:0:0:0:
320,192,87713,1,0,0:0:0:0:
192,192,87792,1,0,0:0:0:0:
64,192,87792,1,0,0:0:0:0:
448,192,87871,1,0,0:0:0:0:
320,192,87871,1,0,0:0:0:0:
192,192,87950,1,0,0:0:0:0:
64,192,87950,1,0,0:0:0:0:
448,192,88029,1,0,0:0:0:0:
320,192,88029,1,0,0:0:0:0:
64,192,88108,1,0,0:0:0:0:
192,192,88108,1,0,0:0:0:0:
320,192,88187,1,0,0:0:0:0:
448,192,88187,1,0,0:0:0:0:
192,192,88266,1,0,0:0:0:0:
64,192,88266,1,0,0:0:0:0:
448,192,88345,1,0,0:0:0:0:
320,192,88345,1,0,0:0:0:0:
192,192,88423,1,0,0:0:0:0:
64,192,88423,1,0,0:0:0:0:
448,192,88502,1,0,0:0:0:0:
320,192,88502,1,0,0:0:0:0:
192,192,88581,1,0,0:0:0:0:
64,192,88581,1,0,0:0:0:0:
320,192,88660,1,0,0:0:0:0:
448,192,88660,1,0,0:0:0:0:
192,192,88739,128,0,89055:0:0:0:0:
64,192,88739,1,0,0:0:0:0:
320,192,88897,1,0,0:0:0:0:
320,192,89055,128,0,89213:0:0:0:0:
448,192,89055,1,0,0:0:0:0:
192,192,89213,128,0,89371:0:0:0:0:
64,192,89371,1,0,0:0:0:0:
448,192,89371,128,0,89529:0:0:0:0:
320,192,89529,1,0,0:0:0:0:
192,192,89687,128,0,89845:0:0:0:0:
64,192,89687,1,0,0:0:0:0:
320,192,89845,1,0,0:0:0:0:
448,192,90002,128,0,90081:0:0:0:0:
320,192,90002,1,0,0:0:0:0:
192,192,90081,128,0,90160:0:0:0:0:
64,192,90160,128,0,90239:0:0:0:0:
320,192,90239,128,0,90318:0:0:0:0:
448,192,90318,128,0,90397:0:0:0:0:
192,192,90397,128,0,90476:0:0:0:0:
320,192,90476,128,0,90555:0:0:0:0:
64,192,90555,128,0,90634:0:0:0:0:
192,192,90634,1,0,0:0:0:0:
64,192,90792,1,0,0:0:0:0:
448,192,90871,1,0,0:0:0:0:
320,192,90950,128,0,91266:0:0:0:0:
192,192,90950,1,0,0:0:0:0:
192,192,91108,1,0,0:0:0:0:
64,192,91108,1,0,0:0:0:0:
448,192,91187,1,0,0:0:0:0:
64,192,91266,128,0,91345:0:0:0:0:
192,192,91266,1,0,0:0:0:0:
448,192,91423,1,0,0:0:0:0:
64,192,91581,128,0,91739:0:0:0:0:
192,192,91581,1,0,0:0:0:0:
320,192,91739,128,0,91897:0:0:0:0:
448,192,91897,1,0,0:0:0:0:
64,192,92055,1,0,0:0:0:0:
192,192,92213,128,0,92371:0:0:0:0:
320,192,92213,1,0,0:0:0:0:
64,192,92371,128,0,92529:0:0:0:0:
448,192,92371,1,0,0:0:0:0:
448,192,92529,128,0,92687:0:0:0:0:
320,192,92529,1,0,0:0:0:0:
192,192,92687,128,0,92845:0:0:0:0:
64,192,92687,1,0,0:0:0:0:
448,192,92845,128,0,92923:0:0:0:0:
320,192,92845,1,0,0:0:0:0:
64,192,92923,128,0,93002:0:0:0:0:
320,192,93002,128,0,93081:0:0:0:0:
448,192,93081,128,0,93160:0:0:0:0:
192,192,93160,128,0,93239:0:0:0:0:
320,192,93239,128,0,93318:0:0:0:0:
64,192,93318,128,0,93397:0:0:0:0:
448,192,93397,128,0,93476:0:0:0:0:
192,192,93476,128,0,93555:0:0:0:0:
320,192,93555,128,0,93634:0:0:0:0:
64,192,93634,128,0,93713:0:0:0:0:
448,192,93713,128,0,93792:0:0:0:0:
320,192,93792,128,0,94108:0:0:0:0:
192,192,93792,1,0,0:0:0:0:
448,192,93950,1,0,0:0:0:0:
64,192,94108,128,0,94266:0:0:0:0:
192,192,94108,1,0,0:0:0:0:
448,192,94266,128,0,94423:0:0:0:0:
320,192,94266,1,0,0:0:0:0:
192,192,94423,1,0,0:0:0:0:
320,192,94581,1,0,0:0:0:0:
192,192,94739,128,0,95055:0:0:0:0:
64,192,94739,1,0,0:0:0:0:
448,192,94739,1,0,0:0:0:0:
320,192,94897,1,0,0:0:0:0:
448,192,94897,1,0,0:0:0:0:
64,192,95055,1,0,0:0:0:0:
320,192,95055,1,0,0:0:0:0:
64,192,95213,1,0,0:0:0:0:
192,192,95292,1,0,0:0:0:0:
448,192,95371,1,0,0:0:0:0:
320,192,95371,128,0,95529:0:0:0:0:
64,192,95529,128,0,95687:0:0:0:0:
192,192,95687,1,0,0:0:0:0:
448,192,95845,1,0,0:0:0:0:
320,192,95923,1,0,0:0:0:0:
64,192,96002,128,0,96160:0:0:0:0:
448,192,96002,1,0,0:0:0:0:
448,192,96160,1,0,0:0:0:0:
192,192,96318,1,0,0:0:0:0:
320,192,96318,128,0,96476:0:0:0:0:
64,192,96476,1,0,0:0:0:0:
448,192,96555,1,0,0:0:0:0:
192,192,96634,1,0,0:0:0:0:
320,192,96634,128,0,96792:0:0:0:0:
64,192,96792,128,0,96950:0:0:0:0:
448,192,96792,1,0,0:0:0:0:
192,192,96950,128,0,97108:0:0:0:0:
320,192,96950,1,0,0:0:0:0:
320,192,97108,128,0,97266:0:0:0:0:
64,192,97108,1,0,0:0:0:0:
64,192,97266,128,0,97423:0:0:0:0:
448,192,97266,1,0,0:0:0:0:
192,192,97423,1,0,0:0:0:0:
64,192,97581,1,0,0:0:0:0:
192,192,97581,1,0,0:0:0:0:
320,192,97660,1,0,0:0:0:0:
448,192,97660,1,0,0:0:0:0:
64,192,97739,1,0,0:0:0:0:
192,192,97739,1,0,0:0:0:0:
320,192,97818,1,0,0:0:0:0:
448,192,97818,1,0,0:0:0:0:
64,192,97897,1,0,0:0:0:0:
192,192,97897,1,0,0:0:0:0:
320,192,97976,1,0,0:0:0:0:
448,192,97976,1,0,0:0:0:0:
64,192,98055,1,0,0:0:0:0:
192,192,98055,1,0,0:0:0:0:
448,192,98134,1,0,0:0:0:0:
320,192,98134,1,0,0:0:0:0:
64,192,98213,1,0,0:0:0:0:
192,192,98213,1,0,0:0:0:0:
320,192,98292,1,0,0:0:0:0:
448,192,98292,1,0,0:0:0:0:
64,192,98371,1,0,0:0:0:0:
192,192,98371,1,0,0:0:0:0:
320,192,98450,1,0,0:0:0:0:
448,192,98450,1,0,0:0:0:0:
64,192,98529,1,0,0:0:0:0:
192,192,98529,1,0,0:0:0:0:
320,192,98608,1,0,0:0:0:0:
448,192,98608,1,0,0:0:0:0:
64,192,98687,1,0,0:0:0:0:
192,192,98687,1,0,0:0:0:0:
320,192,98766,1,0,0:0:0:0:
448,192,98766,1,0,0:0:0:0:
192,192,98845,1,0,0:0:0:0:
64,192,98845,1,0,0:0:0:0:
448,192,99002,1,0,0:0:0:0:
192,192,99160,1,0,0:0:0:0:
64,192,99160,1,0,0:0:0:0:
320,192,99160,1,0,0:0:0:0:
448,192,99239,1,0,0:0:0:0:
320,192,99318,1,0,0:0:0:0:
192,192,99476,1,0,0:0:0:0:
320,192,99476,1,0,0:0:0:0:
64,192,99634,1,0,0:0:0:0:
192,192,99792,1,0,0:0:0:0:
448,192,99792,1,0,0:0:0:0:
320,192,99792,1,0,0:0:0:0:
64,192,99950,1,0,0:0:0:0:
448,192,100108,1,0,0:0:0:0:
192,192,100108,1,0,0:0:0:0:
320,192,100266,1,0,0:0:0:0:
448,192,100423,1,0,0:0:0:0:
64,192,100423,1,0,0:0:0:0:
192,192,100423,1,0,0:0:0:0:
320,192,100581,1,0,0:0:0:0:
64,192,100739,1,0,0:0:0:0:
192,192,100739,1,0,0:0:0:0:
320,192,100897,1,0,0:0:0:0:
448,192,100976,1,0,0:0:0:0:
64,192,101055,1,0,0:0:0:0:
320,192,101055,1,0,0:0:0:0:
192,192,101055,1,0,0:0:0:0:
448,192,101134,1,0,0:0:0:0:
64,192,101371,1,0,0:0:0:0:
192,192,101371,1,0,0:0:0:0:
320,192,101529,1,0,0:0:0:0:
192,192,101687,1,0,0:0:0:0:
64,192,101687,1,0,0:0:0:0:
448,192,101687,1,0,0:0:0:0:
320,192,101766,1,0,0:0:0:0:
448,192,101845,1,0,0:0:0:0:
320,192,101923,1,0,0:0:0:0:
192,192,102002,1,0,0:0:0:0:
448,192,102002,1,0,0:0:0:0:
64,192,102160,1,0,0:0:0:0:
192,192,102318,1,0,0:0:0:0:
320,192,102318,1,0,0:0:0:0:
448,192,102318,1,0,0:0:0:0:
64,192,102397,1,0,0:0:0:0:
192,192,102476,1,0,0:0:0:0:
192,192,102634,1,0,0:0:0:0:
448,192,102634,1,0,0:0:0:0:
320,192,102792,1,0,0:0:0:0:
64,192,102950,1,0,0:0:0:0:
192,192,102950,1,0,0:0:0:0:
448,192,102950,1,0,0:0:0:0:
320,192,103108,1,0,0:0:0:0:
448,192,103266,1,0,0:0:0:0:
64,192,103266,1,0,0:0:0:0:
192,192,103423,1,0,0:0:0:0:
320,192,103581,1,0,0:0:0:0:
448,192,103581,1,0,0:0:0:0:
64,192,103581,1,0,0:0:0:0:
192,192,103739,1,0,0:0:0:0:
320,192,103897,1,0,0:0:0:0:
448,192,103897,1,0,0:0:0:0:
64,192,104055,1,0,0:0:0:0:
192,192,104213,1,0,0:0:0:0:
448,192,104213,1,0,0:0:0:0:
320,192,104213,1,0,0:0:0:0:
64,192,104371,1,0,0:0:0:0:
448,192,104450,1,0,0:0:0:0:
192,192,104529,1,0,0:0:0:0:
320,192,104529,1,0,0:0:0:0:
64,192,104608,1,0,0:0:0:0:
320,192,104845,1,0,0:0:0:0:
192,192,104845,1,0,0:0:0:0:
64,192,104845,1,0,0:0:0:0:
448,192,105002,1,0,0:0:0:0:
320,192,105160,1,0,0:0:0:0:
192,192,105160,1,0,0:0:0:0:
64,192,105318,1,0,0:0:0:0:
192,192,105476,1,0,0:0:0:0:
320,192,105476,1,0,0:0:0:0:
448,192,105476,1,0,0:0:0:0:
64,192,105634,1,0,0:0:0:0:
448,192,105792,1,0,0:0:0:0:
320,192,105792,1,0,0:0:0:0:
192,192,105950,1,0,0:0:0:0:
64,192,106108,1,0,0:0:0:0:
320,192,106108,1,0,0:0:0:0:
448,192,106108,1,0,0:0:0:0:
192,192,106266,1,0,0:0:0:0:
64,192,106423,1,0,0:0:0:0:
448,192,106423,1,0,0:0:0:0:
320,192,106581,1,0,0:0:0:0:
192,192,106739,1,0,0:0:0:0:
64,192,106739,1,0,0:0:0:0:
448,192,106739,1,0,0:0:0:0:
320,192,106897,1,0,0:0:0:0:
448,192,107055,1,0,0:0:0:0:
192,192,107055,1,0,0:0:0:0:
64,192,107213,1,0,0:0:0:0:
192,192,107371,1,0,0:0:0:0:
320,192,107371,1,0,0:0:0:0:
448,192,107371,1,0,0:0:0:0:
64,192,107529,1,0,0:0:0:0:
320,192,107687,1,0,0:0:0:0:
192,192,107687,1,0,0:0:0:0:
448,192,107845,1,0,0:0:0:0:
320,192,108002,1,0,0:0:0:0:
192,192,108002,1,0,0:0:0:0:
64,192,108002,1,0,0:0:0:0:
448,192,108160,1,0,0:0:0:0:
192,192,108318,1,0,0:0:0:0:
64,192,108318,1,0,0:0:0:0:
320,192,108476,1,0,0:0:0:0:
64,192,108634,1,0,0:0:0:0:
192,192,108634,1,0,0:0:0:0:
448,192,108634,1,0,0:0:0:0:
320,192,108792,1,0,0:0:0:0:
448,192,108950,128,0,109108:0:0:0:0:
192,192,108950,1,0,0:0:0:0:
320,192,109108,1,0,0:0:0:0:
448,192,109266,1,0,0:0:0:0:
64,192,109266,1,0,0:0:0:0:
320,192,109266,128,0,109423:0:0:0:0:
192,192,109266,1,0,0:0:0:0:
448,192,109423,128,0,109581:0:0:0:0:
192,192,109423,1,0,0:0:0:0:
192,192,109581,128,0,109739:0:0:0:0:
64,192,109581,1,0,0:0:0:0:
448,192,109739,1,0,0:0:0:0:
64,192,109897,128,0,110055:0:0:0:0:
320,192,109897,1,0,0:0:0:0:
448,192,109897,1,0,0:0:0:0:
192,192,109897,1,0,0:0:0:0:
320,192,110055,1,0,0:0:0:0:
448,192,110213,128,0,110371:0:0:0:0:
192,192,110213,1,0,0:0:0:0:
320,192,110371,1,0,0:0:0:0:
448,192,110529,1,0,0:0:0:0:
320,192,110529,1,0,0:0:0:0:
64,192,110529,128,0,110687:0:0:0:0:
192,192,110529,1,0,0:0:0:0:
192,192,110687,1,0,0:0:0:0:
320,192,110687,128,0,110845:0:0:0:0:
448,192,110845,1,0,0:0:0:0:
64,192,110845,128,0,111002:0:0:0:0:
192,192,111002,1,0,0:0:0:0:
320,192,111160,128,0,111318:0:0:0:0:
192,192,111160,1,0,0:0:0:0:
448,192,111160,1,0,0:0:0:0:
64,192,111160,1,0,0:0:0:0:
64,192,111318,1,0,0:0:0:0:
448,192,111476,1,0,0:0:0:0:
192,192,111476,128,0,111634:0:0:0:0:
64,192,111634,1,0,0:0:0:0:
320,192,111792,128,0,111950:0:0:0:0:
448,192,111792,1,0,0:0:0:0:
192,192,111792,1,0,0:0:0:0:
64,192,111792,1,0,0:0:0:0:
64,192,111950,128,0,112108:0:0:0:0:
192,192,112108,128,0,112266:0:0:0:0:
448,192,112108,1,0,0:0:0:0:
320,192,112266,1,0,0:0:0:0:
320,192,112423,1,0,0:0:0:0:
192,192,112423,128,0,112581:0:0:0:0:
448,192,112423,1,0,0:0:0:0:
64,192,112423,1,0,0:0:0:0:
448,192,112581,1,0,0:0:0:0:
64,192,112581,128,0,112739:0:0:0:0:
448,192,112739,128,0,113055:0:0:0:0:
320,192,112739,1,0,0:0:0:0:
64,192,112897,1,0,0:0:0:0:
320,192,113055,1,0,0:0:0:0:
192,192,113055,128,0,113371:0:0:0:0:
64,192,113055,1,0,0:0:0:0:
448,192,113213,1,0,0:0:0:0:
320,192,113371,128,0,113687:0:0:0:0:
64,192,113371,1,0,0:0:0:0:
448,192,113529,1,0,0:0:0:0:
64,192,113687,1,0,0:0:0:0:
448,192,113687,128,0,114002:0:0:0:0:
192,192,113687,1,0,0:0:0:0:
320,192,113845,1,0,0:0:0:0:
64,192,114002,128,0,114476:0:0:0:0:
192,192,114002,1,0,0:0:0:0:
320,192,114160,1,0,0:0:0:0:
192,192,114318,1,0,0:0:0:0:
320,192,114318,1,0,0:0:0:0:
448,192,114318,1,0,0:0:0:0:
448,192,114476,128,0,114634:0:0:0:0:
320,192,114476,1,0,0:0:0:0:
192,192,114634,128,0,114792:0:0:0:0:
64,192,114634,1,0,0:0:0:0:
448,192,114792,1,0,0:0:0:0:
64,192,114950,1,0,0:0:0:0:
448,192,114950,128,0,115108:0:0:0:0:
320,192,114950,1,0,0:0:0:0:
192,192,114950,1,0,0:0:0:0:
192,192,115108,1,0,0:0:0:0:
192,192,115266,128,0,115423:0:0:0:0:
448,192,115266,1,0,0:0:0:0:
64,192,115423,1,0,0:0:0:0:
448,192,115581,128,0,115739:0:0:0:0:
64,192,115581,1,0,0:0:0:0:
320,192,115581,1,0,0:0:0:0:
192,192,115581,1,0,0:0:0:0:
64,192,115739,128,0,115897:0:0:0:0:
320,192,115739,1,0,0:0:0:0:
320,192,115897,128,0,116055:0:0:0:0:
448,192,115897,1,0,0:0:0:0:
192,192,116055,1,0,0:0:0:0:
64,192,116213,1,0,0:0:0:0:
192,192,116213,128,0,116371:0:0:0:0:
320,192,116213,1,0,0:0:0:0:
448,192,116213,1,0,0:0:0:0:
320,192,116371,1,0,0:0:0:0:
448,192,116529,128,0,116687:0:0:0:0:
64,192,116529,1,0,0:0:0:0:
320,192,116687,1,0,0:0:0:0:
320,192,116845,1,0,0:0:0:0:
192,192,116845,128,0,117002:0:0:0:0:
448,192,116845,1,0,0:0:0:0:
64,192,116845,1,0,0:0:0:0:
64,192,117002,1,0,0:0:0:0:
448,192,117002,128,0,117160:0:0:0:0:
320,192,117160,1,0,0:0:0:0:
192,192,117160,128,0,117318:0:0:0:0:
64,192,117318,1,0,0:0:0:0:
64,192,117476,1,0,0:0:0:0:
320,192,117476,1,0,0:0:0:0:
192,192,117476,128,0,117792:0:0:0:0:
448,192,117476,1,0,0:0:0:0:
448,192,117634,1,0,0:0:0:0:
64,192,117792,128,0,118423:0:0:0:0:
192,192,118108,128,0,118423:0:0:0:0:
320,192,118108,1,0,0:0:0:0:
448,192,118423,128,0,119055:0:0:0:0:
320,192,118739,128,0,119055:0:0:0:0:
192,192,118739,1,0,0:0:0:0:
