osu file format v14

[General]
AudioFilename: audio.mp3
AudioLeadIn: 0
PreviewTime: 70633
Countdown: 0
SampleSet: Normal
StackLeniency: 0.7
Mode: 1
LetterboxInBreaks: 0
WidescreenStoryboard: 1

[Editor]
Bookmarks: 31465,35807,45834,52939,55939,73149,77886,86886,113570,119096,124149,196930
DistanceSpacing: 2.6
BeatDivisor: 4
GridSize: 32
TimelineZoom: 1.799998

[Metadata]
Title:Finale (DM Dokuro Dual Mix)
TitleUnicode:Finale (DM Dokuro Dual Mix)
Artist:Toby Fox
ArtistUnicode:Toby Fox
Creator:Serial Dreemurr
Version:Kill or be Killed
Source:Undertale
Tags:Finale Dual Mix Omega Flowey
BeatmapID:1681802
BeatmapSetID:633147

[Difficulty]
HPDrainRate:6
CircleSize:2
OverallDifficulty:7
ApproachRate:10
SliderMultiplier:1.4
SliderTickRate:1

[Events]
//Background and Video events
0,0,"omega_flowey.png",0,0
//Break Periods
//Storyboard Layer 0 (Background)
//Storyboard Layer 1 (Fail)
//Storyboard Layer 2 (Pass)
//Storyboard Layer 3 (Foreground)
//Storyboard Sound Samples

[TimingPoints]
10002,315.789473684211,4,1,0,80,1,0
70949,-66.6666666666667,4,1,0,100,0,0
72528,-50,4,1,0,100,0,0
73306,-76.9230769230769,4,1,0,90,0,1
113491,-76.9230769230769,4,1,0,90,0,0
113580,-50,4,1,0,90,0,0
114517,-100,4,1,0,80,0,0
114833,-90.9090909090909,4,1,0,90,0,0
154317,-66.6666666666667,4,1,0,100,0,0
155886,-50,4,1,0,100,0,0
156844,-71.4285714285714,4,1,0,90,0,1
196938,-71.4285714285714,4,1,0,90,0,0

[HitObjects]
256,205,10001,5,4,0:0:0:0:
256,205,10317,1,0,0:0:0:0:
256,205,10475,1,8,0:0:0:0:
256,205,10633,1,8,0:0:0:0:
256,205,10949,1,0,0:0:0:0:
256,205,11265,1,8,0:0:0:0:
256,205,11580,1,0,0:0:0:0:
256,205,11738,1,8,0:0:0:0:
256,205,11896,1,0,0:0:0:0:
256,205,12212,1,0,0:0:0:0:
256,205,12528,1,4,0:0:0:0:
256,205,12844,1,0,0:0:0:0:
256,205,13002,1,0,0:0:0:0:
258,211,13159,1,8,0:0:0:0:
262,206,13475,1,8,0:0:0:0:
262,205,13791,1,0,0:0:0:0:
262,205,14107,1,8,0:0:0:0:
262,205,14423,1,0,0:0:0:0:
262,205,14738,1,0,0:0:0:0:
251,194,15054,1,4,0:0:0:0:
262,205,15370,1,0,0:0:0:0:
262,205,15528,1,8,0:0:0:0:
262,205,15686,1,8,0:0:0:0:
264,207,16002,1,0,0:0:0:0:
262,205,16317,1,8,0:0:0:0:
262,205,16633,1,0,0:0:0:0:
264,207,16791,1,8,0:0:0:0:
264,207,16949,1,0,0:0:0:0:
262,205,17265,1,8,0:0:0:0:
257,197,17580,1,4,0:0:0:0:
261,193,17896,1,0,0:0:0:0:
261,193,18054,1,0,0:0:0:0:
261,193,18212,1,8,0:0:0:0:
264,191,18528,1,8,0:0:0:0:
261,193,18844,1,0,0:0:0:0:
261,193,19159,1,8,0:0:0:0:
264,191,19475,1,0,0:0:0:0:
258,201,20107,1,4,0:0:0:0:
260,200,20423,1,0,0:0:0:0:
258,201,20580,1,8,0:0:0:0:
258,201,20738,1,8,0:0:0:0:
258,201,21054,1,0,0:0:0:0:
260,200,21370,1,8,0:0:0:0:
258,201,21686,1,0,0:0:0:0:
258,201,21844,1,8,0:0:0:0:
258,201,22002,1,0,0:0:0:0:
260,200,22317,1,8,0:0:0:0:
251,182,22633,1,4,0:0:0:0:
258,201,22949,1,0,0:0:0:0:
260,200,23107,1,0,0:0:0:0:
260,200,23265,1,8,0:0:0:0:
259,199,23580,1,8,0:0:0:0:
258,201,23896,1,0,0:0:0:0:
260,200,24212,1,8,0:0:0:0:
259,199,24528,1,8,0:0:0:0:
258,201,24844,1,0,0:0:0:0:
251,182,25159,1,4,0:0:0:0:
250,193,25475,1,0,0:0:0:0:
258,201,25633,1,8,0:0:0:0:
258,192,25791,1,8,0:0:0:0:
257,192,26107,1,0,0:0:0:0:
257,192,26423,1,8,0:0:0:0:
258,192,26738,1,0,0:0:0:0:
257,192,26896,1,8,0:0:0:0:
257,192,27054,1,0,0:0:0:0:
257,192,27370,1,0,0:0:0:0:
251,182,27686,1,4,0:0:0:0:
251,186,28002,1,0,0:0:0:0:
251,186,28159,1,0,0:0:0:0:
251,186,28317,1,8,0:0:0:0:
251,189,28633,1,8,0:0:0:0:
251,186,28949,1,0,0:0:0:0:
251,186,29265,1,8,0:0:0:0:
251,189,29580,1,0,0:0:0:0:
256,192,30212,12,4,31317,0:0:0:0:
262,199,31475,5,8,0:0:0:0:
262,199,31554,1,8,0:0:0:0:
262,199,31633,1,0,0:0:0:0:
262,199,31791,1,8,0:0:0:0:
262,199,31949,1,8,0:0:0:0:
262,199,32028,1,8,0:0:0:0:
262,199,32107,1,0,0:0:0:0:
269,196,32265,1,8,0:0:0:0:
269,196,32423,1,8,0:0:0:0:
262,199,32580,1,0,0:0:0:0:
262,199,32659,1,8,0:0:0:0:
262,199,32738,1,0,0:0:0:0:
271,197,32896,1,0,0:0:0:0:
262,199,33054,1,0,0:0:0:0:
262,199,33133,1,0,0:0:0:0:
262,201,33212,1,8,0:0:0:0:
264,201,33370,1,0,0:0:0:0:
262,199,33528,1,0,0:0:0:0:
262,199,33686,1,8,0:0:0:0:
260,201,33844,1,0,0:0:0:0:
262,199,34002,1,0,0:0:0:0:
262,199,34159,1,0,0:0:0:0:
264,201,34238,1,0,0:0:0:0:
264,201,34317,1,8,0:0:0:0:
264,201,34396,1,8,0:0:0:0:
269,200,34475,1,0,0:0:0:0:
262,199,34554,1,8,0:0:0:0:
262,199,34633,1,0,0:0:0:0:
260,201,34791,1,0,0:0:0:0:
262,199,34949,1,0,0:0:0:0:
253,201,35107,1,8,0:0:0:0:
253,201,35265,1,0,0:0:0:0:
256,194,35423,1,8,0:0:0:0:
256,192,35580,1,0,0:0:0:0:
256,192,35659,1,0,0:0:0:0:
256,192,35738,1,8,0:0:0:0:
256,192,35791,1,8,0:0:0:0:
256,192,35844,1,8,0:0:0:0:
256,192,35896,1,0,0:0:0:0:
262,192,36054,1,0,0:0:0:0:
251,187,36212,1,8,0:0:0:0:
251,187,36291,1,8,0:0:0:0:
251,187,36370,1,0,0:0:0:0:
251,187,36449,1,8,0:0:0:0:
256,192,36528,1,0,0:0:0:0:
256,192,36607,1,0,0:0:0:0:
256,192,36686,1,8,0:0:0:0:
256,192,36765,1,0,0:0:0:0:
256,192,36844,1,0,0:0:0:0:
256,192,36923,1,0,0:0:0:0:
251,187,37002,1,8,0:0:0:0:
251,187,37080,1,8,0:0:0:0:
251,187,37159,1,8,0:0:0:0:
251,187,37238,1,8,0:0:0:0:
251,187,37317,1,0,0:0:0:0:
251,187,37396,1,0,0:0:0:0:
251,187,37475,1,8,0:0:0:0:
256,192,37554,1,0,0:0:0:0:
256,192,37633,1,8,0:0:0:0:
256,192,37712,1,8,0:0:0:0:
256,192,37791,1,0,0:0:0:0:
258,185,37949,1,0,0:0:0:0:
258,192,38107,1,0,0:0:0:0:
258,192,38186,1,8,0:0:0:0:
258,192,38265,1,8,0:0:0:0:
264,186,38423,1,8,0:0:0:0:
256,192,38580,1,0,0:0:0:0:
256,192,38738,1,0,0:0:0:0:
258,185,38896,1,0,0:0:0:0:
258,185,38975,1,0,0:0:0:0:
258,183,39054,1,8,0:0:0:0:
258,192,39212,1,0,0:0:0:0:
258,196,39370,1,8,0:0:0:0:
258,196,39449,1,8,0:0:0:0:
256,192,39528,1,0,0:0:0:0:
256,192,39686,1,0,0:0:0:0:
257,192,39844,1,0,0:0:0:0:
260,197,40002,1,0,0:0:0:0:
258,192,40159,1,8,0:0:0:0:
258,196,40317,1,4,0:0:0:0:
258,196,40475,1,0,0:0:0:0:
256,192,40633,1,8,0:0:0:0:
256,192,40712,1,0,0:0:0:0:
254,193,40791,1,8,0:0:0:0:
254,193,40844,1,8,0:0:0:0:
254,193,40896,1,8,0:0:0:0:
254,193,40949,1,0,0:0:0:0:
264,203,41107,1,0,0:0:0:0:
258,196,41265,1,8,0:0:0:0:
258,196,41344,1,8,0:0:0:0:
258,196,41423,1,0,0:0:0:0:
258,196,41502,1,8,0:0:0:0:
262,198,41580,1,0,0:0:0:0:
262,197,41659,1,0,0:0:0:0:
262,197,41738,1,8,0:0:0:0:
254,193,41817,1,0,0:0:0:0:
254,193,41896,1,8,0:0:0:0:
254,193,41975,1,0,0:0:0:0:
255,194,42054,1,8,0:0:0:0:
255,194,42133,1,8,0:0:0:0:
258,196,42212,1,0,0:0:0:0:
256,196,42370,1,8,0:0:0:0:
256,196,42449,1,8,0:0:0:0:
256,196,42528,1,8,0:0:0:0:
256,196,42686,1,8,0:0:0:0:
253,196,42844,1,4,0:0:0:0:
254,193,43002,1,0,0:0:0:0:
262,198,43159,1,0,0:0:0:0:
258,196,43238,1,0,0:0:0:0:
256,196,43317,1,8,0:0:0:0:
256,196,43475,1,0,0:0:0:0:
256,196,43633,1,8,0:0:0:0:
253,196,43791,1,0,0:0:0:0:
253,196,43870,1,0,0:0:0:0:
254,193,43949,1,0,0:0:0:0:
254,193,44028,1,0,0:0:0:0:
254,191,44107,1,8,0:0:0:0:
258,196,44265,1,0,0:0:0:0:
256,196,44423,1,0,0:0:0:0:
256,196,44502,1,8,0:0:0:0:
256,196,44580,1,0,0:0:0:0:
261,201,44738,1,0,0:0:0:0:
261,201,44896,1,0,0:0:0:0:
264,196,45054,1,8,0:0:0:0:
263,196,45133,1,0,0:0:0:0:
258,196,45212,1,0,0:0:0:0:
262,200,45370,1,4,0:0:0:0:
256,192,45528,1,8,0:0:0:0:
261,201,45686,1,0,0:0:0:0:
261,201,45765,1,0,0:0:0:0:
261,201,45844,1,8,0:0:0:0:
261,201,45896,1,8,0:0:0:0:
264,196,45949,1,8,0:0:0:0:
264,196,46002,1,0,0:0:0:0:
263,196,46159,1,0,0:0:0:0:
262,200,46317,1,0,0:0:0:0:
262,200,46396,1,8,0:0:0:0:
261,201,46475,1,8,0:0:0:0:
261,201,46554,1,8,0:0:0:0:
261,201,46633,1,0,0:0:0:0:
261,201,46712,1,8,0:0:0:0:
261,201,46791,1,8,0:0:0:0:
261,201,46870,1,8,0:0:0:0:
264,196,46949,1,0,0:0:0:0:
256,192,47028,1,0,0:0:0:0:
256,192,47107,1,8,0:0:0:0:
256,192,47186,1,0,0:0:0:0:
256,192,47265,1,8,0:0:0:0:
256,192,47344,1,8,0:0:0:0:
256,192,47423,1,0,0:0:0:0:
256,192,47502,1,0,0:0:0:0:
256,192,47580,1,8,0:0:0:0:
256,192,47659,1,0,0:0:0:0:
256,192,47738,1,8,0:0:0:0:
256,192,47817,1,8,0:0:0:0:
256,192,47896,1,0,0:0:0:0:
256,192,48054,1,0,0:0:0:0:
256,192,48212,1,8,0:0:0:0:
256,192,48291,1,0,0:0:0:0:
256,192,48370,1,0,0:0:0:0:
256,192,48528,1,0,0:0:0:0:
256,192,48686,1,0,0:0:0:0:
256,192,48844,1,8,0:0:0:0:
256,192,49002,1,0,0:0:0:0:
256,192,49159,1,8,0:0:0:0:
256,192,49317,1,0,0:0:0:0:
256,192,49475,1,8,0:0:0:0:
256,192,49554,1,8,0:0:0:0:
256,192,49633,1,0,0:0:0:0:
256,192,49712,1,0,0:0:0:0:
256,192,49791,1,0,0:0:0:0:
256,192,49949,1,0,0:0:0:0:
256,192,50107,1,0,0:0:0:0:
256,192,50265,1,0,0:0:0:0:
256,192,50423,1,12,0:0:0:0:
256,192,50580,1,0,0:0:0:0:
256,192,50738,1,8,0:0:0:0:
256,192,50817,1,0,0:0:0:0:
256,192,50896,1,8,0:0:0:0:
256,192,50949,1,8,0:0:0:0:
256,192,51002,1,8,0:0:0:0:
256,192,51054,1,0,0:0:0:0:
256,192,51212,1,0,0:0:0:0:
256,192,51370,1,8,0:0:0:0:
256,192,51528,1,8,0:0:0:0:
256,192,51686,1,0,0:0:0:0:
256,192,51844,1,0,0:0:0:0:
256,192,52002,1,8,0:0:0:0:
256,192,52080,1,8,0:0:0:0:
256,192,52159,1,0,0:0:0:0:
256,192,52317,1,0,0:0:0:0:
256,192,52475,1,8,0:0:0:0:
256,192,52554,1,8,0:0:0:0:
256,192,52633,1,8,0:0:0:0:
256,192,52791,1,0,0:0:0:0:
256,192,52949,1,0,0:0:0:0:
256,192,53028,1,0,0:0:0:0:
256,192,53107,1,0,0:0:0:0:
256,192,53186,1,0,0:0:0:0:
256,192,53265,1,8,0:0:0:0:
256,192,53344,1,8,0:0:0:0:
256,192,53423,1,0,0:0:0:0:
256,192,53502,1,8,0:0:0:0:
256,192,53580,1,0,0:0:0:0:
256,192,53659,1,0,0:0:0:0:
256,192,53738,1,0,0:0:0:0:
256,192,53817,1,0,0:0:0:0:
256,192,53896,1,8,0:0:0:0:
256,192,53975,1,0,0:0:0:0:
256,192,54054,1,8,0:0:0:0:
256,192,54133,1,8,0:0:0:0:
256,192,54212,1,0,0:0:0:0:
256,192,54291,1,0,0:0:0:0:
256,192,54370,1,8,0:0:0:0:
256,192,54449,1,0,0:0:0:0:
256,192,54528,1,8,0:0:0:0:
256,192,54607,1,8,0:0:0:0:
256,192,54686,1,0,0:0:0:0:
256,192,54765,1,0,0:0:0:0:
256,192,54844,1,8,0:0:0:0:
256,192,54923,1,8,0:0:0:0:
256,192,55002,1,0,0:0:0:0:
256,192,55080,1,8,0:0:0:0:
256,192,55159,1,0,0:0:0:0:
256,192,55238,1,0,0:0:0:0:
256,192,55317,1,0,0:0:0:0:
256,192,55396,1,0,0:0:0:0:
256,192,55475,1,8,0:0:0:0:
256,192,55554,1,8,0:0:0:0:
256,192,55633,1,8,0:0:0:0:
256,192,55712,1,8,0:0:0:0:
256,192,55791,1,0,0:0:0:0:
256,192,55870,1,0,0:0:0:0:
256,192,55949,1,8,0:0:0:0:
256,192,56002,1,8,0:0:0:0:
256,192,56054,1,8,0:0:0:0:
256,192,56107,1,0,0:0:0:0:
256,192,56186,1,0,0:0:0:0:
256,192,56265,1,0,0:0:0:0:
256,192,56344,1,0,0:0:0:0:
256,192,56423,1,8,0:0:0:0:
256,192,56502,1,0,0:0:0:0:
256,192,56580,1,8,0:0:0:0:
256,192,56659,1,8,0:0:0:0:
256,192,56738,1,0,0:0:0:0:
256,192,56817,1,0,0:0:0:0:
256,192,56896,1,0,0:0:0:0:
256,192,56975,1,0,0:0:0:0:
256,192,57054,1,8,0:0:0:0:
256,192,57133,1,0,0:0:0:0:
256,192,57212,1,0,0:0:0:0:
256,192,57291,1,0,0:0:0:0:
256,192,57370,1,8,0:0:0:0:
256,192,57449,1,0,0:0:0:0:
256,192,57528,1,0,0:0:0:0:
256,192,57607,1,0,0:0:0:0:
256,192,57686,1,8,0:0:0:0:
256,192,57765,1,8,0:0:0:0:
256,192,57844,1,0,0:0:0:0:
256,192,57923,1,0,0:0:0:0:
256,192,58002,1,8,0:0:0:0:
256,192,58080,1,0,0:0:0:0:
256,192,58159,1,0,0:0:0:0:
256,192,58238,1,0,0:0:0:0:
256,192,58317,1,8,0:0:0:0:
256,192,58396,1,8,0:0:0:0:
256,192,58475,1,0,0:0:0:0:
256,192,58554,1,0,0:0:0:0:
256,192,58633,1,8,0:0:0:0:
256,192,58712,1,0,0:0:0:0:
256,192,58791,1,8,0:0:0:0:
256,192,58870,1,8,0:0:0:0:
256,192,58949,1,0,0:0:0:0:
256,192,59028,1,0,0:0:0:0:
256,192,59107,1,0,0:0:0:0:
256,192,59186,1,0,0:0:0:0:
256,192,59265,1,8,0:0:0:0:
256,192,59344,1,8,0:0:0:0:
256,192,59423,1,0,0:0:0:0:
256,192,59502,1,0,0:0:0:0:
256,192,59580,1,8,0:0:0:0:
256,192,59659,1,0,0:0:0:0:
256,192,59738,1,8,0:0:0:0:
256,192,59817,1,8,0:0:0:0:
256,192,59896,1,0,0:0:0:0:
256,192,59975,1,0,0:0:0:0:
256,192,60054,1,0,0:0:0:0:
256,192,60133,1,0,0:0:0:0:
256,192,60212,1,8,0:0:0:0:
256,192,60291,1,8,0:0:0:0:
256,192,60370,1,0,0:0:0:0:
256,192,60449,1,8,0:0:0:0:
256,192,60528,1,0,0:0:0:0:
256,192,60607,1,8,0:0:0:0:
256,192,60686,1,0,0:0:0:0:
256,192,60765,1,8,0:0:0:0:
256,192,60844,1,0,0:0:0:0:
256,192,60923,1,0,0:0:0:0:
256,192,61002,1,8,0:0:0:0:
256,192,61054,1,8,0:0:0:0:
256,192,61107,1,8,0:0:0:0:
256,192,61159,1,0,0:0:0:0:
256,192,61238,1,0,0:0:0:0:
256,192,61317,1,0,0:0:0:0:
256,192,61396,1,0,0:0:0:0:
256,192,61475,1,8,0:0:0:0:
256,192,61554,1,0,0:0:0:0:
256,192,61633,1,0,0:0:0:0:
256,192,61712,1,0,0:0:0:0:
256,192,61791,1,8,0:0:0:0:
256,192,61870,1,0,0:0:0:0:
256,192,61949,1,0,0:0:0:0:
256,192,62028,1,8,0:0:0:0:
256,192,62107,1,0,0:0:0:0:
256,192,62186,1,0,0:0:0:0:
256,192,62265,1,8,0:0:0:0:
256,192,62344,1,0,0:0:0:0:
256,192,62423,1,0,0:0:0:0:
256,192,62502,1,8,0:0:0:0:
256,192,62580,1,0,0:0:0:0:
256,192,62659,5,0,0:0:0:0:
256,192,62738,1,8,0:0:0:0:
256,192,63054,1,0,0:0:0:0:
256,192,63133,1,0,0:0:0:0:
256,192,63212,1,0,0:0:0:0:
256,192,63291,1,0,0:0:0:0:
256,192,63370,1,8,0:0:0:0:
256,192,63449,1,0,0:0:0:0:
256,192,63528,1,0,0:0:0:0:
256,192,63607,1,0,0:0:0:0:
256,192,63686,1,8,0:0:0:0:
256,192,63765,1,0,0:0:0:0:
256,192,63844,1,0,0:0:0:0:
256,192,63923,1,0,0:0:0:0:
256,192,64002,1,8,0:0:0:0:
256,192,64080,1,8,0:0:0:0:
256,192,64159,1,0,0:0:0:0:
256,192,64238,1,0,0:0:0:0:
256,192,64317,1,8,0:0:0:0:
256,192,64396,1,8,0:0:0:0:
256,192,64475,1,8,0:0:0:0:
256,192,64554,1,8,0:0:0:0:
256,192,64633,1,0,0:0:0:0:
256,192,64712,1,8,0:0:0:0:
256,192,64791,1,0,0:0:0:0:
256,192,64870,1,8,0:0:0:0:
256,192,64949,1,0,0:0:0:0:
256,192,65028,1,0,0:0:0:0:
256,192,65107,1,0,0:0:0:0:
256,192,65186,1,0,0:0:0:0:
256,192,65265,1,8,0:0:0:0:
256,192,65344,1,0,0:0:0:0:
256,192,65423,1,8,0:0:0:0:
256,192,65502,1,8,0:0:0:0:
256,192,65580,1,0,0:0:0:0:
256,192,65659,1,0,0:0:0:0:
256,192,65738,1,8,0:0:0:0:
256,192,65817,1,0,0:0:0:0:
256,192,65896,1,0,0:0:0:0:
256,192,65975,1,0,0:0:0:0:
256,192,66054,1,8,0:0:0:0:
256,192,66107,1,8,0:0:0:0:
256,192,66159,1,8,0:0:0:0:
256,192,66212,1,0,0:0:0:0:
256,192,66291,1,0,0:0:0:0:
256,192,66370,1,0,0:0:0:0:
256,192,66449,1,0,0:0:0:0:
256,192,66528,1,8,0:0:0:0:
256,192,66607,1,0,0:0:0:0:
256,192,66686,1,8,0:0:0:0:
256,192,66765,1,8,0:0:0:0:
256,192,66844,1,0,0:0:0:0:
256,192,66923,1,0,0:0:0:0:
256,192,67002,1,8,0:0:0:0:
256,192,67080,1,0,0:0:0:0:
256,192,67159,1,8,0:0:0:0:
256,192,67238,1,8,0:0:0:0:
256,192,67317,1,0,0:0:0:0:
256,192,67396,1,0,0:0:0:0:
256,192,67475,1,0,0:0:0:0:
256,192,67554,1,0,0:0:0:0:
256,192,67633,1,8,0:0:0:0:
256,192,67712,1,8,0:0:0:0:
256,192,67791,1,8,0:0:0:0:
256,192,67870,1,8,0:0:0:0:
256,192,67949,1,0,0:0:0:0:
256,192,68028,1,0,0:0:0:0:
256,192,68107,1,8,0:0:0:0:
256,192,68186,1,0,0:0:0:0:
256,192,68265,1,8,0:0:0:0:
256,192,68344,1,8,0:0:0:0:
256,192,68423,1,0,0:0:0:0:
256,192,68502,1,0,0:0:0:0:
256,192,68580,1,0,0:0:0:0:
256,192,68659,1,0,0:0:0:0:
256,192,68738,1,8,0:0:0:0:
256,192,68817,1,0,0:0:0:0:
256,192,68896,1,8,0:0:0:0:
256,192,68975,1,8,0:0:0:0:
256,192,69054,1,0,0:0:0:0:
256,192,69133,1,0,0:0:0:0:
256,192,69212,1,0,0:0:0:0:
256,192,69291,1,0,0:0:0:0:
256,192,69370,1,8,0:0:0:0:
256,192,69449,1,8,0:0:0:0:
256,192,69528,1,0,0:0:0:0:
256,192,69607,1,8,0:0:0:0:
256,192,69686,1,0,0:0:0:0:
256,192,69765,1,0,0:0:0:0:
256,192,69844,1,0,0:0:0:0:
256,192,69923,1,0,0:0:0:0:
256,192,70002,1,8,0:0:0:0:
256,192,70080,1,0,0:0:0:0:
256,192,70159,1,8,0:0:0:0:
256,192,70238,1,8,0:0:0:0:
256,192,70317,5,0,0:0:0:0:
256,192,70396,1,0,0:0:0:0:
256,192,70475,1,8,0:0:0:0:
256,192,70554,1,8,0:0:0:0:
256,192,70633,1,0,0:0:0:0:
256,192,70949,1,4,0:0:0:0:
256,192,71107,1,12,0:0:0:0:
256,192,71265,1,12,0:0:0:0:
256,192,71580,1,4,0:0:0:0:
256,192,71896,1,12,0:0:0:0:
256,192,72528,1,4,0:0:0:0:
256,192,72686,1,4,0:0:0:0:
256,192,72844,1,4,0:0:0:0:
256,192,73002,1,4,0:0:0:0:
256,192,73159,1,4,0:0:0:0:
256,192,73475,1,0,0:0:0:0:
256,192,73554,1,0,0:0:0:0:
256,192,73633,1,8,0:0:0:0:
256,192,73791,1,8,0:0:0:0:
256,192,73949,1,0,0:0:0:0:
256,192,74107,1,0,0:0:0:0:
256,192,74265,1,8,0:0:0:0:
256,192,74423,1,8,0:0:0:0:
256,192,74502,1,0,0:0:0:0:
256,192,74580,1,0,0:0:0:0:
256,192,74738,1,0,0:0:0:0:
256,192,74817,1,0,0:0:0:0:
256,192,74896,1,8,0:0:0:0:
256,192,74975,1,8,0:0:0:0:
256,192,75054,1,0,0:0:0:0:
256,192,75133,1,8,0:0:0:0:
256,192,75212,1,0,0:0:0:0:
256,192,75370,1,0,0:0:0:0:
256,192,75528,1,8,0:0:0:0:
256,192,75686,1,0,0:0:0:0:
256,192,75844,1,0,0:0:0:0:
256,192,75923,1,0,0:0:0:0:
256,192,76002,1,0,0:0:0:0:
256,192,76159,1,8,0:0:0:0:
256,192,76317,1,8,0:0:0:0:
256,192,76475,1,0,0:0:0:0:
256,192,76633,1,0,0:0:0:0:
256,192,76712,1,0,0:0:0:0:
256,192,76791,1,8,0:0:0:0:
256,192,76870,1,8,0:0:0:0:
256,192,76949,1,8,0:0:0:0:
256,192,77028,1,8,0:0:0:0:
256,192,77107,1,0,0:0:0:0:
256,192,77186,1,0,0:0:0:0:
256,192,77265,1,8,0:0:0:0:
256,192,77344,1,0,0:0:0:0:
256,192,77423,1,8,0:0:0:0:
256,192,77502,1,8,0:0:0:0:
256,192,77580,1,0,0:0:0:0:
256,192,77659,1,0,0:0:0:0:
256,192,77738,1,0,0:0:0:0:
256,192,77817,1,0,0:0:0:0:
256,192,77896,1,8,0:0:0:0:
256,192,77975,1,8,0:0:0:0:
256,192,78054,1,0,0:0:0:0:
256,192,78133,1,0,0:0:0:0:
256,192,78212,1,8,0:0:0:0:
256,192,78370,1,0,0:0:0:0:
256,192,78528,1,8,0:0:0:0:
256,192,78686,1,8,0:0:0:0:
256,192,78765,1,0,0:0:0:0:
256,192,78844,1,8,0:0:0:0:
256,192,79002,1,0,0:0:0:0:
256,192,79159,1,8,0:0:0:0:
256,192,79317,1,0,0:0:0:0:
256,192,79475,1,0,0:0:0:0:
256,192,79554,1,0,0:0:0:0:
256,192,79633,1,8,0:0:0:0:
256,192,79791,1,0,0:0:0:0:
256,192,79949,1,8,0:0:0:0:
256,192,80028,1,8,0:0:0:0:
256,192,80107,1,0,0:0:0:0:
256,192,80265,1,0,0:0:0:0:
256,192,80423,1,0,0:0:0:0:
256,192,80580,1,8,0:0:0:0:
256,192,80659,1,8,0:0:0:0:
256,192,80738,1,0,0:0:0:0:
256,192,80896,1,8,0:0:0:0:
256,192,81054,1,0,0:0:0:0:
256,192,81133,1,0,0:0:0:0:
256,192,81212,1,8,0:0:0:0:
256,192,81370,1,0,0:0:0:0:
256,192,81528,1,8,0:0:0:0:
256,192,81686,1,0,0:0:0:0:
256,192,81844,1,0,0:0:0:0:
256,192,82002,1,0,0:0:0:0:
256,192,82080,1,0,0:0:0:0:
256,192,82159,1,0,0:0:0:0:
256,192,82238,1,0,0:0:0:0:
256,192,82317,1,0,0:0:0:0:
256,192,82396,1,0,0:0:0:0:
256,192,82475,1,0,0:0:0:0:
256,192,82554,1,0,0:0:0:0:
256,192,82633,1,8,0:0:0:0:
256,192,82712,1,8,0:0:0:0:
256,192,82791,1,8,0:0:0:0:
256,192,82870,1,8,0:0:0:0:
256,192,82949,1,8,0:0:0:0:
256,192,83028,1,8,0:0:0:0:
256,192,83107,1,8,0:0:0:0:
256,192,83186,1,8,0:0:0:0:
256,192,83265,1,0,0:0:0:0:
256,192,83423,1,0,0:0:0:0:
256,192,83580,1,0,0:0:0:0:
256,192,83659,1,0,0:0:0:0:
256,192,83738,1,8,0:0:0:0:
256,192,83896,1,8,0:0:0:0:
256,192,84054,1,0,0:0:0:0:
256,192,84212,1,0,0:0:0:0:
256,192,84370,1,8,0:0:0:0:
256,192,84528,1,0,0:0:0:0:
256,192,84686,1,8,0:0:0:0:
256,192,84844,1,0,0:0:0:0:
256,192,84923,1,0,0:0:0:0:
256,192,85002,1,8,0:0:0:0:
256,192,85080,1,0,0:0:0:0:
256,192,85159,1,8,0:0:0:0:
256,192,85238,1,8,0:0:0:0:
256,192,85317,1,0,0:0:0:0:
256,192,85396,1,8,0:0:0:0:
256,192,85475,1,0,0:0:0:0:
256,192,85633,1,0,0:0:0:0:
256,192,85791,1,8,0:0:0:0:
256,192,85870,1,0,0:0:0:0:
256,192,85949,1,0,0:0:0:0:
256,192,86107,1,0,0:0:0:0:
256,192,86265,1,0,0:0:0:0:
256,192,86344,1,8,0:0:0:0:
256,192,86423,1,8,0:0:0:0:
256,192,86580,1,8,0:0:0:0:
256,192,86738,1,0,0:0:0:0:
256,192,86896,1,0,0:0:0:0:
256,192,86975,1,8,0:0:0:0:
256,192,87054,1,0,0:0:0:0:
256,192,87133,1,0,0:0:0:0:
256,192,87212,1,8,0:0:0:0:
256,192,87291,1,8,0:0:0:0:
256,192,87370,1,0,0:0:0:0:
256,192,87449,1,0,0:0:0:0:
256,192,87528,1,8,0:0:0:0:
256,192,87607,1,0,0:0:0:0:
256,192,87686,1,8,0:0:0:0:
256,192,87765,1,8,0:0:0:0:
256,192,87844,1,8,0:0:0:0:
256,192,87923,1,8,0:0:0:0:
256,192,88002,1,0,0:0:0:0:
256,192,88080,1,0,0:0:0:0:
256,192,88159,1,0,0:0:0:0:
256,192,88238,1,0,0:0:0:0:
256,192,88317,1,8,0:0:0:0:
256,192,88475,1,0,0:0:0:0:
256,192,88633,1,0,0:0:0:0:
256,192,88712,1,0,0:0:0:0:
256,192,88791,1,8,0:0:0:0:
256,192,88870,1,0,0:0:0:0:
256,192,88949,1,8,0:0:0:0:
256,192,89107,1,0,0:0:0:0:
256,192,89265,1,0,0:0:0:0:
256,192,89344,1,0,0:0:0:0:
256,192,89423,1,0,0:0:0:0:
256,192,89580,1,8,0:0:0:0:
256,192,89738,1,0,0:0:0:0:
256,192,89817,1,0,0:0:0:0:
256,192,89896,1,8,0:0:0:0:
256,192,89975,1,8,0:0:0:0:
256,192,90054,1,0,0:0:0:0:
256,192,90212,1,0,0:0:0:0:
256,192,90370,1,0,0:0:0:0:
256,192,90528,1,8,0:0:0:0:
256,192,90686,1,0,0:0:0:0:
256,192,90765,1,0,0:0:0:0:
256,192,90844,1,8,0:0:0:0:
256,192,91002,1,0,0:0:0:0:
256,192,91159,1,8,0:0:0:0:
256,192,91317,1,8,0:0:0:0:
256,192,91396,1,8,0:0:0:0:
256,192,91475,1,0,0:0:0:0:
256,192,91633,1,0,0:0:0:0:
256,192,91791,1,8,0:0:0:0:
256,192,91949,1,0,0:0:0:0:
256,192,92107,1,0,0:0:0:0:
256,192,92186,1,0,0:0:0:0:
256,192,92265,1,8,0:0:0:0:
256,192,92344,1,0,0:0:0:0:
256,192,92423,1,0,0:0:0:0:
256,192,92502,1,0,0:0:0:0:
256,192,92580,1,0,0:0:0:0:
256,192,92659,1,0,0:0:0:0:
256,192,92738,1,8,0:0:0:0:
256,192,92817,1,8,0:0:0:0:
256,192,92896,1,8,0:0:0:0:
256,192,92975,1,8,0:0:0:0:
256,192,93054,1,8,0:0:0:0:
256,192,93133,1,8,0:0:0:0:
256,192,93212,1,8,0:0:0:0:
256,192,93291,1,8,0:0:0:0:
256,192,93370,1,0,0:0:0:0:
256,192,93528,1,0,0:0:0:0:
256,192,93686,1,0,0:0:0:0:
256,192,93765,1,0,0:0:0:0:
256,192,93844,1,8,0:0:0:0:
256,192,94002,1,8,0:0:0:0:
256,192,94159,1,0,0:0:0:0:
256,192,94317,1,0,0:0:0:0:
256,192,94396,1,0,0:0:0:0:
256,192,94475,1,0,0:0:0:0:
256,192,94633,1,0,0:0:0:0:
256,192,94712,1,8,0:0:0:0:
256,192,94791,1,0,0:0:0:0:
256,192,94870,1,0,0:0:0:0:
256,192,94949,1,8,0:0:0:0:
256,192,95028,1,0,0:0:0:0:
256,192,95107,1,8,0:0:0:0:
256,192,95186,1,8,0:0:0:0:
256,192,95265,1,0,0:0:0:0:
256,192,95344,1,0,0:0:0:0:
256,192,95423,1,8,0:0:0:0:
256,192,95502,1,0,0:0:0:0:
256,192,95580,1,0,0:0:0:0:
256,192,95738,1,0,0:0:0:0:
256,192,95817,1,0,0:0:0:0:
256,192,95896,1,8,0:0:0:0:
256,192,96054,1,0,0:0:0:0:
256,192,96212,1,8,0:0:0:0:
256,192,96370,1,0,0:0:0:0:
256,192,96528,1,8,0:0:0:0:
256,192,96686,1,0,0:0:0:0:
256,192,96844,1,0,0:0:0:0:
256,192,96923,1,0,0:0:0:0:
256,192,97002,1,8,0:0:0:0:
256,192,97080,1,8,0:0:0:0:
256,192,97159,1,0,0:0:0:0:
256,192,97238,1,8,0:0:0:0:
256,192,97317,1,0,0:0:0:0:
256,192,97396,1,0,0:0:0:0:
256,192,97475,1,8,0:0:0:0:
256,192,97554,1,0,0:0:0:0:
256,192,97633,1,8,0:0:0:0:
256,192,97712,1,8,0:0:0:0:
256,192,97791,1,0,0:0:0:0:
256,192,97870,1,0,0:0:0:0:
256,192,97949,1,0,0:0:0:0:
256,192,98028,1,0,0:0:0:0:
256,192,98107,1,8,0:0:0:0:
256,192,98186,1,0,0:0:0:0:
256,192,98265,1,8,0:0:0:0:
256,192,98344,1,8,0:0:0:0:
256,192,98423,1,8,0:0:0:0:
256,192,98580,1,0,0:0:0:0:
256,192,98738,1,8,0:0:0:0:
256,192,98817,1,0,0:0:0:0:
256,192,98896,1,0,0:0:0:0:
256,192,99054,1,8,0:0:0:0:
256,192,99212,1,0,0:0:0:0:
256,192,99370,1,0,0:0:0:0:
256,192,99528,1,8,0:0:0:0:
256,192,99686,1,0,0:0:0:0:
256,192,99765,1,8,0:0:0:0:
256,192,99844,1,8,0:0:0:0:
256,192,100002,1,0,0:0:0:0:
256,192,100159,1,8,0:0:0:0:
256,192,100238,1,0,0:0:0:0:
256,192,100317,1,0,0:0:0:0:
256,192,100475,1,8,0:0:0:0:
256,192,100633,1,0,0:0:0:0:
256,192,100791,1,0,0:0:0:0:
256,192,100949,1,8,0:0:0:0:
256,192,101028,1,0,0:0:0:0:
256,192,101107,1,8,0:0:0:0:
256,192,101186,1,8,0:0:0:0:
256,192,101265,1,0,0:0:0:0:
256,192,101344,1,0,0:0:0:0:
256,192,101423,1,8,0:0:0:0:
256,192,101502,1,8,0:0:0:0:
256,192,101580,1,0,0:0:0:0:
256,192,101659,1,8,0:0:0:0:
256,192,101738,1,0,0:0:0:0:
256,192,101817,1,0,0:0:0:0:
256,192,101896,1,8,0:0:0:0:
256,192,101975,1,0,0:0:0:0:
256,192,102054,1,8,0:0:0:0:
256,192,102133,1,8,0:0:0:0:
256,192,102212,1,0,0:0:0:0:
256,192,102291,1,0,0:0:0:0:
256,192,102370,1,0,0:0:0:0:
256,192,102449,1,0,0:0:0:0:
256,192,102528,1,0,0:0:0:0:
256,192,102607,1,0,0:0:0:0:
256,192,102686,1,0,0:0:0:0:
256,192,102765,1,0,0:0:0:0:
256,192,102844,1,8,0:0:0:0:
256,192,102923,1,8,0:0:0:0:
256,192,103002,1,8,0:0:0:0:
256,192,103080,1,8,0:0:0:0:
256,192,103159,1,8,0:0:0:0:
256,192,103238,1,8,0:0:0:0:
256,192,103317,1,8,0:0:0:0:
256,192,103396,1,8,0:0:0:0:
256,192,103475,1,0,0:0:0:0:
256,192,103633,1,0,0:0:0:0:
256,192,103791,1,0,0:0:0:0:
256,192,103870,1,0,0:0:0:0:
256,192,103949,1,8,0:0:0:0:
256,192,104107,1,8,0:0:0:0:
256,192,104265,1,0,0:0:0:0:
256,192,104423,1,0,0:0:0:0:
256,192,104580,1,8,0:0:0:0:
256,192,104738,1,8,0:0:0:0:
256,192,104817,1,0,0:0:0:0:
256,192,104896,1,8,0:0:0:0:
256,192,104975,1,8,0:0:0:0:
256,192,105054,1,0,0:0:0:0:
256,192,105133,1,0,0:0:0:0:
256,192,105212,1,8,0:0:0:0:
256,192,105291,1,0,0:0:0:0:
256,192,105370,1,8,0:0:0:0:
256,192,105449,1,8,0:0:0:0:
256,192,105528,1,0,0:0:0:0:
256,192,105607,1,0,0:0:0:0:
256,192,105686,1,0,0:0:0:0:
256,192,105844,1,0,0:0:0:0:
256,192,106002,1,0,0:0:0:0:
256,192,106159,1,0,0:0:0:0:
256,192,106238,1,0,0:0:0:0:
256,192,106317,1,8,0:0:0:0:
256,192,106475,1,0,0:0:0:0:
256,192,106633,1,8,0:0:0:0:
256,192,106791,1,0,0:0:0:0:
256,192,106949,1,0,0:0:0:0:
256,192,107107,1,8,0:0:0:0:
256,192,107186,1,8,0:0:0:0:
256,192,107265,1,0,0:0:0:0:
256,192,107344,1,8,0:0:0:0:
256,192,107423,1,0,0:0:0:0:
256,192,107502,1,0,0:0:0:0:
256,192,107580,1,8,0:0:0:0:
256,192,107659,1,0,0:0:0:0:
256,192,107738,1,8,0:0:0:0:
256,192,107817,1,8,0:0:0:0:
256,192,107896,1,0,0:0:0:0:
256,192,107975,1,0,0:0:0:0:
256,192,108054,1,8,0:0:0:0:
256,192,108133,1,8,0:0:0:0:
256,192,108212,1,0,0:0:0:0:
256,192,108291,1,8,0:0:0:0:
256,192,108370,1,0,0:0:0:0:
256,192,108449,1,0,0:0:0:0:
256,192,108528,1,8,0:0:0:0:
287,196,108686,1,8,0:0:0:0:
256,192,108844,1,8,0:0:0:0:
256,192,108923,1,0,0:0:0:0:
256,192,109002,1,0,0:0:0:0:
256,192,109159,1,8,0:0:0:0:
256,192,109317,1,0,0:0:0:0:
256,192,109475,1,0,0:0:0:0:
256,192,109633,1,8,0:0:0:0:
256,192,109791,1,0,0:0:0:0:
256,192,109870,1,0,0:0:0:0:
256,192,109949,1,0,0:0:0:0:
256,192,110107,1,0,0:0:0:0:
256,192,110265,1,0,0:0:0:0:
256,192,110344,1,8,0:0:0:0:
256,192,110423,1,0,0:0:0:0:
256,192,110502,1,0,0:0:0:0:
256,192,110580,1,8,0:0:0:0:
256,192,110659,1,8,0:0:0:0:
256,192,110738,1,0,0:0:0:0:
256,192,110817,1,0,0:0:0:0:
256,192,110896,1,8,0:0:0:0:
256,192,110975,1,0,0:0:0:0:
256,192,111054,1,8,0:0:0:0:
256,192,111133,1,0,0:0:0:0:
256,192,111212,1,8,0:0:0:0:
256,192,111291,1,0,0:0:0:0:
256,192,111370,1,8,0:0:0:0:
256,192,111449,1,8,0:0:0:0:
256,192,111528,1,0,0:0:0:0:
256,192,111607,1,8,0:0:0:0:
256,192,111686,1,0,0:0:0:0:
256,192,111765,1,0,0:0:0:0:
256,192,111844,1,8,0:0:0:0:
256,192,111923,1,0,0:0:0:0:
256,192,112002,1,8,0:0:0:0:
256,192,112080,1,8,0:0:0:0:
256,192,112159,1,0,0:0:0:0:
256,192,112238,1,8,0:0:0:0:
256,192,112317,1,0,0:0:0:0:
256,192,112396,1,0,0:0:0:0:
256,192,112475,1,0,0:0:0:0:
256,192,112554,1,0,0:0:0:0:
256,192,112633,1,0,0:0:0:0:
256,192,112712,1,0,0:0:0:0:
256,192,112791,1,0,0:0:0:0:
256,192,112870,1,0,0:0:0:0:
256,192,112949,1,8,0:0:0:0:
256,192,113028,1,8,0:0:0:0:
256,192,113107,1,8,0:0:0:0:
256,192,113186,1,8,0:0:0:0:
256,192,113265,1,8,0:0:0:0:
256,192,113344,1,8,0:0:0:0:
256,192,113423,1,8,0:0:0:0:
256,192,113502,1,8,0:0:0:0:
256,192,113580,12,0,114686,0:0:0:0:
258,196,114844,5,8,0:0:0:0:
258,196,114922,1,8,0:0:0:0:
258,196,115002,1,0,0:0:0:0:
258,196,115159,1,8,0:0:0:0:
258,196,115317,1,8,0:0:0:0:
258,196,115396,1,8,0:0:0:0:
258,196,115475,1,0,0:0:0:0:
258,196,115633,1,8,0:0:0:0:
258,196,115791,1,8,0:0:0:0:
258,196,115949,1,0,0:0:0:0:
258,196,116028,1,8,0:0:0:0:
258,196,116107,1,0,0:0:0:0:
258,196,116265,1,0,0:0:0:0:
258,196,116423,1,0,0:0:0:0:
258,196,116502,1,0,0:0:0:0:
258,196,116580,1,8,0:0:0:0:
258,196,116738,1,8,0:0:0:0:
258,196,116896,1,8,0:0:0:0:
258,196,117054,1,0,0:0:0:0:
258,196,117212,1,0,0:0:0:0:
258,196,117291,1,0,0:0:0:0:
258,196,117370,1,0,0:0:0:0:
258,196,117528,1,0,0:0:0:0:
258,196,117686,1,0,0:0:0:0:
258,196,117765,1,0,0:0:0:0:
258,196,117844,1,8,0:0:0:0:
258,196,117923,1,8,0:0:0:0:
258,196,118002,1,0,0:0:0:0:
258,196,118159,1,0,0:0:0:0:
258,196,118317,1,0,0:0:0:0:
258,196,118475,1,8,0:0:0:0:
258,196,118633,1,0,0:0:0:0:
258,196,118791,1,0,0:0:0:0:
258,196,118870,1,0,0:0:0:0:
258,196,118949,1,8,0:0:0:0:
258,196,119028,1,0,0:0:0:0:
258,196,119107,1,8,0:0:0:0:
258,196,119159,1,8,0:0:0:0:
258,196,119212,1,8,0:0:0:0:
258,196,119265,1,0,0:0:0:0:
258,196,119423,1,8,0:0:0:0:
258,196,119580,1,0,0:0:0:0:
258,196,119659,1,0,0:0:0:0:
258,196,119738,1,8,0:0:0:0:
258,196,119817,1,0,0:0:0:0:
258,196,119896,1,8,0:0:0:0:
258,196,119975,1,8,0:0:0:0:
258,196,120054,1,0,0:0:0:0:
258,196,120133,1,0,0:0:0:0:
258,196,120212,1,8,0:0:0:0:
258,196,120291,1,8,0:0:0:0:
258,196,120370,1,0,0:0:0:0:
258,196,120449,1,0,0:0:0:0:
258,196,120528,1,8,0:0:0:0:
258,196,120607,1,0,0:0:0:0:
258,196,120686,1,8,0:0:0:0:
258,196,120765,1,8,0:0:0:0:
258,196,120844,1,0,0:0:0:0:
258,196,120923,1,0,0:0:0:0:
258,196,121002,1,8,0:0:0:0:
258,196,121080,1,0,0:0:0:0:
258,196,121159,1,0,0:0:0:0:
258,196,121317,1,8,0:0:0:0:
258,196,121475,1,0,0:0:0:0:
258,196,121554,1,0,0:0:0:0:
258,196,121633,1,8,0:0:0:0:
258,196,121791,1,8,0:0:0:0:
258,196,121949,1,0,0:0:0:0:
258,196,122107,1,8,0:0:0:0:
258,196,122265,1,0,0:0:0:0:
258,196,122344,1,8,0:0:0:0:
258,196,122423,1,8,0:0:0:0:
258,196,122580,1,0,0:0:0:0:
258,196,122738,1,8,0:0:0:0:
258,196,122817,1,8,0:0:0:0:
258,196,122896,1,0,0:0:0:0:
258,196,123054,1,0,0:0:0:0:
258,196,123212,1,8,0:0:0:0:
258,196,123370,1,0,0:0:0:0:
258,196,123528,1,8,0:0:0:0:
258,196,123686,1,0,0:0:0:0:
258,196,123844,1,0,0:0:0:0:
258,196,124002,1,8,0:0:0:0:
258,196,124080,1,0,0:0:0:0:
258,196,124159,1,8,0:0:0:0:
258,196,124212,1,8,0:0:0:0:
258,196,124265,1,8,0:0:0:0:
258,196,124317,1,0,0:0:0:0:
258,196,124475,1,0,0:0:0:0:
258,196,124633,1,8,0:0:0:0:
258,196,124712,1,0,0:0:0:0:
258,196,124791,1,8,0:0:0:0:
258,196,124870,1,8,0:0:0:0:
258,196,124949,1,0,0:0:0:0:
258,196,125028,1,0,0:0:0:0:
258,196,125107,1,8,0:0:0:0:
258,196,125186,1,0,0:0:0:0:
258,196,125265,1,8,0:0:0:0:
258,196,125344,1,8,0:0:0:0:
258,196,125423,1,0,0:0:0:0:
258,196,125502,1,0,0:0:0:0:
258,196,125580,1,8,0:0:0:0:
258,196,125659,1,0,0:0:0:0:
258,196,125738,1,8,0:0:0:0:
258,196,125817,1,0,0:0:0:0:
258,196,125896,1,8,0:0:0:0:
258,196,125975,1,0,0:0:0:0:
258,196,126054,1,8,0:0:0:0:
258,196,126133,1,8,0:0:0:0:
258,196,126212,1,0,0:0:0:0:
258,196,126370,1,0,0:0:0:0:
258,196,126528,1,0,0:0:0:0:
258,196,126607,1,0,0:0:0:0:
258,196,126686,1,8,0:0:0:0:
258,196,126844,1,8,0:0:0:0:
258,196,127002,1,0,0:0:0:0:
258,196,127159,1,8,0:0:0:0:
258,196,127238,1,0,0:0:0:0:
258,196,127317,1,0,0:0:0:0:
258,196,127475,1,8,0:0:0:0:
258,196,127633,1,0,0:0:0:0:
258,196,127791,1,0,0:0:0:0:
258,196,127870,1,0,0:0:0:0:
258,196,127949,1,8,0:0:0:0:
258,196,128028,1,8,0:0:0:0:
258,196,128107,1,0,0:0:0:0:
258,196,128265,1,0,0:0:0:0:
258,196,128423,1,0,0:0:0:0:
258,196,128580,1,8,0:0:0:0:
258,196,128738,1,0,0:0:0:0:
258,196,128896,1,8,0:0:0:0:
258,196,129054,1,0,0:0:0:0:
258,196,129133,1,0,0:0:0:0:
258,196,129212,1,8,0:0:0:0:
258,196,129265,1,8,0:0:0:0:
258,196,129317,1,8,0:0:0:0:
258,196,129370,1,0,0:0:0:0:
258,196,129528,1,0,0:0:0:0:
258,196,129686,1,8,0:0:0:0:
258,196,129765,1,8,0:0:0:0:
258,196,129844,1,0,0:0:0:0:
258,196,129923,1,8,0:0:0:0:
258,196,130002,1,0,0:0:0:0:
258,196,130080,1,8,0:0:0:0:
258,196,130159,1,8,0:0:0:0:
258,196,130238,1,8,0:0:0:0:
258,196,130317,1,0,0:0:0:0:
258,196,130396,1,0,0:0:0:0:
258,196,130475,1,8,0:0:0:0:
258,196,130554,1,8,0:0:0:0:
258,196,130633,1,0,0:0:0:0:
258,196,130712,1,0,0:0:0:0:
258,196,130791,1,0,0:0:0:0:
258,196,130870,1,0,0:0:0:0:
258,196,130949,1,8,0:0:0:0:
258,196,131028,1,0,0:0:0:0:
258,196,131107,1,8,0:0:0:0:
258,196,131186,1,8,0:0:0:0:
258,196,131265,1,0,0:0:0:0:
258,196,131423,1,0,0:0:0:0:
258,196,131580,1,0,0:0:0:0:
258,196,131659,1,8,0:0:0:0:
258,196,131738,1,8,0:0:0:0:
258,196,131896,1,8,0:0:0:0:
258,196,132054,1,0,0:0:0:0:
258,196,132212,1,0,0:0:0:0:
258,196,132370,1,8,0:0:0:0:
258,196,132528,1,8,0:0:0:0:
258,196,132607,1,0,0:0:0:0:
258,196,132686,1,0,0:0:0:0:
258,196,132844,1,0,0:0:0:0:
258,196,132923,1,0,0:0:0:0:
258,196,133002,1,8,0:0:0:0:
258,196,133080,1,8,0:0:0:0:
258,196,133159,1,0,0:0:0:0:
258,196,133317,1,0,0:0:0:0:
258,196,133475,1,0,0:0:0:0:
258,196,133633,1,0,0:0:0:0:
258,196,133791,1,8,0:0:0:0:
258,196,133949,1,0,0:0:0:0:
258,196,134107,1,8,0:0:0:0:
258,196,134186,1,0,0:0:0:0:
258,196,134265,1,8,0:0:0:0:
258,196,134317,1,8,0:0:0:0:
258,196,134370,1,8,0:0:0:0:
258,196,134423,1,0,0:0:0:0:
258,196,134580,1,8,0:0:0:0:
258,196,134738,1,8,0:0:0:0:
258,196,134817,1,0,0:0:0:0:
258,196,134896,1,8,0:0:0:0:
258,196,134975,1,8,0:0:0:0:
258,196,135054,1,0,0:0:0:0:
258,196,135133,1,0,0:0:0:0:
258,196,135212,1,8,0:0:0:0:
258,196,135291,1,8,0:0:0:0:
258,196,135370,1,0,0:0:0:0:
258,196,135449,1,0,0:0:0:0:
258,196,135528,1,8,0:0:0:0:
258,196,135607,1,0,0:0:0:0:
258,196,135686,1,8,0:0:0:0:
258,196,135765,1,8,0:0:0:0:
258,196,135844,1,0,0:0:0:0:
258,196,135923,1,0,0:0:0:0:
258,196,136002,1,0,0:0:0:0:
258,196,136159,1,8,0:0:0:0:
256,192,136317,1,0,0:0:0:0:
256,192,136396,1,0,0:0:0:0:
256,192,136475,1,0,0:0:0:0:
256,192,136554,1,0,0:0:0:0:
256,192,136633,1,8,0:0:0:0:
256,192,136712,1,8,0:0:0:0:
256,192,136791,1,0,0:0:0:0:
256,192,136870,1,8,0:0:0:0:
256,192,136948,1,0,0:0:0:0:
256,192,137027,1,0,0:0:0:0:
256,192,137106,1,0,0:0:0:0:
256,192,137185,1,0,0:0:0:0:
256,192,137264,1,8,0:0:0:0:
256,192,137343,1,0,0:0:0:0:
256,192,137422,1,8,0:0:0:0:
256,192,137501,1,8,0:0:0:0:
256,192,137580,1,0,0:0:0:0:
256,192,137659,1,0,0:0:0:0:
256,192,137738,1,8,0:0:0:0:
256,192,137817,1,0,0:0:0:0:
256,192,137896,1,8,0:0:0:0:
256,192,137975,1,8,0:0:0:0:
256,192,138054,1,0,0:0:0:0:
256,192,138133,1,0,0:0:0:0:
256,192,138212,1,8,0:0:0:0:
256,192,138291,1,8,0:0:0:0:
256,192,138370,1,0,0:0:0:0:
256,192,138448,1,8,0:0:0:0:
256,192,138527,1,0,0:0:0:0:
256,192,138606,1,0,0:0:0:0:
256,192,138685,1,0,0:0:0:0:
256,192,138764,1,0,0:0:0:0:
256,192,138843,1,8,0:0:0:0:
256,192,138922,1,8,0:0:0:0:
256,192,139001,1,8,0:0:0:0:
256,192,139080,1,8,0:0:0:0:
256,192,139159,1,0,0:0:0:0:
256,192,139238,1,0,0:0:0:0:
256,192,139317,1,8,0:0:0:0:
256,192,139370,1,8,0:0:0:0:
256,192,139422,1,8,0:0:0:0:
256,192,139475,1,0,0:0:0:0:
256,192,139554,1,0,0:0:0:0:
256,192,139633,1,0,0:0:0:0:
256,192,139712,1,0,0:0:0:0:
256,192,139791,1,8,0:0:0:0:
256,192,139870,1,0,0:0:0:0:
256,192,139948,1,8,0:0:0:0:
256,192,140027,1,8,0:0:0:0:
256,192,140106,1,0,0:0:0:0:
256,192,140185,1,0,0:0:0:0:
256,192,140264,1,0,0:0:0:0:
256,192,140343,1,0,0:0:0:0:
256,192,140422,1,8,0:0:0:0:
256,192,140501,1,0,0:0:0:0:
256,192,140580,1,0,0:0:0:0:
256,192,140659,1,0,0:0:0:0:
256,192,140738,1,8,0:0:0:0:
256,192,140817,1,0,0:0:0:0:
256,192,140896,1,0,0:0:0:0:
256,192,140975,1,0,0:0:0:0:
256,192,141054,1,8,0:0:0:0:
256,192,141133,1,8,0:0:0:0:
256,192,141212,1,0,0:0:0:0:
256,192,141291,1,0,0:0:0:0:
256,192,141370,1,8,0:0:0:0:
256,192,141448,1,0,0:0:0:0:
256,192,141527,1,0,0:0:0:0:
256,192,141606,1,0,0:0:0:0:
256,192,141685,1,8,0:0:0:0:
256,192,141764,1,8,0:0:0:0:
256,192,141843,1,0,0:0:0:0:
256,192,141922,1,0,0:0:0:0:
256,192,142001,1,8,0:0:0:0:
256,192,142080,1,0,0:0:0:0:
256,192,142159,1,8,0:0:0:0:
256,192,142238,1,8,0:0:0:0:
256,192,142317,1,0,0:0:0:0:
256,192,142396,1,0,0:0:0:0:
256,192,142475,1,0,0:0:0:0:
256,192,142554,1,0,0:0:0:0:
256,192,142633,1,8,0:0:0:0:
256,192,142712,1,8,0:0:0:0:
256,192,142791,1,0,0:0:0:0:
256,192,142870,1,0,0:0:0:0:
256,192,142948,1,8,0:0:0:0:
256,192,143027,1,0,0:0:0:0:
256,192,143106,1,8,0:0:0:0:
256,192,143185,1,8,0:0:0:0:
256,192,143264,1,0,0:0:0:0:
256,192,143343,1,0,0:0:0:0:
256,192,143422,1,0,0:0:0:0:
256,192,143501,1,0,0:0:0:0:
256,192,143580,1,8,0:0:0:0:
256,192,143659,1,8,0:0:0:0:
256,192,143738,1,0,0:0:0:0:
256,192,143817,1,8,0:0:0:0:
256,192,143896,1,0,0:0:0:0:
256,192,143975,1,8,0:0:0:0:
256,192,144054,1,0,0:0:0:0:
256,192,144133,1,8,0:0:0:0:
256,192,144212,1,0,0:0:0:0:
256,192,144291,1,0,0:0:0:0:
256,192,144370,1,8,0:0:0:0:
256,192,144422,1,8,0:0:0:0:
256,192,144475,1,8,0:0:0:0:
256,192,144527,1,0,0:0:0:0:
256,192,144606,1,0,0:0:0:0:
256,192,144685,1,0,0:0:0:0:
256,192,144764,1,0,0:0:0:0:
256,192,144843,1,8,0:0:0:0:
256,192,144922,1,0,0:0:0:0:
256,192,145001,1,0,0:0:0:0:
256,192,145080,1,0,0:0:0:0:
256,192,145159,1,8,0:0:0:0:
256,192,145238,1,0,0:0:0:0:
256,192,145317,1,0,0:0:0:0:
256,192,145396,1,8,0:0:0:0:
256,192,145475,1,0,0:0:0:0:
256,192,145554,1,0,0:0:0:0:
256,192,145633,1,8,0:0:0:0:
256,192,145712,1,0,0:0:0:0:
256,192,145791,1,0,0:0:0:0:
256,192,145870,1,8,0:0:0:0:
256,192,145948,1,0,0:0:0:0:
256,192,146027,1,0,0:0:0:0:
256,192,146106,1,8,0:0:0:0:
256,192,146423,1,0,0:0:0:0:
256,192,146502,1,0,0:0:0:0:
256,192,146580,1,0,0:0:0:0:
256,192,146659,1,0,0:0:0:0:
256,192,146738,1,8,0:0:0:0:
256,192,146817,1,0,0:0:0:0:
256,192,146896,1,8,0:0:0:0:
256,192,146975,1,8,0:0:0:0:
256,192,147054,1,0,0:0:0:0:
256,192,147133,1,0,0:0:0:0:
256,192,147212,1,0,0:0:0:0:
256,192,147291,1,0,0:0:0:0:
256,192,147370,1,8,0:0:0:0:
256,192,147449,1,8,0:0:0:0:
256,192,147528,1,0,0:0:0:0:
256,192,147607,1,8,0:0:0:0:
256,192,147686,1,0,0:0:0:0:
256,192,147765,1,0,0:0:0:0:
256,192,147844,1,0,0:0:0:0:
256,192,147923,1,0,0:0:0:0:
256,192,148002,1,8,0:0:0:0:
256,192,148080,1,0,0:0:0:0:
256,192,148159,1,8,0:0:0:0:
256,192,148238,1,8,0:0:0:0:
256,192,148317,1,0,0:0:0:0:
256,192,148396,1,0,0:0:0:0:
256,192,148475,1,0,0:0:0:0:
256,192,148554,1,0,0:0:0:0:
256,192,148633,1,8,0:0:0:0:
256,192,148712,1,8,0:0:0:0:
256,192,148791,1,0,0:0:0:0:
256,192,148870,1,8,0:0:0:0:
256,192,148949,1,0,0:0:0:0:
256,192,149028,1,0,0:0:0:0:
256,192,149107,1,8,0:0:0:0:
256,192,149186,1,8,0:0:0:0:
256,192,149265,1,0,0:0:0:0:
256,192,149344,1,0,0:0:0:0:
256,192,149423,1,8,0:0:0:0:
256,192,149475,1,8,0:0:0:0:
256,192,149528,1,8,0:0:0:0:
256,192,149580,1,0,0:0:0:0:
256,192,149659,1,0,0:0:0:0:
256,192,149738,1,0,0:0:0:0:
256,192,149817,1,0,0:0:0:0:
256,192,149896,1,8,0:0:0:0:
256,192,149975,1,0,0:0:0:0:
256,192,150054,1,8,0:0:0:0:
256,192,150133,1,8,0:0:0:0:
256,192,150212,1,0,0:0:0:0:
256,192,150291,1,0,0:0:0:0:
256,192,150370,1,0,0:0:0:0:
256,192,150449,1,0,0:0:0:0:
256,192,150528,1,8,0:0:0:0:
256,192,150607,1,8,0:0:0:0:
256,192,150686,1,8,0:0:0:0:
256,192,150765,1,8,0:0:0:0:
256,192,150844,1,0,0:0:0:0:
256,192,150923,1,8,0:0:0:0:
256,192,151002,1,0,0:0:0:0:
256,192,151080,1,0,0:0:0:0:
256,192,151159,1,8,0:0:0:0:
256,192,151238,1,8,0:0:0:0:
256,192,151317,1,8,0:0:0:0:
256,192,151396,1,8,0:0:0:0:
256,192,151475,1,0,0:0:0:0:
256,192,151554,1,0,0:0:0:0:
256,192,151633,1,0,0:0:0:0:
256,192,151712,1,0,0:0:0:0:
256,192,151791,1,8,0:0:0:0:
256,192,151870,1,0,0:0:0:0:
256,192,151949,1,8,0:0:0:0:
256,192,152028,1,8,0:0:0:0:
256,192,152107,1,0,0:0:0:0:
256,192,152186,1,0,0:0:0:0:
256,192,152265,1,0,0:0:0:0:
256,192,152344,1,0,0:0:0:0:
256,192,152423,1,8,0:0:0:0:
256,192,152502,1,0,0:0:0:0:
256,192,152580,1,8,0:0:0:0:
256,192,152659,1,0,0:0:0:0:
256,192,152738,1,0,0:0:0:0:
256,192,152817,1,0,0:0:0:0:
256,192,152896,1,8,0:0:0:0:
256,192,152975,1,0,0:0:0:0:
256,192,153054,1,0,0:0:0:0:
256,192,153133,1,0,0:0:0:0:
256,192,153212,1,0,0:0:0:0:
256,192,153291,1,0,0:0:0:0:
256,192,153370,1,8,0:0:0:0:
256,192,153449,1,0,0:0:0:0:
256,192,153528,1,8,0:0:0:0:
256,192,153607,1,0,0:0:0:0:
256,192,153686,1,0,0:0:0:0:
256,192,153765,1,0,0:0:0:0:
256,192,153844,1,8,0:0:0:0:
256,192,153923,1,0,0:0:0:0:
256,192,154002,1,8,0:0:0:0:
256,192,154317,1,4,0:0:0:0:
256,192,154475,1,12,0:0:0:0:
256,192,154633,1,12,0:0:0:0:
256,192,154949,1,4,0:0:0:0:
256,192,155265,1,12,0:0:0:0:
258,196,155896,1,4,0:0:0:0:
258,196,156054,1,4,0:0:0:0:
258,196,156212,1,4,0:0:0:0:
258,196,156370,1,4,0:0:0:0:
258,196,156528,1,4,0:0:0:0:
258,196,156844,1,0,0:0:0:0:
258,196,156923,1,0,0:0:0:0:
258,196,157002,1,8,0:0:0:0:
258,196,157159,1,8,0:0:0:0:
258,196,157317,1,0,0:0:0:0:
258,196,157475,1,0,0:0:0:0:
258,196,157633,1,8,0:0:0:0:
258,196,157791,1,8,0:0:0:0:
258,196,157870,1,8,0:0:0:0:
258,196,157949,1,0,0:0:0:0:
258,196,158107,1,0,0:0:0:0:
258,196,158265,1,8,0:0:0:0:
258,196,158344,1,0,0:0:0:0:
258,196,158423,1,8,0:0:0:0:
258,196,158502,1,8,0:0:0:0:
258,196,158580,1,0,0:0:0:0:
258,196,158659,1,0,0:0:0:0:
258,196,158738,1,8,0:0:0:0:
258,196,158817,1,0,0:0:0:0:
258,196,158896,1,0,0:0:0:0:
258,196,158975,1,0,0:0:0:0:
258,196,159054,1,8,0:0:0:0:
258,196,159212,1,8,0:0:0:0:
258,196,159370,1,0,0:0:0:0:
258,196,159449,1,0,0:0:0:0:
258,196,159528,1,8,0:0:0:0:
258,196,159607,1,0,0:0:0:0:
258,196,159686,1,8,0:0:0:0:
258,196,159844,1,0,0:0:0:0:
258,196,160002,1,8,0:0:0:0:
258,196,160080,1,8,0:0:0:0:
258,196,160159,1,0,0:0:0:0:
258,196,160238,1,8,0:0:0:0:
258,196,160317,1,0,0:0:0:0:
258,196,160396,1,8,0:0:0:0:
258,196,160475,1,0,0:0:0:0:
258,196,160554,1,0,0:0:0:0:
258,196,160633,1,8,0:0:0:0:
258,196,160712,1,8,0:0:0:0:
258,196,160791,1,8,0:0:0:0:
258,196,160870,1,8,0:0:0:0:
258,196,160949,1,0,0:0:0:0:
258,196,161028,1,0,0:0:0:0:
258,196,161107,1,8,0:0:0:0:
258,196,161186,1,8,0:0:0:0:
258,196,161265,1,0,0:0:0:0:
258,196,161344,1,8,0:0:0:0:
258,196,161423,1,8,0:0:0:0:
258,196,161502,1,8,0:0:0:0:
258,196,161580,1,8,0:0:0:0:
258,196,161738,1,0,0:0:0:0:
258,196,161896,1,0,0:0:0:0:
258,196,161975,1,0,0:0:0:0:
258,196,162054,1,8,0:0:0:0:
258,196,162212,1,8,0:0:0:0:
258,196,162370,1,0,0:0:0:0:
258,196,162528,1,0,0:0:0:0:
258,196,162607,1,0,0:0:0:0:
258,196,162686,1,0,0:0:0:0:
258,196,162844,1,0,0:0:0:0:
258,196,163002,1,8,0:0:0:0:
258,196,163080,1,8,0:0:0:0:
258,196,163159,1,0,0:0:0:0:
258,196,163317,1,0,0:0:0:0:
258,196,163396,1,0,0:0:0:0:
258,196,163475,1,8,0:0:0:0:
258,196,163554,1,8,0:0:0:0:
258,196,163633,1,0,0:0:0:0:
258,196,163791,1,0,0:0:0:0:
258,196,163949,1,8,0:0:0:0:
258,196,164028,1,0,0:0:0:0:
258,196,164107,1,0,0:0:0:0:
258,196,164265,1,0,0:0:0:0:
258,196,164344,1,0,0:0:0:0:
258,196,164423,1,8,0:0:0:0:
258,196,164502,1,0,0:0:0:0:
258,196,164580,1,8,0:0:0:0:
258,196,164738,1,8,0:0:0:0:
258,196,164896,1,0,0:0:0:0:
258,196,165054,1,0,0:0:0:0:
258,196,165212,1,8,0:0:0:0:
258,196,165370,1,0,0:0:0:0:
258,196,165449,1,0,0:0:0:0:
258,196,165528,1,0,0:0:0:0:
258,196,165607,1,0,0:0:0:0:
258,196,165686,1,0,0:0:0:0:
258,196,165765,1,0,0:0:0:0:
258,196,165844,1,8,0:0:0:0:
258,196,165923,1,8,0:0:0:0:
258,196,166002,1,0,0:0:0:0:
258,196,166080,1,8,0:0:0:0:
258,196,166159,1,8,0:0:0:0:
258,196,166238,1,8,0:0:0:0:
258,196,166317,1,8,0:0:0:0:
258,196,166396,1,8,0:0:0:0:
258,196,166475,1,8,0:0:0:0:
258,196,166554,1,8,0:0:0:0:
258,196,166633,1,0,0:0:0:0:
258,196,166791,1,0,0:0:0:0:
258,196,166870,1,0,0:0:0:0:
258,196,166949,1,8,0:0:0:0:
258,196,167028,1,0,0:0:0:0:
258,196,167107,1,8,0:0:0:0:
258,196,167265,1,0,0:0:0:0:
258,196,167423,1,8,0:0:0:0:
258,196,167502,1,8,0:0:0:0:
258,196,167580,1,0,0:0:0:0:
258,196,167738,1,0,0:0:0:0:
258,196,167896,1,8,0:0:0:0:
258,196,167975,1,0,0:0:0:0:
258,196,168054,1,0,0:0:0:0:
258,196,168212,1,8,0:0:0:0:
258,196,168291,1,8,0:0:0:0:
258,196,168370,1,0,0:0:0:0:
258,196,168449,1,0,0:0:0:0:
258,196,168528,1,8,0:0:0:0:
258,196,168607,1,0,0:0:0:0:
258,196,168686,1,8,0:0:0:0:
258,196,168765,1,8,0:0:0:0:
258,196,168844,1,0,0:0:0:0:
258,196,169002,1,8,0:0:0:0:
258,196,169080,1,0,0:0:0:0:
258,196,169159,1,0,0:0:0:0:
258,196,169317,1,0,0:0:0:0:
258,196,169475,1,0,0:0:0:0:
258,196,169554,1,0,0:0:0:0:
258,196,169633,1,8,0:0:0:0:
258,196,169712,1,8,0:0:0:0:
258,196,169791,1,0,0:0:0:0:
258,196,169949,1,8,0:0:0:0:
258,196,170107,1,0,0:0:0:0:
258,196,170186,1,0,0:0:0:0:
258,196,170265,1,8,0:0:0:0:
258,196,170344,1,0,0:0:0:0:
258,196,170423,1,8,0:0:0:0:
258,196,170502,1,8,0:0:0:0:
258,196,170580,1,0,0:0:0:0:
258,196,170659,1,8,0:0:0:0:
258,196,170738,1,8,0:0:0:0:
258,196,170817,1,8,0:0:0:0:
258,196,170896,1,0,0:0:0:0:
258,196,170975,1,0,0:0:0:0:
258,196,171054,1,0,0:0:0:0:
258,196,171133,1,0,0:0:0:0:
258,196,171212,1,8,0:0:0:0:
258,196,171291,1,8,0:0:0:0:
258,196,171370,1,0,0:0:0:0:
258,196,171449,1,8,0:0:0:0:
258,196,171528,1,0,0:0:0:0:
258,196,171607,1,0,0:0:0:0:
258,196,171686,1,8,0:0:0:0:
258,196,171844,1,0,0:0:0:0:
258,196,172002,1,8,0:0:0:0:
258,196,172159,1,0,0:0:0:0:
258,196,172238,1,0,0:0:0:0:
258,196,172317,1,8,0:0:0:0:
258,196,172475,1,8,0:0:0:0:
258,196,172633,1,0,0:0:0:0:
258,196,172791,1,8,0:0:0:0:
258,196,172949,1,0,0:0:0:0:
258,196,173107,1,0,0:0:0:0:
258,196,173186,1,0,0:0:0:0:
258,196,173265,1,8,0:0:0:0:
258,196,173344,1,8,0:0:0:0:
258,196,173423,1,0,0:0:0:0:
258,196,173502,1,0,0:0:0:0:
258,196,173580,1,0,0:0:0:0:
258,196,173738,1,8,0:0:0:0:
258,196,173896,1,0,0:0:0:0:
258,196,174054,1,8,0:0:0:0:
258,196,174212,1,0,0:0:0:0:
258,196,174291,1,0,0:0:0:0:
258,196,174370,1,8,0:0:0:0:
258,196,174449,1,8,0:0:0:0:
258,196,174528,1,0,0:0:0:0:
258,196,174607,1,0,0:0:0:0:
258,196,174686,1,0,0:0:0:0:
258,196,174844,1,0,0:0:0:0:
258,196,175002,1,8,0:0:0:0:
258,196,175159,1,8,0:0:0:0:
258,196,175317,1,0,0:0:0:0:
258,196,175475,1,0,0:0:0:0:
258,196,175554,1,0,0:0:0:0:
258,196,175633,1,0,0:0:0:0:
258,196,175712,1,0,0:0:0:0:
258,196,175791,1,0,0:0:0:0:
258,196,175870,1,0,0:0:0:0:
258,196,175949,1,0,0:0:0:0:
258,196,176028,1,0,0:0:0:0:
258,196,176107,1,8,0:0:0:0:
258,196,176186,1,8,0:0:0:0:
258,196,176265,1,8,0:0:0:0:
258,196,176344,1,8,0:0:0:0:
258,196,176423,1,8,0:0:0:0:
258,196,176502,1,8,0:0:0:0:
258,196,176580,1,8,0:0:0:0:
258,196,176659,1,8,0:0:0:0:
258,196,176738,1,0,0:0:0:0:
258,196,176896,1,0,0:0:0:0:
258,196,177054,1,8,0:0:0:0:
258,196,177133,1,8,0:0:0:0:
258,196,177212,1,0,0:0:0:0:
258,196,177370,1,0,0:0:0:0:
258,196,177528,1,8,0:0:0:0:
258,196,177686,1,0,0:0:0:0:
258,196,177844,1,0,0:0:0:0:
258,196,178002,1,8,0:0:0:0:
258,196,178080,1,8,0:0:0:0:
258,196,178159,1,0,0:0:0:0:
258,196,178317,1,0,0:0:0:0:
258,196,178475,1,8,0:0:0:0:
258,196,178554,1,0,0:0:0:0:
258,196,178633,1,0,0:0:0:0:
258,196,178712,1,0,0:0:0:0:
258,196,178791,1,0,0:0:0:0:
258,196,178949,1,8,0:0:0:0:
258,196,179107,1,0,0:0:0:0:
258,196,179265,1,0,0:0:0:0:
258,196,179423,1,8,0:0:0:0:
258,196,179580,1,0,0:0:0:0:
258,196,179659,1,0,0:0:0:0:
258,196,179738,1,8,0:0:0:0:
258,196,179896,1,8,0:0:0:0:
258,196,180054,1,0,0:0:0:0:
256,192,180212,1,0,0:0:0:0:
256,192,180291,1,0,0:0:0:0:
256,192,180370,1,8,0:0:0:0:
256,192,180448,1,8,0:0:0:0:
256,192,180527,1,0,0:0:0:0:
256,192,180606,1,8,0:0:0:0:
256,192,180685,1,0,0:0:0:0:
256,192,180764,1,0,0:0:0:0:
256,192,180843,1,8,0:0:0:0:
256,192,180922,1,0,0:0:0:0:
256,192,181001,1,8,0:0:0:0:
256,192,181080,1,8,0:0:0:0:
256,192,181159,1,0,0:0:0:0:
256,192,181238,1,0,0:0:0:0:
256,192,181317,1,0,0:0:0:0:
256,192,181396,1,0,0:0:0:0:
256,192,181475,1,8,0:0:0:0:
256,192,181554,1,0,0:0:0:0:
256,192,181633,1,8,0:0:0:0:
256,192,181712,1,8,0:0:0:0:
256,192,181791,1,8,0:0:0:0:
256,192,181949,1,8,0:0:0:0:
256,192,182028,1,0,0:0:0:0:
256,192,182107,1,8,0:0:0:0:
256,192,182265,1,0,0:0:0:0:
256,192,182423,1,8,0:0:0:0:
256,192,182580,1,8,0:0:0:0:
256,192,182659,1,0,0:0:0:0:
256,192,182738,1,0,0:0:0:0:
256,192,182896,1,0,0:0:0:0:
256,192,183054,1,0,0:0:0:0:
256,192,183133,1,0,0:0:0:0:
256,192,183212,1,0,0:0:0:0:
256,192,183370,1,8,0:0:0:0:
256,192,183449,1,8,0:0:0:0:
256,192,183528,1,0,0:0:0:0:
256,192,183607,1,8,0:0:0:0:
256,192,183686,1,0,0:0:0:0:
256,192,183844,1,0,0:0:0:0:
256,192,184002,1,8,0:0:0:0:
256,192,184159,1,0,0:0:0:0:
256,192,184317,1,0,0:0:0:0:
256,192,184396,1,0,0:0:0:0:
256,192,184475,1,8,0:0:0:0:
256,192,184554,1,8,0:0:0:0:
256,192,184633,1,0,0:0:0:0:
256,192,184712,1,0,0:0:0:0:
256,192,184791,1,8,0:0:0:0:
256,192,184870,1,8,0:0:0:0:
256,192,184949,1,0,0:0:0:0:
256,192,185028,1,8,0:0:0:0:
256,192,185107,1,0,0:0:0:0:
256,192,185186,1,8,0:0:0:0:
256,192,185265,1,0,0:0:0:0:
256,192,185344,1,8,0:0:0:0:
256,192,185423,1,0,0:0:0:0:
256,192,185502,1,0,0:0:0:0:
256,192,185580,1,8,0:0:0:0:
256,192,185659,1,8,0:0:0:0:
256,192,185738,1,8,0:0:0:0:
256,192,185817,1,8,0:0:0:0:
256,192,185896,1,8,0:0:0:0:
256,192,185975,1,8,0:0:0:0:
256,192,186054,1,0,0:0:0:0:
256,192,186133,1,8,0:0:0:0:
256,192,186212,1,8,0:0:0:0:
256,192,186291,1,8,0:0:0:0:
256,192,186370,1,0,0:0:0:0:
256,192,186449,1,0,0:0:0:0:
256,192,186528,1,0,0:0:0:0:
256,192,186607,1,0,0:0:0:0:
256,192,186686,1,8,0:0:0:0:
256,192,186765,1,8,0:0:0:0:
256,192,186844,1,0,0:0:0:0:
256,192,187002,1,0,0:0:0:0:
256,192,187159,1,8,0:0:0:0:
256,192,187238,1,8,0:0:0:0:
256,192,187317,1,0,0:0:0:0:
256,192,187475,1,0,0:0:0:0:
256,192,187633,1,0,0:0:0:0:
256,192,187791,1,8,0:0:0:0:
256,192,187949,1,0,0:0:0:0:
256,192,188107,1,8,0:0:0:0:
256,192,188186,1,8,0:0:0:0:
256,192,188265,1,0,0:0:0:0:
256,192,188344,1,8,0:0:0:0:
256,192,188423,1,0,0:0:0:0:
256,192,188502,1,0,0:0:0:0:
256,192,188580,1,0,0:0:0:0:
256,192,188659,1,0,0:0:0:0:
256,192,188738,1,8,0:0:0:0:
256,192,188817,1,8,0:0:0:0:
256,192,188896,1,8,0:0:0:0:
256,192,188975,1,8,0:0:0:0:
256,192,189054,1,0,0:0:0:0:
256,192,189212,1,0,0:0:0:0:
256,192,189291,1,0,0:0:0:0:
256,192,189370,1,0,0:0:0:0:
256,192,189528,1,0,0:0:0:0:
256,192,189686,1,0,0:0:0:0:
256,192,189765,1,0,0:0:0:0:
256,192,189844,1,8,0:0:0:0:
256,192,190002,1,8,0:0:0:0:
256,192,190159,1,8,0:0:0:0:
256,192,190238,1,0,0:0:0:0:
256,192,190317,1,0,0:0:0:0:
256,192,190475,1,8,0:0:0:0:
256,192,190554,1,8,0:0:0:0:
256,192,190633,1,0,0:0:0:0:
256,192,190712,1,8,0:0:0:0:
256,192,190791,1,0,0:0:0:0:
256,192,190870,1,0,0:0:0:0:
256,192,190948,1,8,0:0:0:0:
256,192,191027,1,0,0:0:0:0:
256,192,191106,1,8,0:0:0:0:
256,192,191185,1,8,0:0:0:0:
256,192,191264,1,0,0:0:0:0:
256,192,191343,1,0,0:0:0:0:
256,192,191422,1,8,0:0:0:0:
256,192,191501,1,8,0:0:0:0:
256,192,191580,1,0,0:0:0:0:
256,192,191659,1,8,0:0:0:0:
256,192,191738,1,0,0:0:0:0:
256,192,191817,1,0,0:0:0:0:
256,192,191896,1,8,0:0:0:0:
256,192,192054,1,8,0:0:0:0:
256,192,192212,1,8,0:0:0:0:
256,192,192291,1,0,0:0:0:0:
256,192,192370,1,8,0:0:0:0:
256,192,192528,1,0,0:0:0:0:
256,192,192686,1,0,0:0:0:0:
256,192,192844,1,8,0:0:0:0:
256,192,193002,1,0,0:0:0:0:
256,192,193159,1,0,0:0:0:0:
256,192,193238,1,0,0:0:0:0:
256,192,193317,1,8,0:0:0:0:
256,192,193475,1,8,0:0:0:0:
256,192,193633,1,0,0:0:0:0:
256,192,193791,1,0,0:0:0:0:
256,192,193870,1,0,0:0:0:0:
256,192,193949,1,8,0:0:0:0:
256,192,194107,1,0,0:0:0:0:
256,192,194265,1,8,0:0:0:0:
256,192,194423,1,8,0:0:0:0:
256,192,194502,1,8,0:0:0:0:
256,192,194580,1,0,0:0:0:0:
256,192,194659,1,0,0:0:0:0:
256,192,194738,1,8,0:0:0:0:
256,192,194817,1,8,0:0:0:0:
256,192,194896,1,0,0:0:0:0:
256,192,194975,1,0,0:0:0:0:
256,192,195054,1,8,0:0:0:0:
256,192,195133,1,8,0:0:0:0:
256,192,195212,1,0,0:0:0:0:
256,192,195291,1,0,0:0:0:0:
256,192,195370,1,8,0:0:0:0:
256,192,195449,1,0,0:0:0:0:
256,192,195528,1,8,0:0:0:0:
256,192,195607,1,8,0:0:0:0:
256,192,195686,1,0,0:0:0:0:
256,192,195765,1,0,0:0:0:0:
256,192,195844,1,0,0:0:0:0:
256,192,195923,1,0,0:0:0:0:
256,192,196002,1,0,0:0:0:0:
256,192,196080,1,0,0:0:0:0:
256,192,196159,1,0,0:0:0:0:
256,192,196238,1,0,0:0:0:0:
256,192,196317,1,8,0:0:0:0:
256,192,196396,1,8,0:0:0:0:
256,192,196475,1,8,0:0:0:0:
256,192,196554,1,8,0:0:0:0:
256,192,196633,1,8,0:0:0:0:
256,192,196712,1,8,0:0:0:0:
256,192,196791,1,8,0:0:0:0:
256,192,196870,1,8,0:0:0:0:
256,192,196949,1,0,0:0:0:0:
