osu file format v14

[General]
AudioFilename: audio.mp3
AudioLeadIn: 0
PreviewTime: 24536
Countdown: 0
SampleSet: Normal
StackLeniency: 0.7
Mode: 1
LetterboxInBreaks: 0
WidescreenStoryboard: 1

[Editor]
DistanceSpacing: 0.3
BeatDivisor: 4
GridSize: 32
TimelineZoom: 0.7999998

[Metadata]
Title:Faint Courage (Game Over)
TitleUnicode:Faint Courage (Game Over)
Artist:Toby Fox
ArtistUnicode:Toby Fox
Creator:Horiiizon
Version:Oni
Source:DELTARUNE
Tags:deltarune: chapter two 2 ost original soundtrack vgm video game music electronic instrumental chiptune ralsei kris susie "radiation" 8-bit 8bit
BeatmapID:3226779
BeatmapSetID:1580283

[Difficulty]
HPDrainRate:6
CircleSize:5
OverallDifficulty:5
ApproachRate:5
SliderMultiplier:1.4
SliderTickRate:1

[Events]
//Background and Video events
0,0,"BG.png",0,-120
//Break Periods
//Storyboard Layer 0 (Background)
//Storyboard Layer 1 (Fail)
//Storyboard Layer 2 (Pass)
//Storyboard Layer 3 (Foreground)
//Storyboard Layer 4 (Overlay)
//Storyboard Sound Samples

[TimingPoints]
80,521.739130434783,6,1,0,60,1,0
25123,-100,6,1,0,60,0,1
48601,-100,6,1,0,60,0,0

[HitObjects]
214,182,80,5,8,0:0:0:0:
191,166,340,1,0,0:0:0:0:
192,180,601,1,8,0:0:0:0:
177,156,862,1,0,0:0:0:0:
177,156,1123,1,8,0:0:0:0:
177,156,1384,1,8,0:0:0:0:
177,156,1645,1,0,0:0:0:0:
189,151,1906,1,0,0:0:0:0:
170,159,2166,1,8,0:0:0:0:
171,160,2427,1,0,0:0:0:0:
169,113,3210,1,8,0:0:0:0:
174,131,3471,1,0,0:0:0:0:
174,120,3732,1,0,0:0:0:0:
169,113,3993,1,8,0:0:0:0:
175,89,4253,1,8,0:0:0:0:
174,128,4514,1,0,0:0:0:0:
166,98,4775,1,8,0:0:0:0:
173,102,5036,1,0,0:0:0:0:
161,129,5297,1,0,0:0:0:0:
182,108,5558,1,8,0:0:0:0:
214,182,6340,5,8,0:0:0:0:
191,166,6600,1,0,0:0:0:0:
192,180,6861,1,8,0:0:0:0:
177,156,7122,1,0,0:0:0:0:
177,156,7383,1,8,0:0:0:0:
177,156,7644,1,8,0:0:0:0:
177,156,7905,1,0,0:0:0:0:
189,151,8166,1,0,0:0:0:0:
170,159,8426,1,8,0:0:0:0:
171,160,8687,1,0,0:0:0:0:
169,113,9471,1,8,0:0:0:0:
174,131,9732,1,0,0:0:0:0:
174,120,9993,1,0,0:0:0:0:
169,113,10254,1,8,0:0:0:0:
175,89,10514,1,8,0:0:0:0:
174,128,10775,1,0,0:0:0:0:
166,98,11036,1,8,0:0:0:0:
173,102,11297,1,0,0:0:0:0:
161,129,11558,1,0,0:0:0:0:
182,108,11819,1,8,0:0:0:0:
161,138,12080,1,8,0:0:0:0:
214,182,12601,5,8,0:0:0:0:
191,166,12861,1,0,0:0:0:0:
192,180,13122,1,8,0:0:0:0:
177,156,13383,1,0,0:0:0:0:
177,156,13644,1,8,0:0:0:0:
177,156,13905,1,8,0:0:0:0:
177,156,14166,1,0,0:0:0:0:
189,151,14427,1,0,0:0:0:0:
170,159,14687,1,8,0:0:0:0:
171,160,14948,1,0,0:0:0:0:
165,145,15210,1,8,0:0:0:0:
169,113,15731,1,8,0:0:0:0:
174,131,15992,1,0,0:0:0:0:
174,120,16253,1,0,0:0:0:0:
169,113,16514,1,8,0:0:0:0:
175,89,16774,1,8,0:0:0:0:
174,128,17035,1,0,0:0:0:0:
166,98,17296,1,8,0:0:0:0:
173,102,17557,1,0,0:0:0:0:
161,129,17818,1,0,0:0:0:0:
182,108,18079,1,8,0:0:0:0:
151,103,18340,1,8,0:0:0:0:
214,182,18862,5,8,0:0:0:0:
191,166,19122,1,0,0:0:0:0:
192,180,19383,1,8,0:0:0:0:
177,156,19644,1,0,0:0:0:0:
177,156,19905,1,8,0:0:0:0:
177,156,20166,1,8,0:0:0:0:
177,156,20427,1,0,0:0:0:0:
189,151,20688,1,0,0:0:0:0:
170,159,20948,1,8,0:0:0:0:
171,160,21209,1,0,0:0:0:0:
165,145,21471,1,8,0:0:0:0:
169,113,21992,1,8,0:0:0:0:
174,131,22253,1,0,0:0:0:0:
174,120,22514,1,0,0:0:0:0:
169,113,22775,1,8,0:0:0:0:
175,89,23035,1,8,0:0:0:0:
174,128,23296,1,0,0:0:0:0:
166,98,23557,5,8,0:0:0:0:
196,121,24601,5,8,0:0:0:0:
173,85,24862,1,8,0:0:0:0:
186,150,25123,1,0,0:0:0:0:
166,122,25645,1,0,0:0:0:0:
192,147,25906,1,0,0:0:0:0:
195,151,26166,1,8,0:0:0:0:
176,103,26427,1,8,0:0:0:0:
179,109,26688,1,0,0:0:0:0:
180,99,26949,1,8,0:0:0:0:
183,105,27210,1,0,0:0:0:0:
183,105,27471,1,0,0:0:0:0:
172,130,27732,1,8,0:0:0:0:
171,108,27993,1,8,0:0:0:0:
173,113,28253,1,0,0:0:0:0:
175,117,28775,1,8,0:0:0:0:
179,126,29036,1,0,0:0:0:0:
174,139,29297,1,8,0:0:0:0:
174,139,29558,1,8,0:0:0:0:
165,120,29819,1,0,0:0:0:0:
179,126,30080,1,8,0:0:0:0:
179,125,30340,1,0,0:0:0:0:
179,125,30601,1,0,0:0:0:0:
186,107,30862,1,8,0:0:0:0:
187,110,31123,1,0,0:0:0:0:
157,113,31384,1,8,0:0:0:0:
166,122,31906,1,0,0:0:0:0:
192,147,32167,1,0,0:0:0:0:
195,151,32427,1,8,0:0:0:0:
176,103,32688,1,8,0:0:0:0:
179,109,32949,1,0,0:0:0:0:
180,99,33210,1,8,0:0:0:0:
183,105,33471,1,0,0:0:0:0:
183,105,33732,1,0,0:0:0:0:
172,130,33993,1,8,0:0:0:0:
171,108,34254,1,8,0:0:0:0:
173,113,34514,1,0,0:0:0:0:
175,117,35036,1,8,0:0:0:0:
179,126,35297,1,0,0:0:0:0:
174,139,35558,1,8,0:0:0:0:
174,139,35819,1,8,0:0:0:0:
165,120,36080,1,0,0:0:0:0:
179,126,36341,1,8,0:0:0:0:
179,125,36601,1,0,0:0:0:0:
179,125,36862,1,0,0:0:0:0:
186,107,37123,1,8,0:0:0:0:
187,110,37384,1,0,0:0:0:0:
174,119,37645,1,8,0:0:0:0:
166,122,38166,1,0,0:0:0:0:
192,147,38427,1,0,0:0:0:0:
195,151,38687,1,8,0:0:0:0:
176,103,38948,1,8,0:0:0:0:
179,109,39209,1,0,0:0:0:0:
180,99,39470,1,8,0:0:0:0:
183,105,39731,1,0,0:0:0:0:
183,105,39992,1,0,0:0:0:0:
172,130,40253,1,8,0:0:0:0:
171,108,40514,1,8,0:0:0:0:
173,113,40774,1,0,0:0:0:0:
175,117,41296,1,8,0:0:0:0:
179,126,41557,1,0,0:0:0:0:
174,139,41818,1,8,0:0:0:0:
174,139,42079,1,8,0:0:0:0:
165,120,42340,1,0,0:0:0:0:
179,126,42601,1,8,0:0:0:0:
179,125,42861,1,0,0:0:0:0:
179,125,43122,1,0,0:0:0:0:
186,107,43383,1,8,0:0:0:0:
187,110,43644,1,0,0:0:0:0:
174,119,43905,1,8,0:0:0:0:
166,122,44427,1,0,0:0:0:0:
192,147,44688,1,0,0:0:0:0:
195,151,44948,1,8,0:0:0:0:
176,103,45209,1,8,0:0:0:0:
179,109,45470,1,0,0:0:0:0:
180,99,45731,1,8,0:0:0:0:
183,105,45992,1,0,0:0:0:0:
183,105,46253,1,0,0:0:0:0:
172,130,46514,1,8,0:0:0:0:
171,108,46775,1,8,0:0:0:0:
173,113,47035,1,0,0:0:0:0:
175,117,47557,1,8,0:0:0:0:
179,126,47818,1,0,0:0:0:0:
174,139,48079,1,8,0:0:0:0:
174,139,48340,1,8,0:0:0:0:
165,120,48601,1,0,0:0:0:0:
256,192,48862,12,0,49645,0:0:0:0:
