osu file format v14

[General]
AudioFilename: audio.mp3
AudioLeadIn: 0
PreviewTime: 24536
Countdown: 0
SampleSet: Normal
StackLeniency: 0.7
Mode: 1
LetterboxInBreaks: 0
WidescreenStoryboard: 0

[Editor]
DistanceSpacing: 0.3
BeatDivisor: 4
GridSize: 32
TimelineZoom: 0.3999998

[Metadata]
Title:Faint Courage (Game Over)
TitleUnicode:Faint Courage (Game Over)
Artist:Toby Fox
ArtistUnicode:Toby Fox
Creator:Horiiizon
Version:Muzukashii
Source:DELTARUNE
Tags:deltarune: chapter two 2 ost original soundtrack vgm video game music electronic instrumental chiptune ralsei kris susie "radiation" 8-bit 8bit
BeatmapID:3226778
BeatmapSetID:1580283

[Difficulty]
HPDrainRate:7
CircleSize:5
OverallDifficulty:4
ApproachRate:5
SliderMultiplier:1.4
SliderTickRate:1

[Events]
//Background and Video events
0,0,"BG.png",0,-120
//Break Periods
//Storyboard Layer 0 (Background)
//Storyboard Layer 1 (Fail)
//Storyboard Layer 2 (Pass)
//Storyboard Layer 3 (Foreground)
//Storyboard Layer 4 (Overlay)
//Storyboard Sound Samples

[TimingPoints]
80,521.739130434783,6,1,0,60,1,0
25123,-100,6,1,0,60,0,1
48601,-100,6,1,0,60,0,0

[HitObjects]
214,182,80,5,8,0:0:0:0:
200,182,601,1,0,0:0:0:0:
197,187,1123,1,0,0:0:0:0:
180,138,1384,1,0,0:0:0:0:
180,138,1645,1,8,0:0:0:0:
169,144,2166,1,0,0:0:0:0:
169,113,3210,1,8,0:0:0:0:
174,128,3732,1,8,0:0:0:0:
170,123,3993,1,8,0:0:0:0:
166,125,4253,1,0,0:0:0:0:
174,128,4514,1,0,0:0:0:0:
175,108,4775,1,8,0:0:0:0:
174,130,5297,1,0,0:0:0:0:
165,166,6340,1,8,0:0:0:0:
164,176,6862,1,0,0:0:0:0:
173,181,7384,1,0,0:0:0:0:
174,185,7645,1,0,0:0:0:0:
174,192,7906,1,8,0:0:0:0:
169,167,8427,1,0,0:0:0:0:
133,171,9471,1,8,0:0:0:0:
157,191,9993,1,8,0:0:0:0:
157,191,10253,1,8,0:0:0:0:
157,191,10514,1,0,0:0:0:0:
157,191,10775,1,0,0:0:0:0:
157,191,11036,1,8,0:0:0:0:
170,169,11558,1,0,0:0:0:0:
183,194,12080,1,8,0:0:0:0:
171,161,12340,1,0,0:0:0:0:
214,182,12601,1,8,0:0:0:0:
200,182,13122,1,0,0:0:0:0:
197,187,13644,1,0,0:0:0:0:
180,138,13905,1,0,0:0:0:0:
180,138,14166,1,8,0:0:0:0:
169,144,14687,1,0,0:0:0:0:
206,148,15210,1,8,0:0:0:0:
206,148,15471,1,0,0:0:0:0:
169,113,15731,1,8,0:0:0:0:
174,128,16253,1,8,0:0:0:0:
170,123,16514,1,8,0:0:0:0:
166,125,16774,1,0,0:0:0:0:
174,128,17035,1,0,0:0:0:0:
175,108,17296,1,8,0:0:0:0:
174,130,17818,1,0,0:0:0:0:
171,135,18340,1,8,0:0:0:0:
171,135,18601,1,0,0:0:0:0:
214,182,18862,1,8,0:0:0:0:
200,182,19383,1,0,0:0:0:0:
197,187,19905,1,0,0:0:0:0:
180,138,20166,1,0,0:0:0:0:
180,138,20427,1,8,0:0:0:0:
169,144,20948,1,0,0:0:0:0:
197,110,21471,1,8,0:0:0:0:
197,110,21732,1,0,0:0:0:0:
169,113,21992,1,8,0:0:0:0:
174,128,22514,1,8,0:0:0:0:
170,123,22775,1,8,0:0:0:0:
166,125,23035,1,0,0:0:0:0:
174,128,23296,1,0,0:0:0:0:
175,108,23557,1,8,0:0:0:0:
196,121,24601,1,8,0:0:0:0:
173,85,24862,1,8,0:0:0:0:
186,150,25123,1,0,0:0:0:0:
166,122,25384,1,8,0:0:0:0:
166,122,25645,1,0,0:0:0:0:
176,103,26166,1,0,0:0:0:0:
176,103,26427,1,8,0:0:0:0:
179,109,26688,1,0,0:0:0:0:
179,109,26949,1,0,0:0:0:0:
179,109,27210,1,8,0:0:0:0:
172,130,27732,1,8,0:0:0:0:
171,108,27993,1,8,0:0:0:0:
173,113,28253,1,0,0:0:0:0:
174,114,28514,1,0,0:0:0:0:
175,117,28775,1,8,0:0:0:0:
187,132,29297,1,0,0:0:0:0:
181,112,29558,1,8,0:0:0:0:
169,83,29819,1,0,0:0:0:0:
206,160,30862,1,8,0:0:0:0:
166,97,31123,1,8,0:0:0:0:
186,150,31384,1,0,0:0:0:0:
166,122,31645,1,8,0:0:0:0:
166,122,31906,1,0,0:0:0:0:
176,103,32427,1,0,0:0:0:0:
176,103,32688,1,8,0:0:0:0:
179,109,32949,1,0,0:0:0:0:
179,109,33210,1,0,0:0:0:0:
179,109,33471,1,8,0:0:0:0:
172,130,33993,1,8,0:0:0:0:
171,108,34254,1,8,0:0:0:0:
173,113,34514,1,0,0:0:0:0:
174,114,34775,1,0,0:0:0:0:
175,117,35036,1,8,0:0:0:0:
176,108,35558,1,8,0:0:0:0:
181,112,35819,1,8,0:0:0:0:
169,83,36080,1,0,0:0:0:0:
206,160,37123,1,8,0:0:0:0:
166,97,37384,1,8,0:0:0:0:
186,150,37645,1,0,0:0:0:0:
166,122,37906,1,8,0:0:0:0:
166,122,38167,1,0,0:0:0:0:
176,103,38688,1,0,0:0:0:0:
176,103,38949,1,8,0:0:0:0:
179,109,39210,1,0,0:0:0:0:
179,109,39471,1,0,0:0:0:0:
179,109,39732,1,8,0:0:0:0:
172,130,40254,1,8,0:0:0:0:
171,108,40515,1,8,0:0:0:0:
173,113,40775,1,0,0:0:0:0:
174,114,41036,1,0,0:0:0:0:
175,117,41297,1,8,0:0:0:0:
187,132,41819,1,0,0:0:0:0:
181,112,42080,1,8,0:0:0:0:
170,73,42340,1,0,0:0:0:0:
206,160,43384,1,8,0:0:0:0:
166,97,43645,1,8,0:0:0:0:
186,150,43906,1,0,0:0:0:0:
166,122,44167,1,8,0:0:0:0:
166,122,44428,1,0,0:0:0:0:
176,103,44949,1,0,0:0:0:0:
176,103,45210,1,8,0:0:0:0:
179,109,45471,1,0,0:0:0:0:
179,109,45732,1,0,0:0:0:0:
179,109,45993,1,8,0:0:0:0:
172,130,46515,1,8,0:0:0:0:
171,108,46776,1,8,0:0:0:0:
173,113,47036,1,0,0:0:0:0:
174,114,47297,1,0,0:0:0:0:
175,117,47558,1,8,0:0:0:0:
187,132,48080,1,0,0:0:0:0:
181,112,48341,1,8,0:0:0:0:
169,83,48602,1,0,0:0:0:0:
256,192,48862,12,0,49645,0:0:0:0:
