osu file format v14

[General]
AudioFilename: audio.mp3
AudioLeadIn: 0
PreviewTime: 24536
Countdown: 0
SampleSet: Normal
StackLeniency: 0.7
Mode: 1
LetterboxInBreaks: 0
WidescreenStoryboard: 1

[Editor]
DistanceSpacing: 0.3
BeatDivisor: 1
GridSize: 32
TimelineZoom: 0.3999997

[Metadata]
Title:Faint Courage (Game Over)
TitleUnicode:Faint Courage (Game Over)
Artist:Toby Fox
ArtistUnicode:Toby Fox
Creator:Horiiizon
Version:Kantan
Source:DELTARUNE
Tags:deltarune: chapter two 2 ost original soundtrack vgm video game music electronic instrumental chiptune ralsei kris susie "radiation" 8-bit 8bit
BeatmapID:3226777
BeatmapSetID:1580283

[Difficulty]
HPDrainRate:9
CircleSize:5
OverallDifficulty:2
ApproachRate:5
SliderMultiplier:1.4
SliderTickRate:1

[Events]
//Background and Video events
0,0,"BG.png",0,-120
//Break Periods
//Storyboard Layer 0 (Background)
//Storyboard Layer 1 (Fail)
//Storyboard Layer 2 (Pass)
//Storyboard Layer 3 (Foreground)
//Storyboard Layer 4 (Overlay)
//Storyboard Sound Samples

[TimingPoints]
80,521.739130434783,6,1,0,60,1,0
25123,-100,6,1,0,60,0,1
48601,-100,6,1,0,60,0,0

[HitObjects]
214,182,80,5,8,0:0:0:0:
180,138,1645,1,8,0:0:0:0:
169,144,2166,1,0,0:0:0:0:
169,113,3210,1,8,0:0:0:0:
174,128,3732,1,8,0:0:0:0:
166,125,4253,1,0,0:0:0:0:
175,108,4775,1,8,0:0:0:0:
174,130,5297,1,0,0:0:0:0:
214,182,6340,5,8,0:0:0:0:
180,138,7905,1,8,0:0:0:0:
169,144,8426,1,0,0:0:0:0:
169,113,9470,1,8,0:0:0:0:
174,128,9992,1,8,0:0:0:0:
166,125,10513,1,0,0:0:0:0:
175,108,11035,1,8,0:0:0:0:
174,130,11557,1,0,0:0:0:0:
181,172,12080,1,0,0:0:0:0:
214,182,12601,5,8,0:0:0:0:
180,138,14166,1,8,0:0:0:0:
169,144,14687,1,0,0:0:0:0:
169,113,15731,1,8,0:0:0:0:
174,128,16253,1,8,0:0:0:0:
166,125,16774,1,0,0:0:0:0:
175,108,17296,1,8,0:0:0:0:
174,130,17818,1,0,0:0:0:0:
196,151,18340,1,0,0:0:0:0:
214,182,18862,5,8,0:0:0:0:
180,138,20427,1,8,0:0:0:0:
169,144,20948,1,0,0:0:0:0:
169,113,21992,1,8,0:0:0:0:
174,128,22514,1,8,0:0:0:0:
166,125,23035,1,0,0:0:0:0:
175,108,23557,5,8,0:0:0:0:
196,121,24601,5,8,0:0:0:0:
186,150,25123,1,0,0:0:0:0:
183,157,25645,1,0,0:0:0:0:
159,106,26166,1,8,0:0:0:0:
178,119,27732,1,8,0:0:0:0:
173,113,28253,1,0,0:0:0:0:
175,117,28775,1,8,0:0:0:0:
187,132,29297,1,0,0:0:0:0:
191,170,29819,1,8,0:0:0:0:
196,121,30862,5,8,0:0:0:0:
186,150,31384,1,0,0:0:0:0:
196,130,31906,1,0,0:0:0:0:
159,106,32427,1,8,0:0:0:0:
178,119,33993,1,8,0:0:0:0:
173,113,34514,1,0,0:0:0:0:
175,117,35036,1,8,0:0:0:0:
169,177,35558,1,8,0:0:0:0:
169,177,36080,1,0,0:0:0:0:
196,121,37123,5,8,0:0:0:0:
186,150,37645,1,0,0:0:0:0:
195,162,38166,1,0,0:0:0:0:
159,106,38688,1,8,0:0:0:0:
178,119,40254,1,8,0:0:0:0:
173,113,40775,1,0,0:0:0:0:
175,117,41297,1,8,0:0:0:0:
187,132,41819,1,0,0:0:0:0:
191,170,42341,1,8,0:0:0:0:
196,121,43384,5,8,0:0:0:0:
186,150,43906,1,0,0:0:0:0:
195,162,44427,1,0,0:0:0:0:
159,106,44949,1,8,0:0:0:0:
178,119,46515,5,8,0:0:0:0:
173,113,47036,1,0,0:0:0:0:
175,117,47558,1,8,0:0:0:0:
165,122,48080,1,8,0:0:0:0:
180,148,48601,1,0,0:0:0:0:
256,192,48862,12,0,49645,0:0:0:0:
