osu file format v14

[General]
AudioFilename: audio.mp3
AudioLeadIn: 0
PreviewTime: 382
Countdown: 0
SampleSet: Soft
StackLeniency: 0
Mode: 0
LetterboxInBreaks: 0
WidescreenStoryboard: 0

[Editor]
DistanceSpacing: 1.5
BeatDivisor: 4
GridSize: 4
TimelineZoom: 3.199999

[Metadata]
Title:Dialtone
TitleUnicode:Dialtone
Artist:Toby Fox
ArtistUnicode:Toby Fox
Creator:mrowswares
Version:SPECIL
Source:DELTARUNE
Tags:chapter 2 spamton g deltarune: two ost original soundtrack video game instrumental chiptune apo11o
BeatmapID:3237399
BeatmapSetID:1584926

[Difficulty]
HPDrainRate:8
CircleSize:10
OverallDifficulty:9
ApproachRate:10
SliderMultiplier:0.4
SliderTickRate:1

[Events]
//Background and Video events
0,0,"KROMER.jpg",0,0
//Break Periods
//Storyboard Layer 0 (Background)
//Storyboard Layer 1 (Fail)
//Storyboard Layer 2 (Pass)
//Storyboard Layer 3 (Foreground)
//Storyboard Layer 4 (Overlay)
//Storyboard Sound Samples

[TimingPoints]
382,923.076923076923,3,2,1,75,1,0
382,-1000,3,2,1,75,0,0
4074,-1000,3,2,2,5,0,0
4766,-1000,3,2,1,75,0,0
9612,-1000,3,2,2,5,0,0
10304,-1000,3,2,1,75,0,0
15151,-1000,3,2,2,5,0,0
15843,-1000,3,2,1,75,0,0
20458,-1000,3,2,2,5,0,0
20689,-1000,3,2,1,75,0,0
25535,-1000,3,2,2,5,0,0
25766,-200,3,2,1,75,0,0
26920,-1000,3,2,1,75,0,0
31074,-1000,3,2,2,5,0,0
31305,-200,3,2,1,75,0,0
32459,-1000,3,2,1,75,0,0
36612,-1000,3,2,2,5,0,0
36843,-200,3,2,1,75,0,0
37997,-1000,3,2,1,75,0,0

[Colours]
Combo1 : 187,178,0
Combo2 : 187,128,148

[HitObjects]
472,237,382,5,2,0:0:0:0:
463,328,843,1,0,0:0:0:0:
463,328,1305,1,0,0:0:0:0:
388,274,1766,1,2,0:0:0:0:
379,365,2227,1,0,0:0:0:0:
379,365,2689,1,0,0:0:0:0:
310,311,3151,6,0,B|307:310|310:313|310:311,1,4,8|0,0:0|0:0,0:0:0:0:
259,98,4766,1,2,0:0:0:0:
236,91,4997,1,0,0:0:0:0:
229,69,5228,1,0,0:0:0:0:
247,50,5458,1,2,0:0:0:0:
270,56,5689,1,0,0:0:0:0:
275,82,5920,5,2,0:0:0:0:
158,20,6381,1,0,0:0:0:0:
158,20,6843,1,0,0:0:0:0:
163,153,7305,1,2,0:0:0:0:
275,82,7766,1,0,0:0:0:0:
275,82,8228,1,0,0:0:0:0:
389,14,8689,6,0,B|386:13|389:16|389:14,1,4,8|0,0:0|0:0,0:0:0:0:
246,239,10305,1,0,0:0:0:0:
223,234,10535,1,2,0:0:0:0:
200,229,10766,1,0,0:0:0:0:
177,224,10997,1,2,0:0:0:0:
154,219,11228,1,0,0:0:0:0:
131,214,11458,5,2,0:0:0:0:
111,306,11920,1,0,0:0:0:0:
111,306,12381,1,0,0:0:0:0:
203,326,12843,1,2,0:0:0:0:
223,234,13305,1,0,0:0:0:0:
223,234,13766,1,0,0:0:0:0:
131,214,14228,6,0,B|128:213|131:216|131:214,1,4,8|0,0:0|0:0,0:0:0:0:
54,348,15843,1,2,0:0:0:0:
54,315,16074,1,0,0:0:0:0:
84,332,16305,1,0,0:0:0:0:
35,377,16535,1,10,0:0:0:0:
35,329,16766,1,0,0:0:0:0:
77,354,16997,5,2,0:0:0:0:
67,240,17458,1,0,0:0:0:0:
67,240,17920,1,0,0:0:0:0:
129,292,18382,1,2,0:0:0:0:
15,302,18843,1,0,0:0:0:0:
15,302,19305,1,0,0:0:0:0:
10,278,19535,5,2,0:0:0:0:
10,278,19651,1,2,0:0:0:0:
10,278,19766,2,0,B|10:276|11:278|9:278,1,3,10|0,0:0|0:0,0:0:0:0:
39,260,20689,5,2,0:0:0:0:
36,226,20920,1,0,0:0:0:0:
33,192,21151,1,2,0:0:0:0:
15,210,21843,1,0,0:0:0:0:
12,176,22074,1,2,0:0:0:0:
9,142,22305,1,0,0:0:0:0:
6,108,22535,5,6,0:0:0:0:
123,84,22997,1,0,0:0:0:0:
123,84,23458,1,0,0:0:0:0:
134,139,23920,1,2,0:0:0:0:
251,115,24382,1,0,0:0:0:0:
251,115,24843,1,0,0:0:0:0:
261,171,25305,6,0,L|262:171,1,1,8|0,0:0|0:0,0:0:0:0:
363,157,25766,5,4,0:0:0:0:
363,157,25824,2,0,L|363:158,15,1.25
364,218,26920,5,2,0:0:0:0:
385,213,27151,1,0,0:0:0:0:
390,235,27382,1,0,0:0:0:0:
368,239,27612,1,2,0:0:0:0:
372,261,27843,1,0,0:0:0:0:
394,257,28074,5,6,0:0:0:0:
423,382,28535,1,0,0:0:0:0:
423,382,28997,1,0,0:0:0:0:
512,357,29458,5,2,0:0:0:0:
483,232,29919,1,0,0:0:0:0:
483,232,30381,1,0,0:0:0:0:
454,107,30843,6,0,L|455:107,1,1,8|0,0:0|0:0,0:0:0:0:
361,195,31305,5,4,0:0:0:0:
361,195,31362,2,0,L|361:196,15,1.25
418,154,32458,5,0,0:0:0:0:
397,149,32689,1,2,0:0:0:0:
423,132,32920,1,0,0:0:0:0:
401,128,33150,1,2,0:0:0:0:
427,110,33381,1,2,0:0:0:0:
405,106,33612,5,6,0:0:0:0:
314,132,34074,1,0,0:0:0:0:
314,132,34535,1,0,0:0:0:0:
256,151,34997,5,2,0:0:0:0:
165,177,35459,1,0,0:0:0:0:
165,177,35920,1,0,0:0:0:0:
256,151,36382,6,0,L|257:151,1,1,8|0,0:0|0:0,0:0:0:0:
230,233,36843,5,4,0:0:0:0:
230,233,36901,2,0,L|230:234,15,1.25
280,301,37997,5,0,0:0:0:0:
256,292,38228,1,2,0:0:0:0:
231,282,38458,1,0,0:0:0:0:
233,323,38689,1,2,0:0:0:0:
256,292,38920,1,0,0:0:0:0:
279,261,39151,5,6,0:0:0:0:
212,156,39612,1,0,0:0:0:0:
212,156,40074,1,0,0:0:0:0:
145,51,40535,5,2,0:0:0:0:
212,156,40996,1,0,0:0:0:0:
212,156,41458,1,0,0:0:0:0:
233,159,41689,5,2,0:0:0:0:
233,159,41805,1,2,0:0:0:0:
233,159,41920,1,10,0:0:0:0:
146,9,42843,5,2,0:0:0:0:
113,8,43074,1,0,0:0:0:0:
80,7,43305,1,2,0:0:0:0:
95,28,43997,1,0,0:0:0:0:
62,27,44228,1,2,0:0:0:0:
29,26,44459,1,0,0:0:0:0:
