osu file format v14

[General]
AudioFilename: audio.mp3
AudioLeadIn: 0
PreviewTime: 382
Countdown: 0
SampleSet: Soft
StackLeniency: 0.6
Mode: 0
LetterboxInBreaks: 0
WidescreenStoryboard: 1

[Editor]
DistanceSpacing: 1.5
BeatDivisor: 4
GridSize: 4
TimelineZoom: 1.7

[Metadata]
Title:Dialtone
TitleUnicode:Dialtone
Artist:Toby Fox
ArtistUnicode:Toby Fox
Creator:mrowswares
Version:HARD !!
Source:DELTARUNE
Tags:chapter 2 spamton g deltarune: two ost original soundtrack video game instrumental chiptune apo11o
BeatmapID:3237398
BeatmapSetID:1584926

[Difficulty]
HPDrainRate:7
CircleSize:5
OverallDifficulty:6
ApproachRate:7
SliderMultiplier:2
SliderTickRate:1

[Events]
//Background and Video events
0,0,"KEYGEN.jpg",0,0
//Break Periods
//Storyboard Layer 0 (Background)
//Storyboard Layer 1 (Fail)
//Storyboard Layer 2 (Pass)
//Storyboard Layer 3 (Foreground)
//Storyboard Layer 4 (Overlay)
//Storyboard Sound Samples

[TimingPoints]
382,923.076923076923,3,2,1,75,1,0
4074,-100,3,2,1,5,0,0
4766,-100,3,2,1,75,0,0
9612,-100,3,2,1,5,0,0
10304,-100,3,2,1,75,0,0
15151,-100,3,2,1,5,0,0
15843,-100,3,2,1,75,0,0
20458,-100,3,2,1,5,0,0
20689,-100,3,2,1,75,0,0
25535,-100,3,2,1,5,0,0
25766,-100,3,2,1,75,0,0
31074,-100,3,2,1,5,0,0
31305,-100,3,2,1,75,0,0
36612,-100,3,2,1,5,0,0
36843,-100,3,2,1,75,0,0

[Colours]
Combo1 : 187,178,0
Combo2 : 187,128,148

[HitObjects]
315,84,382,6,0,L|377:78,1,50,2|0,0:0|0:0,0:0:0:0:
420,28,843,2,0,P|440:72|430:120,1,100
282,146,1766,2,0,L|220:140,1,50,2|0,0:0|0:0,0:0:0:0:
177,90,2227,2,0,P|156:134|166:182,1,100
315,204,3151,1,8,0:0:0:0:
156,343,4766,5,2,0:0:0:0:
156,343,4997,2,0,P|129:346|88:339,1,50
45,316,5458,1,2,0:0:0:0:
45,316,5689,1,0,0:0:0:0:
45,316,5920,6,0,L|47:246,1,50,2|0,0:0|0:0,0:0:0:0:
118,243,6381,2,0,L|114:366,1,100
255,289,7305,2,0,L|257:219,1,50,2|0,0:0|0:0,0:0:0:0:
186,212,7766,2,0,L|183:311,1,100
47,247,8689,1,8,0:0:0:0:
18,61,10305,5,0,0:0:0:0:
18,61,10535,1,2,0:0:0:0:
18,61,10766,2,0,L|12:11,2,50,0|2|0,0:0|0:0|0:0,0:0:0:0:
83,97,11458,6,0,P|119:99|144:85,1,50,2|0,0:0|0:0,0:0:0:0:
198,128,11920,2,0,P|177:83|187:35,1,100
372,156,12843,2,0,P|336:158|311:144,1,50,2|0,0:0|0:0,0:0:0:0:
257,187,13305,2,0,P|277:142|267:94,1,100
123,215,14228,1,8,0:0:0:0:
292,366,15843,6,0,L|235:377,2,50,2|0|0,0:0|0:0|0:0,0:0:0:0:
370,350,16535,1,10,0:0:0:0:
370,350,16766,1,0,0:0:0:0:
370,350,16997,6,0,P|362:317|340:296,1,50,2|0,0:0|0:0,0:0:0:0:
407,254,17458,2,0,P|436:302|444:363,1,100
329,247,18382,2,0,P|336:214|358:193,1,50,2|0,0:0|0:0,0:0:0:0:
292,151,18843,2,0,P|263:199|255:260,1,100
291,312,19535,1,2,0:0:0:0:
291,312,19766,1,10,0:0:0:0:
485,85,20689,5,2,0:0:0:0:
485,85,20920,1,0,0:0:0:0:
485,85,21151,1,2,0:0:0:0:
262,50,21843,2,0,L|258:-2,2,50,0|2|0,0:0|0:0|0:0,0:0:0:0:
209,103,22535,6,0,P|186:94|161:93,1,50,6|0,0:0|0:0,0:0:0:0:
112,34,22997,1,0,0:0:0:0:
16,105,23458,1,0,0:0:0:0:
53,219,23920,2,0,P|77:212|98:199,1,50,2|0,0:0|0:0,0:0:0:0:
172,219,24382,1,0,0:0:0:0:
209,103,24843,1,0,0:0:0:0:
112,34,25305,2,0,P|97:53|87:76,1,50,8|0,0:0|0:0,0:0:0:0:
114,137,25766,1,4,0:0:0:0:
11,374,26920,5,2,0:0:0:0:
11,374,27151,1,0,0:0:0:0:
11,374,27382,1,0,0:0:0:0:
11,374,27612,1,2,0:0:0:0:
11,374,27843,1,0,0:0:0:0:
11,374,28074,6,0,P|8:346|21:315,1,50,6|0,0:0|0:0,0:0:0:0:
0,250,28535,1,0,0:0:0:0:
121,240,28997,1,0,0:0:0:0:
89,358,29458,2,0,P|112:365|137:362,1,50,2|0,0:0|0:0,0:0:0:0:
210,381,29920,1,0,0:0:0:0:
175,263,30381,1,0,0:0:0:0:
294,233,30843,2,0,P|301:256|298:281,1,50,8|0,0:0|0:0,0:0:0:0:
325,351,31305,1,4,0:0:0:0:
511,191,32458,5,0,0:0:0:0:
511,191,32689,1,2,0:0:0:0:
511,191,32920,1,0,0:0:0:0:
511,191,33151,1,2,0:0:0:0:
511,191,33382,1,2,0:0:0:0:
511,191,33612,6,0,P|486:184|455:187,1,50,6|0,0:0|0:0,0:0:0:0:
416,255,34074,1,0,0:0:0:0:
353,186,34535,1,0,0:0:0:0:
293,254,34997,2,0,P|268:261|237:258,1,50,2|0,0:0|0:0,0:0:0:0:
201,188,35458,1,0,0:0:0:0:
145,257,35920,1,0,0:0:0:0:
100,190,36382,2,0,P|75:183|44:186,1,50,8|0,0:0|0:0,0:0:0:0:
4,251,36843,1,4,0:0:0:0:
6,6,37997,5,0,0:0:0:0:
6,6,38228,1,2,0:0:0:0:
6,6,38458,1,0,0:0:0:0:
6,6,38689,1,2,0:0:0:0:
6,6,38920,1,0,0:0:0:0:
6,6,39151,6,0,L|70:9,1,50,6|0,0:0|0:0,0:0:0:0:
68,82,39612,1,0,0:0:0:0:
76,163,40074,1,0,0:0:0:0:
147,115,40535,2,0,L|211:118,1,50,2|0,0:0|0:0,0:0:0:0:
209,199,40997,1,0,0:0:0:0:
227,283,41458,1,0,0:0:0:0:
227,283,41689,1,2,0:0:0:0:
227,283,41920,1,10,0:0:0:0:
498,370,42843,5,2,0:0:0:0:
422,370,43074,1,0,0:0:0:0:
346,367,43305,1,2,0:0:0:0:
339,142,43997,1,0,0:0:0:0:
415,142,44228,1,2,0:0:0:0:
491,139,44459,1,0,0:0:0:0:
