osu file format v14

[General]
AudioFilename: audio.mp3
AudioLeadIn: 0
PreviewTime: 382
Countdown: 0
SampleSet: Soft
StackLeniency: 0.6
Mode: 0
LetterboxInBreaks: 0
WidescreenStoryboard: 1

[Editor]
DistanceSpacing: 1
BeatDivisor: 4
GridSize: 4
TimelineZoom: 1.7

[Metadata]
Title:Dialtone
TitleUnicode:Dialtone
Artist:Toby Fox
ArtistUnicode:Toby Fox
Creator:mrowswares
Version:[[osu!]] [[CS0]] NORMAL
Source:DELTARUNE
Tags:chapter 2 spamton g deltarune: two ost original soundtrack video game instrumental chiptune apo11o
BeatmapID:3272739
BeatmapSetID:1584926

[Difficulty]
HPDrainRate:3
CircleSize:0
OverallDifficulty:4
ApproachRate:5
SliderMultiplier:2.5
SliderTickRate:1

[Events]
//Background and Video events
0,0,"KEYGEN.jpg",0,0
//Break Periods
//Storyboard Layer 0 (Background)
//Storyboard Layer 1 (Fail)
//Storyboard Layer 2 (Pass)
//Storyboard Layer 3 (Foreground)
//Storyboard Layer 4 (Overlay)
//Storyboard Sound Samples

[TimingPoints]
382,923.076923076923,3,2,1,75,1,0

[Colours]
Combo1 : 187,178,0
Combo2 : 187,128,148

[HitObjects]
146,359,382,6,0,P|84:367|22:358,2,125,2|0|0,0:0|0:0|0:0,0:0:0:0:
269,342,1766,2,0,P|330:333|392:342,2,125,2|0|0,0:0|0:0|0:0,0:0:0:0:
147,373,3151,1,8,0:0:0:0:
477,361,4766,5,2,0:0:0:0:
477,361,4997,2,0,P|492:333|498:303,2,62.5,0|0|2,0:0|0:0|0:0,0:0:0:0:
414,363,5689,1,0,0:0:0:0:
414,363,5920,6,0,P|341:343|270:368,2,125,2|0|0,0:0|0:0|0:0,0:0:0:0:
430,239,7305,2,0,P|371:219|310:229,2,125,2|0|0,0:0|0:0|0:0,0:0:0:0:
486,350,8689,1,8,0:0:0:0:
61,244,10305,6,0,L|0:235,2,62.5,0|2|0,0:0|0:0|0:0,0:0:0:0:
106,287,10997,2,0,L|184:298,1,62.5,2|0,0:0|0:0,0:0:0:0:
211,340,11458,6,0,L|348:330,2,125,2|0|0,0:0|0:0|0:0,0:0:0:0:
123,250,12843,2,0,L|-1:259,2,125,2|0|0,0:0|0:0|0:0,0:0:0:0:
247,236,14228,1,8,0:0:0:0:
0,356,15843,6,0,L|105:345,1,62.5,2|0,0:0|0:0,0:0:0:0:
116,318,16305,2,0,L|221:307,1,62.5,0|10,0:0|0:0,0:0:0:0:
212,261,16766,5,0,0:0:0:0:
212,261,16997,2,0,L|369:248,2,125,2|0|0,0:0|0:0|0:0,0:0:0:0:
290,358,18382,2,0,L|447:345,2,125,2|0|0,0:0|0:0|0:0,0:0:0:0:
233,366,19535,1,2,0:0:0:0:
233,366,19766,1,10,0:0:0:0:
457,256,20689,5,2,0:0:0:0:
332,249,21151,1,2,0:0:0:0:
160,192,21843,1,0,0:0:0:0:
160,192,22074,1,2,0:0:0:0:
62,114,22535,5,6,0:0:0:0:
1,4,22997,1,0,0:0:0:0:
125,8,23458,1,0,0:0:0:0:
184,117,23920,1,2,0:0:0:0:
272,28,24382,1,0,0:0:0:0:
396,14,24843,1,0,0:0:0:0:
493,91,25305,1,8,0:0:0:0:
403,174,25766,1,4,0:0:0:0:
132,17,26920,6,0,P|87:8|47:8,2,62.5
192,32,27612,1,0,0:0:0:0:
318,11,28074,5,6,0:0:0:0:
442,6,28535,1,0,0:0:0:0:
450,130,28997,1,0,0:0:0:0:
325,141,29458,1,2,0:0:0:0:
327,15,29920,1,0,0:0:0:0:
202,11,30381,1,0,0:0:0:0:
78,29,30843,1,8,0:0:0:0:
63,153,31305,1,4,0:0:0:0:
346,21,32458,6,0,P|388:35|423:57,2,62.5
284,34,33151,1,0,0:0:0:0:
162,11,33612,5,6,0:0:0:0:
40,41,34074,1,0,0:0:0:0:
11,162,34535,1,0,0:0:0:0:
132,132,34997,1,2,0:0:0:0:
254,155,35458,1,0,0:0:0:0:
372,115,35920,1,0,0:0:0:0:
489,72,36382,1,8,0:0:0:0:
382,6,36843,1,4,0:0:0:0:
70,34,37997,5,0,0:0:0:0:
70,34,38228,2,0,P|41:21|10:15,2,62.5
172,113,39151,5,6,0:0:0:0:
246,12,39612,1,0,0:0:0:0:
318,113,40074,1,0,0:0:0:0:
403,21,40535,1,2,0:0:0:0:
501,97,40997,1,0,0:0:0:0:
417,189,41458,1,0,0:0:0:0:
319,115,41920,1,10,0:0:0:0:
82,35,42843,5,2,0:0:0:0:
85,160,43305,1,2,0:0:0:0:
201,307,43997,1,0,0:0:0:0:
201,307,44228,1,2,0:0:0:0:
