osu file format v14

[General]
AudioFilename: audio.mp3
AudioLeadIn: 0
PreviewTime: 382
Countdown: 0
SampleSet: Soft
StackLeniency: 0.8
Mode: 0
LetterboxInBreaks: 0
WidescreenStoryboard: 1

[Editor]
DistanceSpacing: 1.5
BeatDivisor: 8
GridSize: 4
TimelineZoom: 1.7

[Metadata]
Title:Dialtone
TitleUnicode:Dialtone
Artist:Toby Fox
ArtistUnicode:Toby Fox
Creator:mrowswares
Version:[[Insane]]
Source:DELTARUNE
Tags:chapter 2 spamton g deltarune: two ost original soundtrack video game instrumental chiptune apo11o
BeatmapID:3237397
BeatmapSetID:1584926

[Difficulty]
HPDrainRate:7
CircleSize:7
OverallDifficulty:7.5
ApproachRate:8
SliderMultiplier:0.799999999999999
SliderTickRate:1

[Events]
//Background and Video events
0,0,"KEYGEN.jpg",0,0
//Break Periods
//Storyboard Layer 0 (Background)
//Storyboard Layer 1 (Fail)
//Storyboard Layer 2 (Pass)
//Storyboard Layer 3 (Foreground)
//Storyboard Layer 4 (Overlay)
//Storyboard Sound Samples

[TimingPoints]
382,923.076923076923,3,2,1,75,1,0
4074,-100,3,2,1,5,0,0
4766,-100,3,2,1,75,0,0
9612,-100,3,2,1,5,0,0
10304,-100,3,2,1,75,0,0
15151,-100,3,2,1,5,0,0
15843,-100,3,2,1,75,0,0
20458,-100,3,2,1,5,0,0
20689,-100,3,2,1,75,0,0
25535,-100,3,2,1,5,0,0
25766,-100,3,2,1,75,0,0
31074,-100,3,2,1,5,0,0
31305,-100,3,2,1,75,0,0
36612,-100,3,2,1,5,0,0
36843,-100,3,2,1,75,0,0

[Colours]
Combo1 : 187,178,0
Combo2 : 187,128,148

[HitObjects]
481,38,382,5,2,0:0:0:0:
481,38,843,2,0,P|461:25|429:19,1,40
319,126,1766,1,2,0:0:0:0:
319,126,2227,2,0,P|299:113|267:107,1,40
157,214,3151,1,8,0:0:0:0:
283,362,4766,5,2,0:0:0:0:
347,365,4997,1,0,0:0:0:0:
411,370,5228,1,0,0:0:0:0:
418,310,5458,1,2,0:0:0:0:
354,305,5689,1,0,0:0:0:0:
290,302,5920,5,2,0:0:0:0:
290,302,6381,2,0,P|302:281|305:253,1,40
163,336,7305,1,2,0:0:0:0:
163,336,7766,2,0,P|175:315|178:287,1,40
36,370,8689,1,8,0:0:0:0:
48,189,10305,5,0,0:0:0:0:
90,232,10535,1,2,0:0:0:0:
107,175,10766,1,0,0:0:0:0:
149,218,10997,1,2,0:0:0:0:
166,161,11228,1,0,0:0:0:0:
128,117,11458,5,2,0:0:0:0:
128,117,11920,2,0,P|114:83|113:73,1,40
235,60,12843,1,2,0:0:0:0:
235,60,13305,2,0,P|221:26|220:16,1,40
342,3,14228,1,8,0:0:0:0:
506,181,15843,5,2,0:0:0:0:
448,172,16073,1,0,0:0:0:0:
390,163,16305,1,0,0:0:0:0:
337,182,16535,1,10,0:0:0:0:
279,173,16765,1,0,0:0:0:0:
221,164,16997,5,2,0:0:0:0:
221,164,17458,2,0,P|200:157|175:157,1,40
285,300,18382,1,2,0:0:0:0:
285,300,18843,2,0,P|264:293|239:293,1,40
137,341,19535,1,2,0:0:0:0:
137,341,19651,1,2,0:0:0:0:
137,341,19766,1,10,0:0:0:0:
93,154,20689,5,2,0:0:0:0:
21,142,20920,1,0,0:0:0:0:
47,211,21151,1,2,0:0:0:0:
114,29,21843,5,0,0:0:0:0:
186,17,22074,1,2,0:0:0:0:
160,86,22305,1,0,0:0:0:0:
76,103,22535,5,6,0:0:0:0:
76,103,22997,2,0,L|65:61,1,40
41,252,23920,1,2,0:0:0:0:
41,252,24382,2,0,L|30:210,1,40
0,378,25305,1,8,0:0:0:0:
134,308,25766,6,2,B|137:307|137:307|139:308|139:308|142:307|142:307|144:308|144:308|146:307|146:307|149:308|149:308|152:306|152:306|155:308|155:308|158:306|158:306|161:308|161:308|165:306|165:306|168:308|168:308|171:306|171:306|173:308|173:308|175:306|175:306|176:308|176:308|178:306|178:306|180:308|180:308|182:306|182:306|184:308|184:308|188:306|188:306|190:308|190:308|193:306|193:306|194:308|194:308|197:306|197:306|198:309,1,79.9999999999999,4|0,0:0|0:0,0:1:0:0:
265,352,26920,5,2,0:0:0:0:
332,341,27151,1,0,0:0:0:0:
321,274,27382,1,0,0:0:0:0:
254,285,27612,1,2,0:0:0:0:
265,352,27843,1,0,0:0:0:0:
332,341,28074,5,6,0:0:0:0:
332,341,28535,2,0,P|367:341|385:344,1,40
386,218,29458,1,2,0:0:0:0:
386,218,29919,2,0,P|421:218|439:221,1,40
440,95,30843,1,8,0:0:0:0:
344,150,31305,6,2,B|341:151|341:151|339:150|339:150|336:151|336:151|334:150|334:150|332:151|332:151|329:150|329:150|326:152|326:152|323:150|323:150|320:152|320:152|317:150|317:150|313:152|313:152|310:150|310:150|307:152|307:152|305:150|305:150|303:152|303:152|302:150|302:150|300:152|300:152|298:150|298:150|296:152|296:152|294:150|294:150|290:152|290:152|288:150|288:150|285:152|285:152|284:150|284:150|281:152|281:152|280:149,1,79.9999999999999,4|0,0:0|0:0,0:1:0:0:
233,109,32458,5,0,0:0:0:0:
166,98,32689,1,2,0:0:0:0:
177,31,32920,1,0,0:0:0:0:
244,42,33150,1,2,0:0:0:0:
233,109,33381,1,2,0:0:0:0:
166,98,33612,5,6,0:0:0:0:
166,98,34074,2,0,P|194:82|213:66,1,40
217,238,34997,1,2,0:0:0:0:
217,238,35459,2,0,P|245:222|264:206,1,40
268,378,36382,1,8,0:0:0:0:
143,324,36843,6,2,B|140:325|140:325|138:324|138:324|135:325|135:325|133:324|133:324|131:325|131:325|128:324|128:324|125:326|125:326|122:324|122:324|119:326|119:326|116:324|116:324|112:326|112:326|109:324|109:324|106:326|106:326|104:324|104:324|102:326|102:326|101:324|101:324|99:326|99:326|97:324|97:324|95:326|95:326|93:324|93:324|89:326|89:326|87:324|87:324|84:326|84:326|83:324|83:324|80:326|80:326|79:323,1,79.9999999999999,4|0,0:0|0:0,0:1:0:0:
16,295,37997,5,0,0:0:0:0:
8,216,38228,1,2,0:0:0:0:
61,262,38458,1,0,0:0:0:0:
53,183,38689,1,2,0:0:0:0:
104,233,38920,1,0,0:0:0:0:
96,154,39151,5,6,0:0:0:0:
96,154,39612,2,0,L|44:156,1,40
229,120,40535,1,2,0:0:0:0:
229,120,40996,2,0,L|177:122,1,40
99,72,41689,1,2,0:0:0:0:
99,72,41805,1,2,0:0:0:0:
99,72,41920,1,10,0:0:0:0:
351,55,42843,5,2,0:0:0:0:
261,45,43074,1,0,0:0:0:0:
298,128,43305,1,2,0:0:0:0:
391,219,43997,5,0,0:0:0:0:
481,209,44228,1,2,0:0:0:0:
444,292,44459,1,0,0:0:0:0:
