osu file format v14

[General]
AudioFilename: audio.mp3
AudioLeadIn: 0
PreviewTime: 22535
Countdown: 0
SampleSet: Normal
StackLeniency: 0.7
Mode: 1
LetterboxInBreaks: 0
WidescreenStoryboard: 0

[Editor]
DistanceSpacing: 2.4
BeatDivisor: 9
GridSize: 32
TimelineZoom: 1.8

[Metadata]
Title:Dialtone
TitleUnicode:Dialtone
Artist:Toby Fox
ArtistUnicode:Toby Fox
Creator:WhenYouSeeIt
Version:[[HYPERLINK BLOCKED]]
Source:DELTARUNE
Tags:ost vgm electronic original soundtrack instrumental video game music spamton "radiation" g. chapter 2 undertale deltarune cyber world two chiptune
BeatmapID:3701321
BeatmapSetID:1787972

[Difficulty]
HPDrainRate:9
CircleSize:4.5
OverallDifficulty:2.5
ApproachRate:8.8
SliderMultiplier:1.40000000596046
SliderTickRate:1

[Events]
//Background and Video events
0,0,"bgxd.png",0,0
//Break Periods
//Storyboard Layer 0 (Background)
//Storyboard Layer 1 (Fail)
//Storyboard Layer 2 (Pass)
//Storyboard Layer 3 (Foreground)
//Storyboard Layer 4 (Overlay)
//Storyboard Sound Samples

[TimingPoints]
382,923.076923076923,3,1,0,65,1,0
382,-333.333333333333,3,1,0,65,0,0
19530,-200,3,1,0,65,0,0
20684,-333.333333333333,3,1,0,65,0,0
25760,-71.4285714285714,3,1,0,45,0,0
26914,-333.333333333333,3,1,0,65,0,0
31299,-71.4285714285714,3,1,0,45,0,0
32452,-333.333333333333,3,1,0,65,0,0
36837,-71.4285714285714,3,1,0,45,0,0
37991,-333.333333333333,3,1,0,65,0,0
41684,-200,3,1,0,65,0,0
42837,-333.333333333333,3,1,0,40,0,0
43069,-333.333333333333,3,1,0,35,0,0
43299,-333.333333333333,3,1,0,30,0,0
43991,-333.333333333333,3,1,0,25,0,0
44223,-333.333333333333,3,1,0,20,0,0
44450,-333.333333333333,3,1,0,15,0,0

[HitObjects]
256,191,382,5,8,0:0:0:0:
256,191,843,1,0,0:0:0:0:
256,191,1305,1,0,0:0:0:0:
256,191,1766,1,8,0:0:0:0:
256,191,2228,1,0,0:0:0:0:
256,191,2689,1,0,0:0:0:0:
255,192,3151,1,8,0:0:0:0:
255,191,4766,1,8,0:0:0:0:
256,191,4997,1,0,0:0:0:0:
256,191,5228,1,0,0:0:0:0:
256,191,5458,1,8,0:0:0:0:
256,191,5689,1,8,0:0:0:0:
256,191,5920,1,0,0:0:0:0:
256,191,6381,1,8,0:0:0:0:
256,191,6843,1,8,0:0:0:0:
256,191,7305,1,0,0:0:0:0:
256,191,7766,1,8,0:0:0:0:
256,191,8228,1,8,0:0:0:0:
255,192,8689,1,0,0:0:0:0:
256,191,10305,1,8,0:0:0:0:
256,191,10535,1,0,0:0:0:0:
256,191,10766,1,8,0:0:0:0:
255,191,10997,1,0,0:0:0:0:
255,192,11228,1,8,0:0:0:0:
256,191,11458,1,8,0:0:0:0:
256,191,11920,1,0,0:0:0:0:
256,191,12381,1,0,0:0:0:0:
256,191,12843,1,8,0:0:0:0:
256,191,13305,1,0,0:0:0:0:
256,191,13766,1,0,0:0:0:0:
255,192,14228,1,8,0:0:0:0:
255,191,15843,1,0,0:0:0:0:
255,191,16074,1,8,0:0:0:0:
255,191,16305,1,0,0:0:0:0:
255,191,16535,1,8,0:0:0:0:
255,191,16766,1,8,0:0:0:0:
255,191,16997,1,0,0:0:0:0:
255,191,17458,1,8,0:0:0:0:
255,191,17920,1,8,0:0:0:0:
255,191,18381,1,0,0:0:0:0:
255,191,18843,1,8,0:0:0:0:
255,191,19305,1,8,0:0:0:0:
255,191,19535,1,8,0:0:0:0:
255,191,19651,1,8,0:0:0:0:
255,191,19766,1,0,0:0:0:0:
255,191,20689,1,8,0:0:0:0:
255,191,20920,1,0,0:0:0:0:
255,191,21151,1,8,0:0:0:0:
255,191,21843,1,0,0:0:0:0:
255,191,22074,1,8,0:0:0:0:
255,191,22305,1,8,0:0:0:0:
255,191,22535,1,0,0:0:0:0:
255,191,22997,1,8,0:0:0:0:
255,191,23458,1,8,0:0:0:0:
255,191,23920,1,0,0:0:0:0:
255,191,24381,1,8,0:0:0:0:
255,191,24843,1,8,0:0:0:0:
255,191,25305,1,0,0:0:0:0:
286,73,25766,2,0,B|343:55|343:55|401:118|401:118|383:181,1,195.999994853019
255,192,26920,1,8,0:0:0:0:
255,192,27151,1,0,0:0:0:0:
255,192,27381,1,0,0:0:0:0:
255,192,27612,1,8,0:0:0:0:
255,192,27843,1,8,0:0:0:0:
255,192,28074,1,0,0:0:0:0:
255,192,28535,1,8,0:0:0:0:
255,192,28997,1,8,0:0:0:0:
255,192,29458,1,0,0:0:0:0:
255,192,29920,1,8,0:0:0:0:
255,192,30381,1,8,0:0:0:0:
255,192,30843,1,0,0:0:0:0:
226,73,31305,2,0,B|168:55|168:55|110:118|110:118|130:176,1,208.249994531333
255,191,32458,1,0,0:0:0:0:
255,191,32689,1,8,0:0:0:0:
255,191,32920,1,8,0:0:0:0:
255,191,33151,1,0,0:0:0:0:
255,191,33382,1,8,0:0:0:0:
255,191,33612,1,0,0:0:0:0:
255,191,34074,1,8,0:0:0:0:
255,191,34535,1,8,0:0:0:0:
255,191,34997,1,0,0:0:0:0:
255,191,35458,1,8,0:0:0:0:
255,191,35920,1,8,0:0:0:0:
255,191,36381,1,0,0:0:0:0:
286,311,36843,2,0,B|343:328|343:328|401:265|401:265|383:202,1,195.999994853019
255,191,37997,1,0,0:0:0:0:
255,191,38228,1,8,0:0:0:0:
255,191,38458,1,0,0:0:0:0:
255,191,38689,1,8,0:0:0:0:
255,191,38920,1,8,0:0:0:0:
255,191,39151,1,0,0:0:0:0:
255,191,39612,1,8,0:0:0:0:
255,191,40074,1,8,0:0:0:0:
255,191,40535,1,0,0:0:0:0:
255,191,40997,1,8,0:0:0:0:
256,191,41458,1,8,0:0:0:0:
255,191,41689,1,8,0:0:0:0:
256,191,41805,1,8,0:0:0:0:
256,191,41920,1,0,0:0:0:0:
255,191,42843,1,8,0:0:0:0:
255,191,43074,1,0,0:0:0:0:
255,191,43305,1,8,0:0:0:0:
255,191,43997,1,0,0:0:0:0:
255,191,44228,1,8,0:0:0:0:
255,191,44458,1,0,0:0:0:0:
