osu file format v14

[General]
AudioFilename: audio.mp3
AudioLeadIn: 0
PreviewTime: 107
Countdown: 0
SampleSet: Normal
StackLeniency: 0.7
Mode: 2
LetterboxInBreaks: 0
WidescreenStoryboard: 0

[Editor]
DistanceSpacing: 1.1
BeatDivisor: 4
GridSize: 16
TimelineZoom: 3.100004

[Metadata]
Title:Determination
TitleUnicode:Determination
Artist:Toby Fox
ArtistUnicode:Toby Fox
Creator:whitefox59
Version:Platter
Source:
Tags:Undertale determination OST
BeatmapID:1172003
BeatmapSetID:553140

[Difficulty]
HPDrainRate:6
CircleSize:4
OverallDifficulty:8.2
ApproachRate:8.2
SliderMultiplier:1.4
SliderTickRate:1

[Events]
//Background and Video events
0,0,"lput1362.png",0,0
//Break Periods
//Storyboard Layer 0 (Background)
//Storyboard Layer 1 (Fail)
//Storyboard Layer 2 (Pass)
//Storyboard Layer 3 (Foreground)
//Storyboard Sound Samples

[TimingPoints]
107,521.739130434783,4,1,0,60,1,0
29846,-50,4,1,0,60,0,0
30889,-100,4,1,0,60,0,0

[Colours]
Combo1 : 128,0,128
Combo2 : 128,0,64
Combo3 : 128,0,0
Combo4 : 255,0,0

[HitObjects]
464,336,107,5,0,0:0:0:0:
320,304,367,1,0,0:0:0:0:
176,256,628,1,0,0:0:0:0:
320,192,889,1,0,0:0:0:0:
464,144,1150,1,0,0:0:0:0:
176,128,1411,1,0,0:0:0:0:
32,80,1672,1,0,0:0:0:0:
32,80,2193,1,0,0:0:0:0:
384,224,2715,5,0,0:0:0:0:
240,144,2976,1,0,0:0:0:0:
96,80,3237,1,0,0:0:0:0:
464,112,3759,1,0,0:0:0:0:
48,112,4280,1,0,0:0:0:0:
432,88,4802,2,0,L|216:288,1,280
112,320,6367,5,0,0:0:0:0:
336,272,6628,1,0,0:0:0:0:
144,176,6889,1,0,0:0:0:0:
352,128,7150,1,0,0:0:0:0:
464,48,7411,1,0,0:0:0:0:
272,16,7672,1,0,0:0:0:0:
80,16,7933,1,0,0:0:0:0:
272,16,8454,1,0,0:0:0:0:
464,48,8976,5,0,0:0:0:0:
256,80,9237,1,0,0:0:0:0:
80,144,9498,1,0,0:0:0:0:
432,48,10019,1,0,0:0:0:0:
80,48,10541,1,0,0:0:0:0:
352,48,11063,2,0,B|452:328|452:328,1,280
128,320,12628,5,0,0:0:0:0:
40,192,12890,1,0,0:0:0:0:
264,320,13150,1,0,0:0:0:0:
352,192,13412,1,0,0:0:0:0:
96,192,13672,1,0,0:0:0:0:
256,192,13933,1,0,0:0:0:0:
416,192,14193,1,0,0:0:0:0:
480,192,14715,1,0,0:0:0:0:
112,320,15237,6,0,L|16:288,2,70
448,192,16280,1,0,0:0:0:0:
192,176,16802,1,0,0:0:0:0:
448,181,17324,2,0,L|164:77,1,280
384,320,18889,5,0,0:0:0:0:
512,240,19150,1,0,0:0:0:0:
256,320,19411,1,0,0:0:0:0:
128,240,19672,1,0,0:0:0:0:
432,192,19933,1,0,0:0:0:0:
240,192,20193,1,0,0:0:0:0:
432,192,20454,1,0,0:0:0:0:
32,192,20976,1,0,0:0:0:0:
448,192,21498,5,0,0:0:0:0:
256,192,21759,1,0,0:0:0:0:
448,192,22020,1,0,0:0:0:0:
64,192,22541,1,0,0:0:0:0:
224,192,23063,1,0,0:0:0:0:
32,192,23584,2,0,L|304:64,1,280
224,64,25150,5,0,0:0:0:0:
32,64,25411,1,0,0:0:0:0:
288,160,25672,1,0,0:0:0:0:
480,160,25933,1,0,0:0:0:0:
224,256,26193,1,0,0:0:0:0:
32,256,26454,1,0,0:0:0:0:
432,336,26715,1,0,0:0:0:0:
64,304,27237,1,0,0:0:0:0:
256,304,27759,5,0,0:0:0:0:
416,272,28020,1,0,0:0:0:0:
48,192,28280,2,0,L|0:112,1,70
224,96,28802,2,0,L|256:32,1,70
496,208,29324,2,0,L|448:128,1,70
48,224,29846,2,0,L|352:224,1,280
96,256,30889,6,0,L|48:192,1,70
416,256,31411,2,0,L|464:176,1,70
160,240,31933,2,0,L|112:176,1,70
352,240,32454,2,0,L|400:160,1,70
64,144,32976,1,0,0:0:0:0:
256,128,33498,1,0,0:0:0:0:
480,112,34020,6,0,L|416:64,1,70
64,80,34541,1,0,0:0:0:0:
256,64,35063,1,0,0:0:0:0:
448,48,35585,2,0,B|432:192|432:192|144:208,1,420
464,320,37672,6,0,L|416:240,1,70
240,208,38193,2,0,L|288:144,1,70
80,96,38715,2,0,L|32:32,1,70
448,80,39237,1,0,0:0:0:0:
256,80,39759,1,0,0:0:0:0:
32,240,40280,5,0,0:0:0:0:
192,288,40541,1,0,0:0:0:0:
480,288,40802,2,0,L|416:224,1,70
192,208,41324,2,0,L|256:128,1,70
480,112,41846,2,0,L|400:48,1,70
32,32,42367,2,0,L|80:176,1,140
464,64,43411,6,0,L|400:128,1,70
80,112,43933,2,0,L|144:192,1,70
336,208,44454,2,0,L|288:288,1,70
32,288,44976,2,0,L|128:304,1,70
272,224,45498,1,0,0:0:0:0:
480,160,46020,1,0,0:0:0:0:
64,112,46541,6,0,L|144:64,1,70
432,48,47063,1,0,0:0:0:0:
80,48,47585,1,0,0:0:0:0:
448,176,48107,1,0,0:0:0:0:
256,192,48628,12,0,50470,0:0:0:0:
