osu file format v14

[General]
AudioFilename: audio.mp3
AudioLeadIn: 0
PreviewTime: 64499
Countdown: 0
SampleSet: Soft
StackLeniency: 0.7
Mode: 3
LetterboxInBreaks: 0
SpecialStyle: 0
WidescreenStoryboard: 1

[Editor]
DistanceSpacing: 0.8
BeatDivisor: 4
GridSize: 32
TimelineZoom: 1.4

[Metadata]
Title:Death by Glamour
TitleUnicode:Death by Glamour
Artist:toby fox
ArtistUnicode:toby fox
Creator:Carpihat
Version:Easy
Source:UNDERTALE
Tags:mettaton ex boss fight videogame ost soundtrack original sound track instrumental electronic it's showtime! another medium metal crusher radiation neo
BeatmapID:4045583
BeatmapSetID:1953395

[Difficulty]
HPDrainRate:6.6
CircleSize:4
OverallDifficulty:6.6
ApproachRate:5
SliderMultiplier:1.4
SliderTickRate:1

[Events]
//Background and Video events
0,0,"aaa.jpg",0,0
//Break Periods
//Storyboard Layer 0 (Background)
//Storyboard Layer 1 (Fail)
//Storyboard Layer 2 (Pass)
//Storyboard Layer 3 (Foreground)
//Storyboard Layer 4 (Overlay)
//Storyboard Sound Samples

[TimingPoints]
40,405.405405405405,4,2,1,50,1,0
64904,-100,4,2,1,50,0,1
89229,-100,4,2,1,50,0,0
90850,-100,4,2,1,50,0,1
115175,-100,4,2,1,50,0,0

[HitObjects]
64,192,40,5,0,0:0:0:0:
192,192,445,1,0,0:0:0:0:
448,192,850,1,0,0:0:0:0:
192,192,1154,1,0,0:0:0:0:
64,192,1458,1,0,0:0:0:0:
192,192,1864,1,0,0:0:0:0:
320,192,2067,1,0,0:0:0:0:
448,192,2472,1,0,0:0:0:0:
320,192,2776,1,0,0:0:0:0:
64,192,3283,5,0,0:0:0:0:
192,192,3688,1,0,0:0:0:0:
448,192,4094,1,0,0:0:0:0:
320,192,4398,1,0,0:0:0:0:
64,192,4702,1,0,0:0:0:0:
192,192,5107,1,0,0:0:0:0:
320,192,5310,1,0,0:0:0:0:
448,192,5715,1,0,0:0:0:0:
320,192,6019,1,0,0:0:0:0:
64,192,6526,5,0,0:0:0:0:
192,192,6931,1,0,0:0:0:0:
448,192,7337,1,0,0:0:0:0:
320,192,7641,1,0,0:0:0:0:
64,192,7945,1,0,0:0:0:0:
64,192,8350,1,0,0:0:0:0:
320,192,8553,1,0,0:0:0:0:
448,192,8958,1,0,0:0:0:0:
192,192,9262,1,0,0:0:0:0:
64,192,9769,5,0,0:0:0:0:
192,192,10175,1,0,0:0:0:0:
448,192,10580,1,0,0:0:0:0:
320,192,10884,1,0,0:0:0:0:
192,192,11188,1,0,0:0:0:0:
192,192,11594,1,0,0:0:0:0:
320,192,11796,1,0,0:0:0:0:
448,192,12202,1,0,0:0:0:0:
64,192,12506,1,0,0:0:0:0:
192,192,13012,1,0,0:0:0:0:
320,192,13418,1,0,0:0:0:0:
448,192,13823,1,0,0:0:0:0:
192,192,14127,1,0,0:0:0:0:
64,192,14431,1,0,0:0:0:0:
64,192,14837,1,0,0:0:0:0:
320,192,15039,1,0,0:0:0:0:
448,192,15445,1,0,0:0:0:0:
192,192,15749,1,0,0:0:0:0:
64,192,16256,1,0,0:0:0:0:
192,192,16661,1,0,0:0:0:0:
448,192,17067,1,0,0:0:0:0:
320,192,17371,1,0,0:0:0:0:
192,192,17675,1,0,0:0:0:0:
192,192,18080,1,0,0:0:0:0:
320,192,18283,1,0,0:0:0:0:
448,192,18688,1,0,0:0:0:0:
64,192,18992,1,0,0:0:0:0:
320,192,19499,1,0,0:0:0:0:
192,192,19904,1,0,0:0:0:0:
64,192,19904,1,0,0:0:0:0:
448,192,20310,1,0,0:0:0:0:
192,192,20614,1,0,0:0:0:0:
64,192,20918,1,0,0:0:0:0:
64,192,21323,1,0,0:0:0:0:
192,192,21526,1,0,0:0:0:0:
320,192,21526,1,0,0:0:0:0:
448,192,21931,1,0,0:0:0:0:
192,192,22235,1,0,0:0:0:0:
320,192,22742,1,0,0:0:0:0:
192,192,23148,1,0,0:0:0:0:
64,192,23148,1,0,0:0:0:0:
448,192,23553,1,0,0:0:0:0:
320,192,23857,1,0,0:0:0:0:
192,192,24161,1,0,0:0:0:0:
192,192,24567,1,0,0:0:0:0:
320,192,24769,1,0,0:0:0:0:
448,192,24769,1,0,0:0:0:0:
192,192,25175,1,0,0:0:0:0:
64,192,25580,128,0,25985:0:0:0:0:
320,192,25985,1,0,0:0:0:0:
448,192,25985,1,0,0:0:0:0:
64,192,26391,1,0,0:0:0:0:
192,192,26391,1,0,0:0:0:0:
320,192,26594,1,0,0:0:0:0:
448,192,26796,1,0,0:0:0:0:
64,192,26999,1,0,0:0:0:0:
192,192,27303,1,0,0:0:0:0:
320,192,27607,1,0,0:0:0:0:
192,192,28012,1,0,0:0:0:0:
64,192,28012,1,0,0:0:0:0:
448,192,28215,1,0,0:0:0:0:
320,192,28418,1,0,0:0:0:0:
192,192,28621,1,0,0:0:0:0:
64,192,28925,1,0,0:0:0:0:
320,192,29229,1,0,0:0:0:0:
192,192,29634,1,0,0:0:0:0:
64,192,29634,1,0,0:0:0:0:
320,192,29837,1,0,0:0:0:0:
448,192,30039,1,0,0:0:0:0:
192,192,30242,1,0,0:0:0:0:
64,192,30546,1,0,0:0:0:0:
448,192,30850,1,0,0:0:0:0:
320,192,31256,1,0,0:0:0:0:
192,192,31256,1,0,0:0:0:0:
64,192,31458,1,0,0:0:0:0:
448,192,31661,1,0,0:0:0:0:
320,192,31864,1,0,0:0:0:0:
192,192,32168,1,0,0:0:0:0:
64,192,32472,1,0,0:0:0:0:
448,192,32877,1,0,0:0:0:0:
320,192,32877,1,0,0:0:0:0:
64,192,33080,1,0,0:0:0:0:
192,192,33283,1,0,0:0:0:0:
448,192,33485,1,0,0:0:0:0:
320,192,33789,1,0,0:0:0:0:
64,192,34094,1,0,0:0:0:0:
448,192,34499,1,0,0:0:0:0:
320,192,34499,1,0,0:0:0:0:
192,192,34702,1,0,0:0:0:0:
64,192,34904,1,0,0:0:0:0:
448,192,35107,1,0,0:0:0:0:
320,192,35411,1,0,0:0:0:0:
64,192,35715,1,0,0:0:0:0:
320,192,36121,1,0,0:0:0:0:
448,192,36121,1,0,0:0:0:0:
64,192,36323,1,0,0:0:0:0:
192,192,36526,1,0,0:0:0:0:
320,192,36729,1,0,0:0:0:0:
448,192,37033,1,0,0:0:0:0:
64,192,37337,1,0,0:0:0:0:
320,192,37742,1,0,0:0:0:0:
192,192,37742,1,0,0:0:0:0:
64,192,37945,1,0,0:0:0:0:
448,192,38148,1,0,0:0:0:0:
320,192,38350,1,0,0:0:0:0:
64,192,38553,128,0,38958:0:0:0:0:
320,192,38958,1,0,0:0:0:0:
448,192,38958,1,0,0:0:0:0:
192,192,39161,1,0,0:0:0:0:
64,192,39364,1,0,0:0:0:0:
448,192,39668,1,0,0:0:0:0:
192,192,39871,128,0,40175:0:0:0:0:
320,192,40175,1,0,0:0:0:0:
64,192,40377,1,0,0:0:0:0:
320,192,40580,1,0,0:0:0:0:
448,192,40783,1,0,0:0:0:0:
192,192,40985,1,0,0:0:0:0:
320,192,41289,1,0,0:0:0:0:
64,192,41594,1,0,0:0:0:0:
448,192,41796,1,0,0:0:0:0:
192,192,41999,1,0,0:0:0:0:
320,192,42202,128,0,42607:0:0:0:0:
64,192,42607,1,0,0:0:0:0:
192,192,42607,1,0,0:0:0:0:
320,192,43012,1,0,0:0:0:0:
192,192,43418,1,0,0:0:0:0:
448,192,43418,1,0,0:0:0:0:
64,192,43823,1,0,0:0:0:0:
320,192,44229,1,0,0:0:0:0:
448,192,44229,1,0,0:0:0:0:
192,192,44431,1,0,0:0:0:0:
448,192,44634,1,0,0:0:0:0:
320,192,44837,1,0,0:0:0:0:
192,192,45039,1,0,0:0:0:0:
64,192,45039,1,0,0:0:0:0:
320,192,45445,1,0,0:0:0:0:
448,192,45445,1,0,0:0:0:0:
192,192,45648,1,0,0:0:0:0:
64,192,45850,1,0,0:0:0:0:
448,192,46154,1,0,0:0:0:0:
192,192,46357,128,0,46661:0:0:0:0:
320,192,46661,1,0,0:0:0:0:
64,192,46864,1,0,0:0:0:0:
320,192,47067,1,0,0:0:0:0:
448,192,47269,1,0,0:0:0:0:
64,192,47472,1,0,0:0:0:0:
192,192,47776,1,0,0:0:0:0:
320,192,48080,1,0,0:0:0:0:
64,192,48283,1,0,0:0:0:0:
448,192,48485,1,0,0:0:0:0:
192,192,48688,128,0,49094:0:0:0:0:
320,192,49094,1,0,0:0:0:0:
448,192,49094,1,0,0:0:0:0:
192,192,49499,1,0,0:0:0:0:
64,192,49904,1,0,0:0:0:0:
320,192,49904,1,0,0:0:0:0:
448,192,50310,1,0,0:0:0:0:
64,192,50715,1,0,0:0:0:0:
192,192,50715,1,0,0:0:0:0:
448,192,50918,1,0,0:0:0:0:
320,192,51121,1,0,0:0:0:0:
192,192,51323,1,0,0:0:0:0:
448,192,51526,1,0,0:0:0:0:
320,192,51526,128,0,51931:0:0:0:0:
192,192,51931,1,0,0:0:0:0:
64,192,51931,1,0,0:0:0:0:
448,192,52134,1,0,0:0:0:0:
320,192,52337,1,0,0:0:0:0:
64,192,52641,1,0,0:0:0:0:
320,192,52844,128,0,53148:0:0:0:0:
192,192,53148,1,0,0:0:0:0:
64,192,53350,1,0,0:0:0:0:
320,192,53553,1,0,0:0:0:0:
448,192,53756,1,0,0:0:0:0:
192,192,53958,1,0,0:0:0:0:
320,192,54262,1,0,0:0:0:0:
64,192,54567,1,0,0:0:0:0:
448,192,54769,1,0,0:0:0:0:
192,192,54972,1,0,0:0:0:0:
320,192,55175,128,0,55580:0:0:0:0:
64,192,55580,1,0,0:0:0:0:
192,192,55580,1,0,0:0:0:0:
320,192,55985,1,0,0:0:0:0:
192,192,56391,1,0,0:0:0:0:
448,192,56391,1,0,0:0:0:0:
64,192,56796,1,0,0:0:0:0:
320,192,57202,1,0,0:0:0:0:
448,192,57202,1,0,0:0:0:0:
192,192,57404,1,0,0:0:0:0:
448,192,57607,1,0,0:0:0:0:
320,192,57810,1,0,0:0:0:0:
192,192,58012,1,0,0:0:0:0:
64,192,58012,1,0,0:0:0:0:
320,192,58418,1,0,0:0:0:0:
448,192,58418,1,0,0:0:0:0:
192,192,58621,1,0,0:0:0:0:
64,192,58823,1,0,0:0:0:0:
448,192,59127,1,0,0:0:0:0:
192,192,59330,128,0,59634:0:0:0:0:
320,192,59634,1,0,0:0:0:0:
64,192,59837,1,0,0:0:0:0:
320,192,60039,1,0,0:0:0:0:
448,192,60242,1,0,0:0:0:0:
64,192,60445,1,0,0:0:0:0:
192,192,60749,1,0,0:0:0:0:
320,192,61053,1,0,0:0:0:0:
64,192,61256,1,0,0:0:0:0:
448,192,61458,1,0,0:0:0:0:
192,192,61661,128,0,62067:0:0:0:0:
320,192,61661,1,0,0:0:0:0:
448,192,62067,1,0,0:0:0:0:
320,192,62472,128,0,62877:0:0:0:0:
192,192,62472,1,0,0:0:0:0:
64,192,62877,1,0,0:0:0:0:
320,192,63283,1,0,0:0:0:0:
448,192,63283,128,0,63688:0:0:0:0:
64,192,63688,128,0,64094:0:0:0:0:
448,192,64094,1,0,0:0:0:0:
320,192,64094,1,0,0:0:0:0:
64,192,64499,1,0,0:0:0:0:
320,192,64702,1,0,0:0:0:0:
448,192,64904,128,0,65310:0:0:0:0:
192,192,64904,1,0,0:0:0:0:
64,192,65310,1,0,0:0:0:0:
320,192,65512,1,0,0:0:0:0:
64,192,65715,128,0,66121:0:0:0:0:
448,192,66121,1,0,0:0:0:0:
192,192,66323,1,0,0:0:0:0:
448,192,66526,1,0,0:0:0:0:
320,192,66526,128,0,66931:0:0:0:0:
64,192,66931,128,0,67337:0:0:0:0:
448,192,67337,128,0,67742:0:0:0:0:
192,192,67742,128,0,68148:0:0:0:0:
448,192,68148,1,0,0:0:0:0:
320,192,68148,128,0,68756:0:0:0:0:
192,192,68756,1,0,0:0:0:0:
64,192,68958,128,0,69567:0:0:0:0:
448,192,68958,1,0,0:0:0:0:
320,192,69567,1,0,0:0:0:0:
64,192,69769,1,0,0:0:0:0:
192,192,69769,1,0,0:0:0:0:
192,192,70175,1,0,0:0:0:0:
320,192,70175,1,0,0:0:0:0:
320,192,70580,1,0,0:0:0:0:
448,192,70580,1,0,0:0:0:0:
64,192,70985,1,0,0:0:0:0:
192,192,70985,1,0,0:0:0:0:
320,192,71188,1,0,0:0:0:0:
448,192,71391,128,0,71796:0:0:0:0:
192,192,71391,1,0,0:0:0:0:
64,192,71796,1,0,0:0:0:0:
320,192,71999,1,0,0:0:0:0:
64,192,72202,128,0,72607:0:0:0:0:
448,192,72607,1,0,0:0:0:0:
192,192,72810,1,0,0:0:0:0:
320,192,73012,128,0,73418:0:0:0:0:
448,192,73012,1,0,0:0:0:0:
64,192,73418,128,0,73823:0:0:0:0:
448,192,73823,128,0,74229:0:0:0:0:
192,192,74229,128,0,74634:0:0:0:0:
320,192,74634,128,0,75242:0:0:0:0:
448,192,74634,1,0,0:0:0:0:
64,192,75242,1,0,0:0:0:0:
448,192,75445,1,0,0:0:0:0:
192,192,75445,128,0,76053:0:0:0:0:
320,192,76053,1,0,0:0:0:0:
192,192,76256,1,0,0:0:0:0:
64,192,76256,1,0,0:0:0:0:
320,192,76661,1,0,0:0:0:0:
192,192,76661,1,0,0:0:0:0:
448,192,77067,1,0,0:0:0:0:
320,192,77067,1,0,0:0:0:0:
64,192,77472,1,0,0:0:0:0:
192,192,77472,1,0,0:0:0:0:
320,192,77675,1,0,0:0:0:0:
448,192,77877,128,0,78283:0:0:0:0:
192,192,77877,1,0,0:0:0:0:
64,192,78283,1,0,0:0:0:0:
320,192,78485,1,0,0:0:0:0:
64,192,78688,128,0,79094:0:0:0:0:
448,192,79094,1,0,0:0:0:0:
192,192,79296,1,0,0:0:0:0:
320,192,79499,128,0,79904:0:0:0:0:
448,192,79499,1,0,0:0:0:0:
64,192,79904,128,0,80310:0:0:0:0:
448,192,80310,128,0,80715:0:0:0:0:
192,192,80715,128,0,81121:0:0:0:0:
320,192,81121,128,0,81729:0:0:0:0:
448,192,81121,1,0,0:0:0:0:
192,192,81729,1,0,0:0:0:0:
448,192,81931,1,0,0:0:0:0:
64,192,81931,128,0,82539:0:0:0:0:
320,192,82539,1,0,0:0:0:0:
192,192,82742,1,0,0:0:0:0:
64,192,82742,1,0,0:0:0:0:
320,192,83148,1,0,0:0:0:0:
192,192,83148,1,0,0:0:0:0:
448,192,83553,1,0,0:0:0:0:
320,192,83553,1,0,0:0:0:0:
64,192,83958,1,0,0:0:0:0:
192,192,83958,1,0,0:0:0:0:
320,192,84161,1,0,0:0:0:0:
448,192,84364,128,0,84769:0:0:0:0:
192,192,84364,1,0,0:0:0:0:
64,192,84769,1,0,0:0:0:0:
320,192,84972,1,0,0:0:0:0:
64,192,85175,128,0,85580:0:0:0:0:
448,192,85580,1,0,0:0:0:0:
192,192,85783,1,0,0:0:0:0:
448,192,85985,1,0,0:0:0:0:
320,192,85985,128,0,86391:0:0:0:0:
64,192,86391,128,0,86796:0:0:0:0:
448,192,86796,128,0,87202:0:0:0:0:
192,192,87202,128,0,87607:0:0:0:0:
448,192,87607,1,0,0:0:0:0:
320,192,87607,128,0,88215:0:0:0:0:
64,192,88215,1,0,0:0:0:0:
192,192,88418,128,0,89026:0:0:0:0:
448,192,88418,1,0,0:0:0:0:
320,192,89026,1,0,0:0:0:0:
64,192,89229,1,0,0:0:0:0:
192,192,89533,1,0,0:0:0:0:
320,192,89837,1,0,0:0:0:0:
448,192,90039,1,0,0:0:0:0:
320,192,90445,1,0,0:0:0:0:
448,192,90850,1,0,0:0:0:0:
64,192,90850,128,0,91256:0:0:0:0:
320,192,91256,1,0,0:0:0:0:
448,192,91256,1,0,0:0:0:0:
192,192,91458,128,0,91864:0:0:0:0:
448,192,92067,1,0,0:0:0:0:
320,192,92067,1,0,0:0:0:0:
192,192,92269,1,0,0:0:0:0:
64,192,92472,1,0,0:0:0:0:
320,192,92675,1,0,0:0:0:0:
192,192,92877,1,0,0:0:0:0:
448,192,93080,128,0,93485:0:0:0:0:
192,192,93688,1,0,0:0:0:0:
320,192,93688,1,0,0:0:0:0:
64,192,93891,1,0,0:0:0:0:
320,192,94094,1,0,0:0:0:0:
320,192,94398,1,0,0:0:0:0:
448,192,94702,1,0,0:0:0:0:
192,192,94904,1,0,0:0:0:0:
320,192,95310,1,0,0:0:0:0:
448,192,95310,1,0,0:0:0:0:
64,192,95512,1,0,0:0:0:0:
192,192,95715,1,0,0:0:0:0:
192,192,96019,1,0,0:0:0:0:
320,192,96323,1,0,0:0:0:0:
448,192,96526,1,0,0:0:0:0:
64,192,96931,1,0,0:0:0:0:
192,192,96931,1,0,0:0:0:0:
320,192,97134,1,0,0:0:0:0:
448,192,97539,1,0,0:0:0:0:
64,192,97742,1,0,0:0:0:0:
320,192,97945,128,0,98350:0:0:0:0:
192,192,98553,1,0,0:0:0:0:
64,192,98553,1,0,0:0:0:0:
448,192,98756,1,0,0:0:0:0:
64,192,98958,1,0,0:0:0:0:
320,192,99161,1,0,0:0:0:0:
192,192,99364,1,0,0:0:0:0:
448,192,99567,128,0,99972:0:0:0:0:
320,192,100175,1,0,0:0:0:0:
192,192,100175,1,0,0:0:0:0:
448,192,100377,1,0,0:0:0:0:
64,192,100580,1,0,0:0:0:0:
64,192,100884,1,0,0:0:0:0:
320,192,101188,1,0,0:0:0:0:
192,192,101391,1,0,0:0:0:0:
192,192,101796,1,0,0:0:0:0:
320,192,101796,1,0,0:0:0:0:
64,192,101999,1,0,0:0:0:0:
448,192,102202,1,0,0:0:0:0:
448,192,102506,1,0,0:0:0:0:
192,192,102810,1,0,0:0:0:0:
448,192,103012,1,0,0:0:0:0:
64,192,103418,1,0,0:0:0:0:
192,192,103418,1,0,0:0:0:0:
320,192,103621,1,0,0:0:0:0:
448,192,103823,1,0,0:0:0:0:
64,192,103823,128,0,104229:0:0:0:0:
448,192,104229,1,0,0:0:0:0:
320,192,104229,1,0,0:0:0:0:
192,192,104431,128,0,104837:0:0:0:0:
448,192,105039,1,0,0:0:0:0:
320,192,105039,1,0,0:0:0:0:
192,192,105242,1,0,0:0:0:0:
64,192,105445,1,0,0:0:0:0:
320,192,105648,1,0,0:0:0:0:
192,192,105850,1,0,0:0:0:0:
448,192,106053,128,0,106458:0:0:0:0:
192,192,106661,1,0,0:0:0:0:
320,192,106661,1,0,0:0:0:0:
64,192,106864,1,0,0:0:0:0:
320,192,107067,1,0,0:0:0:0:
320,192,107371,1,0,0:0:0:0:
448,192,107675,1,0,0:0:0:0:
192,192,107877,1,0,0:0:0:0:
320,192,108283,1,0,0:0:0:0:
448,192,108283,1,0,0:0:0:0:
64,192,108485,1,0,0:0:0:0:
192,192,108688,1,0,0:0:0:0:
192,192,108992,1,0,0:0:0:0:
320,192,109296,1,0,0:0:0:0:
448,192,109499,1,0,0:0:0:0:
64,192,109904,1,0,0:0:0:0:
192,192,109904,1,0,0:0:0:0:
320,192,110107,1,0,0:0:0:0:
448,192,110512,1,0,0:0:0:0:
64,192,110715,1,0,0:0:0:0:
320,192,110918,128,0,111323:0:0:0:0:
192,192,111526,1,0,0:0:0:0:
64,192,111526,1,0,0:0:0:0:
448,192,111729,1,0,0:0:0:0:
64,192,111931,1,0,0:0:0:0:
320,192,112134,1,0,0:0:0:0:
192,192,112337,1,0,0:0:0:0:
448,192,112539,128,0,112945:0:0:0:0:
320,192,113148,1,0,0:0:0:0:
192,192,113148,1,0,0:0:0:0:
448,192,113350,1,0,0:0:0:0:
64,192,113553,1,0,0:0:0:0:
64,192,113857,1,0,0:0:0:0:
320,192,114161,1,0,0:0:0:0:
192,192,114364,1,0,0:0:0:0:
320,192,114769,1,0,0:0:0:0:
448,192,114769,1,0,0:0:0:0:
64,192,114972,1,0,0:0:0:0:
320,192,115175,1,0,0:0:0:0:
320,192,115479,1,0,0:0:0:0:
192,192,115783,1,0,0:0:0:0:
448,192,115985,1,0,0:0:0:0:
192,192,116391,1,0,0:0:0:0:
64,192,116594,1,0,0:0:0:0:
320,192,116796,1,0,0:0:0:0:
448,192,116796,1,0,0:0:0:0:
192,192,117202,1,0,0:0:0:0:
448,192,117607,1,0,0:0:0:0:
64,192,117911,1,0,0:0:0:0:
320,192,118215,1,0,0:0:0:0:
192,192,118215,1,0,0:0:0:0:
64,192,118621,1,0,0:0:0:0:
448,192,118823,1,0,0:0:0:0:
320,192,119229,1,0,0:0:0:0:
64,192,119533,128,0,120039:0:0:0:0:
320,192,120039,1,0,0:0:0:0:
448,192,120039,1,0,0:0:0:0:
192,192,120445,1,0,0:0:0:0:
448,192,120850,1,0,0:0:0:0:
64,192,121154,1,0,0:0:0:0:
320,192,121458,1,0,0:0:0:0:
192,192,121458,1,0,0:0:0:0:
64,192,121864,1,0,0:0:0:0:
448,192,122067,1,0,0:0:0:0:
320,192,122472,1,0,0:0:0:0:
192,192,122776,128,0,123283:0:0:0:0:
448,192,123283,1,0,0:0:0:0:
320,192,123283,1,0,0:0:0:0:
64,192,123688,1,0,0:0:0:0:
448,192,124094,1,0,0:0:0:0:
192,192,124398,1,0,0:0:0:0:
64,192,124702,1,0,0:0:0:0:
320,192,124702,1,0,0:0:0:0:
192,192,125107,1,0,0:0:0:0:
448,192,125310,1,0,0:0:0:0:
64,192,125715,1,0,0:0:0:0:
448,192,126019,128,0,126526:0:0:0:0:
320,192,126526,1,0,0:0:0:0:
192,192,126526,1,0,0:0:0:0:
64,192,126931,1,0,0:0:0:0:
448,192,127337,1,0,0:0:0:0:
320,192,127641,1,0,0:0:0:0:
64,192,127945,1,0,0:0:0:0:
192,192,127945,1,0,0:0:0:0:
192,192,128350,1,0,0:0:0:0:
320,192,128553,1,0,0:0:0:0:
64,192,128958,1,0,0:0:0:0:
448,192,129262,128,0,129769:0:0:0:0:
320,192,129769,1,0,0:0:0:0:
64,192,130175,1,0,0:0:0:0:
192,192,130580,1,0,0:0:0:0:
320,192,130884,1,0,0:0:0:0:
64,192,131188,1,0,0:0:0:0:
320,192,131594,1,0,0:0:0:0:
448,192,131796,1,0,0:0:0:0:
320,192,132202,1,0,0:0:0:0:
192,192,132404,1,0,0:0:0:0:
64,192,132607,1,0,0:0:0:0:
