osu file format v14

[General]
AudioFilename: audio.mp3
AudioLeadIn: 0
PreviewTime: 64499
Countdown: 1
SampleSet: Normal
StackLeniency: 0.7
Mode: 1
LetterboxInBreaks: 0
WidescreenStoryboard: 0

[Editor]
DistanceSpacing: 0.8
BeatDivisor: 4
GridSize: 32
TimelineZoom: 2.2

[Metadata]
Title:Death by Glamour
TitleUnicode:Death by Glamour
Artist:toby fox
ArtistUnicode:toby fox
Creator:GOD82028
Version:Oni
Source:UNDERTALE
Tags:Mettaton Radiation chiptune bossfight
BeatmapID:2037860
BeatmapSetID:973439

[Difficulty]
HPDrainRate:5
CircleSize:6
OverallDifficulty:6
ApproachRate:5
SliderMultiplier:1.4
SliderTickRate:1

[Events]
//Background and Video events
0,0,"thumb-1920-731367.png",0,60
//Break Periods
//Storyboard Layer 0 (Background)
//Storyboard Layer 1 (Fail)
//Storyboard Layer 2 (Pass)
//Storyboard Layer 3 (Foreground)
//Storyboard Layer 4 (Overlay)
//Storyboard Sound Samples

[TimingPoints]
40,405.406385737439,4,1,0,50,1,0
64905,-100,4,1,0,65,0,1
89229,-100,4,1,0,65,0,0
90851,-100,4,1,0,60,0,0
116797,-100,4,1,0,65,0,0
129770,-100,4,1,0,40,0,0

[HitObjects]
254,192,39,5,0,0:0:0:0:
118,213,445,1,0,0:0:0:0:
96,173,850,1,2,0:0:0:0:
47,97,1154,1,2,0:0:0:0:
84,100,1256,1,0,0:0:0:0:
47,97,1458,1,2,0:0:0:0:
115,100,1864,1,0,0:0:0:0:
115,100,2066,1,0,0:0:0:0:
115,100,2472,1,2,0:0:0:0:
115,100,2776,1,0,0:0:0:0:
115,100,2877,1,2,0:0:0:0:
252,111,3283,1,0,0:0:0:0:
118,213,3688,1,0,0:0:0:0:
96,173,4093,1,2,0:0:0:0:
47,97,4398,1,2,0:0:0:0:
84,100,4499,1,0,0:0:0:0:
47,97,4702,1,2,0:0:0:0:
115,100,5107,1,0,0:0:0:0:
115,100,5310,1,0,0:0:0:0:
115,100,5715,1,2,0:0:0:0:
115,100,6019,1,0,0:0:0:0:
115,100,6121,1,2,0:0:0:0:
134,110,6526,1,0,0:0:0:0:
104,106,6729,1,2,0:0:0:0:
104,106,6830,1,2,0:0:0:0:
104,106,6931,1,0,0:0:0:0:
160,147,7134,1,0,0:0:0:0:
154,132,7337,1,2,0:0:0:0:
154,132,7641,1,2,0:0:0:0:
154,132,7945,1,0,0:0:0:0:
177,104,8350,1,0,0:0:0:0:
177,104,8553,1,0,0:0:0:0:
177,104,8756,1,0,0:0:0:0:
109,103,8958,1,2,0:0:0:0:
113,96,9161,1,0,0:0:0:0:
113,96,9262,1,2,0:0:0:0:
134,110,9769,1,0,0:0:0:0:
104,106,9972,1,2,0:0:0:0:
104,106,10073,1,2,0:0:0:0:
104,106,10175,1,0,0:0:0:0:
160,147,10377,1,0,0:0:0:0:
154,132,10580,1,2,0:0:0:0:
154,132,10884,1,2,0:0:0:0:
154,132,11188,1,0,0:0:0:0:
177,104,11594,1,0,0:0:0:0:
177,104,11796,1,0,0:0:0:0:
177,104,11999,1,0,0:0:0:0:
109,103,12202,1,2,0:0:0:0:
113,96,12404,1,0,0:0:0:0:
113,96,12506,1,2,0:0:0:0:
154,149,13012,1,4,0:0:0:0:
95,119,13316,1,2,0:0:0:0:
95,119,13418,1,0,0:0:0:0:
80,119,13621,1,2,0:0:0:0:
213,121,13823,1,0,0:0:0:0:
107,127,13925,1,2,0:0:0:0:
112,125,14127,1,2,0:0:0:0:
155,152,14229,1,0,0:0:0:0:
137,108,14431,1,2,0:0:0:0:
152,144,14634,1,0,0:0:0:0:
69,159,14837,1,0,0:0:0:0:
95,119,14938,1,2,0:0:0:0:
95,119,15039,1,2,0:0:0:0:
80,119,15242,1,2,0:0:0:0:
213,121,15445,1,0,0:0:0:0:
107,127,15546,1,2,0:0:0:0:
112,125,15749,1,2,0:0:0:0:
155,152,15850,1,0,0:0:0:0:
137,108,16053,1,0,0:0:0:0:
152,144,16256,1,0,0:0:0:0:
95,119,16560,1,2,0:0:0:0:
95,119,16661,1,0,0:0:0:0:
80,119,16864,1,2,0:0:0:0:
213,121,17066,1,0,0:0:0:0:
107,127,17168,1,2,0:0:0:0:
112,125,17371,1,2,0:0:0:0:
155,152,17472,1,0,0:0:0:0:
137,108,17675,1,2,0:0:0:0:
152,144,17877,1,0,0:0:0:0:
136,138,18080,1,0,0:0:0:0:
95,119,18181,1,2,0:0:0:0:
95,119,18283,1,2,0:0:0:0:
80,119,18485,1,2,0:0:0:0:
213,121,18688,1,0,0:0:0:0:
107,127,18789,1,2,0:0:0:0:
112,125,18992,1,2,0:0:0:0:
155,152,19094,1,0,0:0:0:0:
227,144,19499,1,4,0:0:0:0:
180,149,19702,1,0,0:0:0:0:
180,149,19803,1,0,0:0:0:0:
180,149,19904,1,2,0:0:0:0:
180,149,20107,1,2,0:0:0:0:
120,143,20310,1,0,0:0:0:0:
120,143,20411,1,2,0:0:0:0:
149,132,20614,1,0,0:0:0:0:
149,132,20715,1,0,0:0:0:0:
149,132,20918,1,2,0:0:0:0:
149,132,21019,1,2,0:0:0:0:
149,132,21121,1,0,0:0:0:0:
180,149,21323,1,0,0:0:0:0:
180,149,21425,1,0,0:0:0:0:
180,149,21526,1,2,0:0:0:0:
180,149,21729,1,2,0:0:0:0:
120,143,21931,1,2,0:0:0:0:
120,143,22033,1,0,0:0:0:0:
149,132,22235,1,0,0:0:0:0:
149,132,22337,1,2,0:0:0:0:
102,110,22539,1,2,0:0:0:0:
102,110,22641,1,0,0:0:0:0:
102,110,22742,1,0,0:0:0:0:
180,149,22945,1,0,0:0:0:0:
180,149,23046,1,0,0:0:0:0:
180,149,23148,1,2,0:0:0:0:
180,149,23350,1,2,0:0:0:0:
120,143,23553,1,0,0:0:0:0:
120,143,23654,1,2,0:0:0:0:
149,132,23857,1,0,0:0:0:0:
149,132,23958,1,0,0:0:0:0:
149,132,24161,1,2,0:0:0:0:
149,132,24262,1,2,0:0:0:0:
149,132,24364,1,0,0:0:0:0:
180,149,24567,1,0,0:0:0:0:
180,149,24668,1,0,0:0:0:0:
180,149,24769,1,2,0:0:0:0:
180,149,24972,1,2,0:0:0:0:
120,143,25175,1,2,0:0:0:0:
120,143,25276,1,0,0:0:0:0:
149,132,25479,1,0,0:0:0:0:
149,132,25580,1,2,0:0:0:0:
102,110,25985,1,4,0:0:0:0:
256,192,26188,1,0,0:0:0:0:
196,83,26391,1,2,0:0:0:0:
197,91,26594,1,0,0:0:0:0:
197,91,26796,1,2,0:0:0:0:
197,91,26898,1,0,0:0:0:0:
197,91,26999,1,0,0:0:0:0:
197,91,27100,1,2,0:0:0:0:
50,166,27303,1,2,0:0:0:0:
50,166,27404,1,0,0:0:0:0:
58,140,27810,1,0,0:0:0:0:
213,227,27911,1,2,0:0:0:0:
58,140,28012,1,0,0:0:0:0:
58,140,28215,1,0,0:0:0:0:
190,87,28418,1,2,0:0:0:0:
190,87,28519,1,0,0:0:0:0:
190,87,28621,1,0,0:0:0:0:
190,87,28722,1,0,0:0:0:0:
190,87,28925,1,2,0:0:0:0:
190,87,29026,1,2,0:0:0:0:
41,99,29229,1,0,0:0:0:0:
256,192,29431,1,0,0:0:0:0:
196,83,29634,1,2,0:0:0:0:
197,91,29837,1,0,0:0:0:0:
197,91,30040,1,2,0:0:0:0:
197,91,30141,1,0,0:0:0:0:
197,91,30242,1,0,0:0:0:0:
197,91,30344,1,2,0:0:0:0:
50,166,30546,1,2,0:0:0:0:
50,166,30648,1,0,0:0:0:0:
58,140,31053,1,0,0:0:0:0:
213,227,31154,1,2,0:0:0:0:
58,140,31256,1,0,0:0:0:0:
58,140,31458,1,0,0:0:0:0:
190,87,31661,1,2,0:0:0:0:
190,87,31762,1,0,0:0:0:0:
190,87,31864,1,0,0:0:0:0:
190,87,31965,1,0,0:0:0:0:
190,87,32168,1,2,0:0:0:0:
190,87,32269,1,2,0:0:0:0:
102,110,32472,1,2,0:0:0:0:
256,192,32675,1,0,0:0:0:0:
196,83,32877,1,0,0:0:0:0:
197,91,33080,1,2,0:0:0:0:
197,91,33283,1,0,0:0:0:0:
197,91,33384,1,2,0:0:0:0:
197,91,33485,1,2,0:0:0:0:
197,91,33587,1,0,0:0:0:0:
50,166,33790,1,0,0:0:0:0:
50,166,33891,1,2,0:0:0:0:
58,140,34296,1,2,0:0:0:0:
213,227,34398,1,0,0:0:0:0:
58,140,34499,1,2,0:0:0:0:
58,140,34702,1,2,0:0:0:0:
190,87,34904,1,0,0:0:0:0:
190,87,35006,1,2,0:0:0:0:
190,87,35107,1,2,0:0:0:0:
190,87,35208,1,2,0:0:0:0:
190,87,35411,1,0,0:0:0:0:
190,87,35512,1,0,0:0:0:0:
41,99,35715,1,2,0:0:0:0:
256,192,35918,1,0,0:0:0:0:
196,83,36121,1,0,0:0:0:0:
197,91,36323,1,2,0:0:0:0:
197,91,36526,1,0,0:0:0:0:
197,91,36627,1,2,0:0:0:0:
197,91,36729,1,2,0:0:0:0:
197,91,36830,1,0,0:0:0:0:
50,166,37033,1,0,0:0:0:0:
50,166,37134,1,2,0:0:0:0:
58,140,37540,1,2,0:0:0:0:
213,227,37641,1,0,0:0:0:0:
58,140,37742,1,2,0:0:0:0:
58,140,37945,1,2,0:0:0:0:
190,87,38148,1,0,0:0:0:0:
190,87,38249,1,2,0:0:0:0:
190,87,38350,1,2,0:0:0:0:
190,87,38452,1,2,0:0:0:0:
190,87,38654,1,0,0:0:0:0:
190,87,38756,1,0,0:0:0:0:
69,162,38958,1,4,0:0:0:0:
135,154,39161,1,0,0:0:0:0:
135,154,39364,1,2,0:0:0:0:
135,154,39465,1,0,0:0:0:0:
147,133,39668,1,0,0:0:0:0:
75,90,39871,1,0,0:0:0:0:
75,90,39972,1,0,0:0:0:0:
75,90,40073,1,2,0:0:0:0:
91,78,40175,1,0,0:0:0:0:
92,73,40377,1,0,0:0:0:0:
122,196,40479,1,2,0:0:0:0:
92,69,40580,1,0,0:0:0:0:
92,69,40783,1,0,0:0:0:0:
92,69,40985,1,2,0:0:0:0:
92,69,41087,1,2,0:0:0:0:
72,152,41290,1,0,0:0:0:0:
72,152,41492,1,2,0:0:0:0:
72,152,41594,1,2,0:0:0:0:
72,152,41695,1,2,0:0:0:0:
96,118,41796,1,0,0:0:0:0:
96,118,41999,1,2,0:0:0:0:
96,118,42202,1,0,0:0:0:0:
96,118,42303,1,0,0:0:0:0:
96,118,42404,1,0,0:0:0:0:
96,118,42506,1,2,0:0:0:0:
128,128,43013,1,0,0:0:0:0:
128,128,43418,1,2,0:0:0:0:
111,136,43621,1,0,0:0:0:0:
111,136,43688,1,0,0:0:0:0:
111,136,43756,1,0,0:0:0:0:
111,136,43823,1,2,0:0:0:0:
136,120,44026,1,2,0:0:0:0:
135,125,44127,1,2,0:0:0:0:
135,125,44229,1,0,0:0:0:0:
135,125,44431,1,2,0:0:0:0:
106,84,44634,1,2,0:0:0:0:
135,125,44735,1,2,0:0:0:0:
135,125,44837,1,0,0:0:0:0:
135,125,44938,1,0,0:0:0:0:
190,101,45040,1,2,0:0:0:0:
69,162,45445,1,4,0:0:0:0:
135,154,45648,1,0,0:0:0:0:
135,154,45850,1,2,0:0:0:0:
135,154,45952,1,0,0:0:0:0:
147,133,46154,1,0,0:0:0:0:
75,90,46357,1,0,0:0:0:0:
75,90,46458,1,0,0:0:0:0:
75,90,46560,1,2,0:0:0:0:
91,78,46661,1,0,0:0:0:0:
92,73,46864,1,0,0:0:0:0:
122,196,46965,1,2,0:0:0:0:
92,69,47067,1,0,0:0:0:0:
92,69,47269,1,0,0:0:0:0:
92,69,47472,1,2,0:0:0:0:
92,69,47573,1,2,0:0:0:0:
72,152,47776,1,0,0:0:0:0:
72,152,47979,1,2,0:0:0:0:
72,152,48080,1,2,0:0:0:0:
72,152,48181,1,2,0:0:0:0:
96,118,48283,1,0,0:0:0:0:
96,118,48485,1,2,0:0:0:0:
96,118,48688,1,0,0:0:0:0:
96,118,48790,1,0,0:0:0:0:
96,118,48891,1,0,0:0:0:0:
96,118,48992,1,2,0:0:0:0:
128,128,49499,1,0,0:0:0:0:
128,128,49904,1,2,0:0:0:0:
111,136,50107,1,0,0:0:0:0:
111,136,50175,1,0,0:0:0:0:
111,136,50242,1,0,0:0:0:0:
111,136,50310,1,2,0:0:0:0:
135,125,50513,1,2,0:0:0:0:
135,125,50614,1,2,0:0:0:0:
135,125,50715,1,0,0:0:0:0:
135,125,50918,1,2,0:0:0:0:
106,84,51121,1,2,0:0:0:0:
135,125,51222,1,2,0:0:0:0:
135,125,51323,1,0,0:0:0:0:
135,125,51425,1,0,0:0:0:0:
190,101,51526,1,2,0:0:0:0:
69,162,51931,1,6,0:0:0:0:
135,154,52134,1,0,0:0:0:0:
135,154,52337,1,2,0:0:0:0:
135,154,52438,1,2,0:0:0:0:
147,133,52641,1,2,0:0:0:0:
75,90,52844,1,2,0:0:0:0:
75,90,52945,1,2,0:0:0:0:
75,90,53046,1,2,0:0:0:0:
91,78,53148,1,0,0:0:0:0:
92,73,53350,1,0,0:0:0:0:
122,196,53452,1,0,0:0:0:0:
92,69,53553,1,2,0:0:0:0:
92,69,53756,1,2,0:0:0:0:
92,69,53958,1,0,0:0:0:0:
92,69,54060,1,0,0:0:0:0:
72,152,54263,1,0,0:0:0:0:
72,152,54465,1,0,0:0:0:0:
72,152,54567,1,0,0:0:0:0:
72,152,54668,1,0,0:0:0:0:
96,118,54769,1,2,0:0:0:0:
96,118,54972,1,0,0:0:0:0:
96,118,55175,1,2,0:0:0:0:
96,118,55276,1,2,0:0:0:0:
96,118,55377,1,2,0:0:0:0:
96,118,55479,1,0,0:0:0:0:
111,136,55986,1,2,0:0:0:0:
111,136,56391,1,0,0:0:0:0:
111,136,56594,1,2,0:0:0:0:
111,136,56661,1,2,0:0:0:0:
111,136,56729,1,2,0:0:0:0:
111,136,56796,1,0,0:0:0:0:
135,125,56999,1,0,0:0:0:0:
135,125,57100,1,0,0:0:0:0:
135,125,57202,1,2,0:0:0:0:
135,125,57404,1,0,0:0:0:0:
106,84,57607,1,0,0:0:0:0:
135,125,57708,1,0,0:0:0:0:
135,125,57810,1,2,0:0:0:0:
135,125,57911,1,2,0:0:0:0:
190,101,58013,1,0,0:0:0:0:
69,162,58418,1,4,0:0:0:0:
135,154,58621,1,2,0:0:0:0:
135,154,58823,1,0,0:0:0:0:
135,154,58925,1,2,0:0:0:0:
147,133,59127,1,0,0:0:0:0:
75,90,59330,1,0,0:0:0:0:
75,90,59431,1,2,0:0:0:0:
75,90,59533,1,2,0:0:0:0:
91,78,59634,1,0,0:0:0:0:
92,73,59837,1,2,0:0:0:0:
122,196,59938,1,0,0:0:0:0:
92,69,60040,1,0,0:0:0:0:
92,69,60242,1,2,0:0:0:0:
92,69,60445,1,2,0:0:0:0:
92,69,60648,1,0,0:0:0:0:
72,152,60749,1,0,0:0:0:0:
72,152,60952,1,2,0:0:0:0:
72,152,61053,1,0,0:0:0:0:
72,152,61154,1,2,0:0:0:0:
96,118,61256,1,0,0:0:0:0:
96,118,61458,1,0,0:0:0:0:
96,118,61661,1,2,0:0:0:0:
96,118,61763,1,2,0:0:0:0:
96,118,61864,1,2,0:0:0:0:
96,118,61965,1,2,0:0:0:0:
76,108,62067,1,2,0:0:0:0:
96,118,62472,1,2,0:0:0:0:
96,118,62573,1,2,0:0:0:0:
96,118,62675,1,2,0:0:0:0:
96,118,62776,1,2,0:0:0:0:
76,108,62877,1,2,0:0:0:0:
135,125,63283,1,0,0:0:0:0:
135,125,63384,1,2,0:0:0:0:
135,125,63486,1,2,0:0:0:0:
135,125,63688,1,0,0:0:0:0:
106,84,63790,1,0,0:0:0:0:
135,125,63891,1,2,0:0:0:0:
135,125,64094,1,4,0:0:0:0:
225,209,64499,1,0,0:0:0:0:
225,209,64600,1,0,0:0:0:0:
225,209,64702,1,0,0:0:0:0:
225,209,64803,1,0,0:0:0:0:
67,172,64904,1,2,0:0:0:0:
233,135,65107,1,0,0:0:0:0:
242,137,65310,1,2,0:0:0:0:
242,137,65513,1,2,0:0:0:0:
242,137,65614,1,0,0:0:0:0:
242,137,65715,1,0,0:0:0:0:
192,192,65918,1,2,0:0:0:0:
221,120,66121,1,0,0:0:0:0:
112,207,66323,1,2,0:0:0:0:
221,120,66425,1,2,0:0:0:0:
221,120,66526,1,0,0:0:0:0:
128,128,66729,1,2,0:0:0:0:
128,128,66830,1,0,0:0:0:0:
231,173,66931,1,0,0:0:0:0:
231,173,67134,1,0,0:0:0:0:
231,173,67236,1,0,0:0:0:0:
231,173,67337,1,2,0:0:0:0:
231,173,67540,1,0,0:0:0:0:
231,173,67641,1,2,0:0:0:0:
426,376,67742,1,2,0:0:0:0:
336,293,67945,1,2,0:0:0:0:
336,293,68046,1,0,0:0:0:0:
336,293,68148,1,2,0:0:0:0:
94,137,68350,1,2,0:0:0:0:
94,137,68553,1,0,0:0:0:0:
94,137,68756,1,0,0:0:0:0:
89,101,68857,1,2,0:0:0:0:
89,101,68959,1,0,0:0:0:0:
182,121,69161,1,0,0:0:0:0:
182,121,69364,1,0,0:0:0:0:
182,121,69567,1,2,0:0:0:0:
130,89,69769,1,0,0:0:0:0:
130,89,69871,1,2,0:0:0:0:
130,89,69972,1,2,0:0:0:0:
130,89,70175,1,2,0:0:0:0:
130,89,70276,1,0,0:0:0:0:
130,89,70377,1,0,0:0:0:0:
130,89,70479,1,0,0:0:0:0:
130,89,70580,1,2,0:0:0:0:
130,89,70783,1,0,0:0:0:0:
130,89,70986,1,0,0:0:0:0:
130,89,71087,1,0,0:0:0:0:
130,89,71188,1,2,0:0:0:0:
166,125,71290,1,2,0:0:0:0:
145,149,71391,1,0,0:0:0:0:
242,137,71796,1,2,0:0:0:0:
242,137,71999,1,2,0:0:0:0:
242,137,72100,1,0,0:0:0:0:
242,137,72201,1,0,0:0:0:0:
192,192,72404,1,2,0:0:0:0:
221,120,72607,1,0,0:0:0:0:
112,207,72809,1,2,0:0:0:0:
221,120,72911,1,2,0:0:0:0:
221,120,73012,1,0,0:0:0:0:
128,128,73215,1,2,0:0:0:0:
128,128,73316,1,0,0:0:0:0:
231,173,73417,1,0,0:0:0:0:
231,173,73620,1,0,0:0:0:0:
231,173,73722,1,0,0:0:0:0:
231,173,73823,1,2,0:0:0:0:
231,173,74026,1,0,0:0:0:0:
231,173,74127,1,2,0:0:0:0:
426,376,74228,1,2,0:0:0:0:
336,293,74431,1,2,0:0:0:0:
336,293,74532,1,0,0:0:0:0:
336,293,74634,1,2,0:0:0:0:
94,137,74836,1,2,0:0:0:0:
94,137,75039,1,0,0:0:0:0:
94,137,75242,1,0,0:0:0:0:
89,101,75343,1,2,0:0:0:0:
89,101,75445,1,0,0:0:0:0:
182,121,75647,1,0,0:0:0:0:
182,121,75850,1,0,0:0:0:0:
182,121,76053,1,2,0:0:0:0:
130,89,76255,1,0,0:0:0:0:
130,89,76357,1,2,0:0:0:0:
130,89,76458,1,2,0:0:0:0:
130,89,76661,1,2,0:0:0:0:
130,89,76762,1,0,0:0:0:0:
130,89,76863,1,0,0:0:0:0:
130,89,76965,1,0,0:0:0:0:
130,89,77066,1,2,0:0:0:0:
96,96,77472,1,2,0:0:0:0:
96,96,77573,1,2,0:0:0:0:
96,96,77675,1,0,0:0:0:0:
96,96,77776,1,0,0:0:0:0:
96,96,77877,1,2,0:0:0:0:
242,137,78283,1,0,0:0:0:0:
242,137,78486,1,0,0:0:0:0:
242,137,78587,1,2,0:0:0:0:
242,137,78688,1,2,0:0:0:0:
192,192,78891,1,0,0:0:0:0:
221,120,79094,1,2,0:0:0:0:
112,207,79296,1,0,0:0:0:0:
221,120,79398,1,0,0:0:0:0:
221,120,79499,1,2,0:0:0:0:
128,128,79702,1,0,0:0:0:0:
128,128,79803,1,2,0:0:0:0:
231,173,79904,1,2,0:0:0:0:
231,173,80107,1,2,0:0:0:0:
231,173,80209,1,2,0:0:0:0:
231,173,80310,1,0,0:0:0:0:
231,173,80513,1,2,0:0:0:0:
231,173,80614,1,0,0:0:0:0:
426,376,80715,1,0,0:0:0:0:
336,293,80918,1,0,0:0:0:0:
336,293,81019,1,2,0:0:0:0:
336,293,81121,1,0,0:0:0:0:
94,137,81323,1,0,0:0:0:0:
94,137,81526,1,2,0:0:0:0:
94,137,81729,1,2,0:0:0:0:
89,101,81830,1,0,0:0:0:0:
89,101,81932,1,2,0:0:0:0:
182,121,82134,1,2,0:0:0:0:
182,121,82337,1,2,0:0:0:0:
182,121,82540,1,0,0:0:0:0:
130,89,82742,1,2,0:0:0:0:
130,89,82844,1,0,0:0:0:0:
130,89,82945,1,0,0:0:0:0:
130,89,83148,1,0,0:0:0:0:
130,89,83249,1,2,0:0:0:0:
130,89,83350,1,2,0:0:0:0:
130,89,83452,1,2,0:0:0:0:
130,89,83553,1,0,0:0:0:0:
130,89,83756,1,2,0:0:0:0:
130,89,83959,1,2,0:0:0:0:
130,89,84060,1,2,0:0:0:0:
130,89,84161,1,0,0:0:0:0:
166,125,84263,1,0,0:0:0:0:
145,149,84364,1,2,0:0:0:0:
242,137,84769,1,0,0:0:0:0:
242,137,84972,1,0,0:0:0:0:
242,137,85073,1,2,0:0:0:0:
242,137,85175,1,2,0:0:0:0:
192,192,85377,1,0,0:0:0:0:
221,120,85580,1,2,0:0:0:0:
112,207,85782,1,0,0:0:0:0:
221,120,85884,1,0,0:0:0:0:
221,120,85985,1,2,0:0:0:0:
128,128,86188,1,0,0:0:0:0:
128,128,86289,1,2,0:0:0:0:
231,173,86390,1,2,0:0:0:0:
231,173,86593,1,2,0:0:0:0:
231,173,86695,1,2,0:0:0:0:
231,173,86796,1,0,0:0:0:0:
231,173,86999,1,2,0:0:0:0:
231,173,87100,1,0,0:0:0:0:
426,376,87201,1,0,0:0:0:0:
336,293,87404,1,0,0:0:0:0:
336,293,87505,1,2,0:0:0:0:
336,293,87607,1,0,0:0:0:0:
94,137,87809,1,0,0:0:0:0:
94,137,88012,1,2,0:0:0:0:
94,137,88215,1,2,0:0:0:0:
89,101,88316,1,0,0:0:0:0:
89,101,88418,1,2,0:0:0:0:
182,121,88620,1,2,0:0:0:0:
182,121,88823,1,2,0:0:0:0:
182,121,89026,1,0,0:0:0:0:
230,161,89094,1,0,0:0:0:0:
230,161,89161,1,0,0:0:0:0:
230,161,89229,1,2,0:0:0:0:
128,160,90850,1,0,0:0:0:0:
141,167,91256,1,2,0:0:0:0:
141,167,91459,1,0,0:0:0:0:
141,167,91560,1,2,0:0:0:0:
84,137,91763,1,2,0:0:0:0:
84,137,91864,1,0,0:0:0:0:
84,137,91965,1,0,0:0:0:0:
84,137,92067,1,0,0:0:0:0:
195,123,92269,1,2,0:0:0:0:
187,120,92472,1,0,0:0:0:0:
187,120,92675,1,0,0:0:0:0:
187,120,92877,1,2,0:0:0:0:
187,120,93080,1,2,0:0:0:0:
187,120,93182,1,0,0:0:0:0:
33,124,93688,1,2,0:0:0:0:
33,124,93891,1,2,0:0:0:0:
33,124,93992,1,2,0:0:0:0:
33,124,94094,1,0,0:0:0:0:
33,124,94398,1,2,0:0:0:0:
33,124,94702,1,0,0:0:0:0:
33,124,94803,1,0,0:0:0:0:
33,124,94905,1,0,0:0:0:0:
194,72,95310,1,2,0:0:0:0:
194,72,95513,1,0,0:0:0:0:
194,72,95614,1,0,0:0:0:0:
194,72,95715,1,2,0:0:0:0:
188,65,96019,1,2,0:0:0:0:
149,78,96323,1,2,0:0:0:0:
149,78,96425,1,0,0:0:0:0:
151,83,96526,1,2,0:0:0:0:
75,145,96932,1,0,0:0:0:0:
70,160,97134,1,2,0:0:0:0:
141,167,97540,1,2,0:0:0:0:
141,167,97742,1,0,0:0:0:0:
141,167,97945,1,2,0:0:0:0:
141,167,98046,1,0,0:0:0:0:
84,137,98249,1,2,0:0:0:0:
84,137,98350,1,0,0:0:0:0:
84,137,98452,1,2,0:0:0:0:
84,137,98553,1,2,0:0:0:0:
195,123,98756,1,0,0:0:0:0:
187,120,98959,1,0,0:0:0:0:
187,120,99161,1,2,0:0:0:0:
187,120,99364,1,0,0:0:0:0:
187,120,99567,1,2,0:0:0:0:
187,120,99668,1,0,0:0:0:0:
33,124,100175,1,0,0:0:0:0:
33,124,100378,1,2,0:0:0:0:
33,124,100479,1,0,0:0:0:0:
33,124,100580,1,0,0:0:0:0:
33,124,100884,1,0,0:0:0:0:
33,124,101188,1,2,0:0:0:0:
33,124,101290,1,2,0:0:0:0:
33,124,101391,1,0,0:0:0:0:
194,72,101796,1,2,0:0:0:0:
194,72,101999,1,0,0:0:0:0:
194,72,102100,1,0,0:0:0:0:
194,72,102202,1,2,0:0:0:0:
188,65,102506,1,2,0:0:0:0:
149,78,102810,1,2,0:0:0:0:
149,78,102911,1,0,0:0:0:0:
151,83,103013,1,2,0:0:0:0:
75,145,103418,1,2,0:0:0:0:
70,160,103621,1,2,0:0:0:0:
237,131,103823,1,0,0:0:0:0:
141,167,104229,1,2,0:0:0:0:
141,167,104432,1,0,0:0:0:0:
141,167,104533,1,2,0:0:0:0:
84,137,104736,1,2,0:0:0:0:
84,137,104837,1,0,0:0:0:0:
84,137,104938,1,0,0:0:0:0:
84,137,105040,1,0,0:0:0:0:
195,123,105242,1,2,0:0:0:0:
187,120,105445,1,0,0:0:0:0:
187,120,105648,1,0,0:0:0:0:
187,120,105850,1,2,0:0:0:0:
187,120,106053,1,2,0:0:0:0:
187,120,106155,1,0,0:0:0:0:
33,124,106661,1,0,0:0:0:0:
33,124,106864,1,0,0:0:0:0:
33,124,106965,1,0,0:0:0:0:
33,124,107067,1,2,0:0:0:0:
33,124,107371,1,0,0:0:0:0:
33,124,107675,1,2,0:0:0:0:
33,124,107776,1,2,0:0:0:0:
33,124,107878,1,2,0:0:0:0:
194,72,108283,1,0,0:0:0:0:
194,72,108486,1,2,0:0:0:0:
194,72,108587,1,2,0:0:0:0:
194,72,108688,1,0,0:0:0:0:
188,65,108992,1,0,0:0:0:0:
149,78,109296,1,0,0:0:0:0:
149,78,109398,1,2,0:0:0:0:
151,83,109499,1,0,0:0:0:0:
75,145,109905,1,0,0:0:0:0:
70,160,110107,1,2,0:0:0:0:
141,167,110513,1,2,0:0:0:0:
141,167,110715,1,0,0:0:0:0:
141,167,110918,1,2,0:0:0:0:
141,167,111019,1,0,0:0:0:0:
84,137,111222,1,2,0:0:0:0:
84,137,111323,1,0,0:0:0:0:
84,137,111425,1,2,0:0:0:0:
84,137,111526,1,2,0:0:0:0:
195,123,111729,1,0,0:0:0:0:
187,120,111932,1,0,0:0:0:0:
187,120,112134,1,2,0:0:0:0:
187,120,112337,1,0,0:0:0:0:
187,120,112540,1,2,0:0:0:0:
187,120,112641,1,0,0:0:0:0:
33,124,113148,1,0,0:0:0:0:
33,124,113351,1,0,0:0:0:0:
33,124,113452,1,0,0:0:0:0:
33,124,113554,1,2,0:0:0:0:
33,124,113858,1,0,0:0:0:0:
33,124,114162,1,2,0:0:0:0:
33,124,114263,1,2,0:0:0:0:
33,124,114365,1,2,0:0:0:0:
194,72,114770,1,0,0:0:0:0:
194,72,114973,1,2,0:0:0:0:
194,72,115074,1,2,0:0:0:0:
194,72,115175,1,0,0:0:0:0:
188,65,115479,1,0,0:0:0:0:
149,78,115783,1,0,0:0:0:0:
149,78,115885,1,2,0:0:0:0:
151,83,115986,1,0,0:0:0:0:
75,145,116391,1,4,0:0:0:0:
70,160,116594,1,4,0:0:0:0:
152,144,116796,1,4,0:0:0:0:
95,119,117101,1,2,0:0:0:0:
95,119,117202,1,0,0:0:0:0:
80,119,117405,1,0,0:0:0:0:
213,121,117607,1,0,0:0:0:0:
107,127,117709,1,2,0:0:0:0:
112,125,117911,1,2,0:0:0:0:
155,152,118013,1,0,0:0:0:0:
137,108,118215,1,2,0:0:0:0:
152,144,118418,1,0,0:0:0:0:
95,119,118722,1,0,0:0:0:0:
95,119,118824,1,2,0:0:0:0:
80,119,119026,1,0,0:0:0:0:
213,121,119229,1,0,0:0:0:0:
107,127,119330,1,0,0:0:0:0:
112,125,119533,1,0,0:0:0:0:
155,152,119634,1,2,0:0:0:0:
137,108,119837,1,2,0:0:0:0:
152,144,120040,1,2,0:0:0:0:
95,119,120344,1,0,0:0:0:0:
95,119,120445,1,0,0:0:0:0:
80,119,120648,1,2,0:0:0:0:
213,121,120851,1,0,0:0:0:0:
107,127,120952,1,0,0:0:0:0:
112,125,121155,1,2,0:0:0:0:
155,152,121256,1,2,0:0:0:0:
137,108,121459,1,2,0:0:0:0:
152,144,121661,1,2,0:0:0:0:
95,119,121965,1,2,0:0:0:0:
95,119,122067,1,0,0:0:0:0:
80,119,122269,1,2,0:0:0:0:
213,121,122472,1,0,0:0:0:0:
107,127,122574,1,2,0:0:0:0:
112,125,122776,1,0,0:0:0:0:
155,152,122878,1,0,0:0:0:0:
137,108,123080,1,0,0:0:0:0:
152,144,123283,1,6,0:0:0:0:
95,119,123587,1,2,0:0:0:0:
95,119,123688,1,2,0:0:0:0:
80,119,123891,1,0,0:0:0:0:
213,121,124094,1,2,0:0:0:0:
107,127,124195,1,0,0:0:0:0:
112,125,124398,1,2,0:0:0:0:
155,152,124499,1,0,0:0:0:0:
137,108,124702,1,0,0:0:0:0:
152,144,124905,1,0,0:0:0:0:
95,119,125209,1,2,0:0:0:0:
95,119,125310,1,0,0:0:0:0:
80,119,125513,1,2,0:0:0:0:
213,121,125715,1,2,0:0:0:0:
107,127,125817,1,2,0:0:0:0:
112,125,126019,1,2,0:0:0:0:
155,152,126121,1,0,0:0:0:0:
137,108,126324,1,0,0:0:0:0:
152,144,126526,1,2,0:0:0:0:
95,119,126830,1,0,0:0:0:0:
95,119,126932,1,0,0:0:0:0:
80,119,127134,1,0,0:0:0:0:
213,121,127337,1,0,0:0:0:0:
107,127,127438,1,2,0:0:0:0:
112,125,127641,1,0,0:0:0:0:
155,152,127742,1,0,0:0:0:0:
137,108,127945,1,2,0:0:0:0:
152,144,128148,1,2,0:0:0:0:
95,119,128452,1,0,0:0:0:0:
95,119,128553,1,2,0:0:0:0:
80,119,128756,1,0,0:0:0:0:
213,121,128959,1,0,0:0:0:0:
107,127,129060,1,2,0:0:0:0:
112,125,129263,1,2,0:0:0:0:
155,152,129364,1,2,0:0:0:0:
137,108,129567,1,0,0:0:0:0:
190,84,129769,1,2,0:0:0:0:
190,84,129871,1,2,0:0:0:0:
190,84,129972,1,2,0:0:0:0:
190,84,130074,1,2,0:0:0:0:
190,84,130175,1,0,0:0:0:0:
190,84,130378,1,0,0:0:0:0:
190,84,130479,1,2,0:0:0:0:
190,84,130580,1,0,0:0:0:0:
190,84,130783,1,0,0:0:0:0:
196,159,130986,1,2,0:0:0:0:
235,157,131188,1,0,0:0:0:0:
235,157,131290,1,0,0:0:0:0:
235,157,131391,1,2,0:0:0:0:
370,170,131695,1,0,0:0:0:0:
254,204,131797,1,2,0:0:0:0:
118,115,131999,1,0,0:0:0:0:
114,104,132202,1,2,0:0:0:0:
357,114,132405,1,2,0:0:0:0:
357,114,132607,1,4,0:0:0:0:
