osu file format v14

[General]
AudioFilename: audio.mp3
AudioLeadIn: 0
PreviewTime: 64499
Countdown: 1
SampleSet: Normal
StackLeniency: 0.7
Mode: 1
LetterboxInBreaks: 0
WidescreenStoryboard: 1

[Editor]
DistanceSpacing: 0.8
BeatDivisor: 4
GridSize: 32
TimelineZoom: 1.5

[Metadata]
Title:Death by Glamour
TitleUnicode:Death by Glamour
Artist:toby fox
ArtistUnicode:toby fox
Creator:GOD82028
Version:Futsuu
Source:UNDERTALE
Tags:Mettaton Radiation chiptune bossfight
BeatmapID:2039027
BeatmapSetID:973439

[Difficulty]
HPDrainRate:7
CircleSize:6
OverallDifficulty:4
ApproachRate:5
SliderMultiplier:1.4
SliderTickRate:1

[Events]
//Background and Video events
0,0,"thumb-1920-731367.png",0,60
//Break Periods
//Storyboard Layer 0 (Background)
//Storyboard Layer 1 (Fail)
//Storyboard Layer 2 (Pass)
//Storyboard Layer 3 (Foreground)
//Storyboard Layer 4 (Overlay)
//Storyboard Sound Samples

[TimingPoints]
40,405.406385737439,4,1,0,50,1,0
64905,-100,4,1,0,65,0,1
89229,-100,4,1,0,65,0,0
90851,-100,4,1,0,60,0,0
116797,-100,4,1,0,65,0,0
129770,-100,4,1,0,40,0,0

[HitObjects]
96,96,40,5,0,0:0:0:0:
96,96,445,1,0,0:0:0:0:
96,96,850,1,2,0:0:0:0:
96,96,1154,1,2,0:0:0:0:
96,96,1458,1,0,0:0:0:0:
96,96,1864,1,0,0:0:0:0:
96,96,2066,1,0,0:0:0:0:
96,96,2472,1,2,0:0:0:0:
96,96,3283,1,0,0:0:0:0:
96,96,3689,1,0,0:0:0:0:
96,96,4094,1,2,0:0:0:0:
96,96,4398,1,2,0:0:0:0:
96,96,4702,1,0,0:0:0:0:
96,96,5108,1,0,0:0:0:0:
96,96,5310,1,0,0:0:0:0:
96,96,5716,1,2,0:0:0:0:
96,96,6526,1,0,0:0:0:0:
96,96,6931,1,2,0:0:0:0:
96,96,7134,1,2,0:0:0:0:
96,96,7337,1,0,0:0:0:0:
96,96,7641,1,2,0:0:0:0:
96,96,7945,1,0,0:0:0:0:
96,96,8350,1,0,0:0:0:0:
96,96,8553,1,0,0:0:0:0:
96,96,8958,1,2,0:0:0:0:
96,96,9769,1,0,0:0:0:0:
96,96,10174,1,2,0:0:0:0:
96,96,10377,1,2,0:0:0:0:
96,96,10580,1,0,0:0:0:0:
96,96,10884,1,2,0:0:0:0:
96,96,11188,1,0,0:0:0:0:
96,96,11593,1,0,0:0:0:0:
96,96,11796,1,0,0:0:0:0:
96,96,12201,1,2,0:0:0:0:
96,96,13012,1,0,0:0:0:0:
96,96,13215,1,0,0:0:0:0:
96,96,13418,1,2,0:0:0:0:
96,96,13823,1,0,0:0:0:0:
96,96,14127,1,0,0:0:0:0:
96,96,14431,1,2,0:0:0:0:
96,96,14837,1,0,0:0:0:0:
96,96,15039,1,0,0:0:0:0:
96,96,15242,1,0,0:0:0:0:
96,96,15445,1,2,0:0:0:0:
96,96,16256,1,0,0:0:0:0:
96,96,16459,1,0,0:0:0:0:
96,96,16662,1,2,0:0:0:0:
96,96,17067,1,0,0:0:0:0:
96,96,17371,1,0,0:0:0:0:
96,96,17675,1,2,0:0:0:0:
96,96,18081,1,0,0:0:0:0:
96,96,18283,1,0,0:0:0:0:
96,96,18486,1,0,0:0:0:0:
96,96,18689,1,2,0:0:0:0:
96,96,19499,1,0,0:0:0:0:
96,96,19702,1,2,0:0:0:0:
96,96,19904,1,0,0:0:0:0:
96,96,20310,1,0,0:0:0:0:
96,96,20614,1,0,0:0:0:0:
96,96,20918,1,0,0:0:0:0:
96,96,21323,1,2,0:0:0:0:
96,96,21526,1,0,0:0:0:0:
96,96,21729,1,0,0:0:0:0:
96,96,21931,1,0,0:0:0:0:
96,96,22742,1,0,0:0:0:0:
96,96,22945,1,2,0:0:0:0:
96,96,23147,1,0,0:0:0:0:
96,96,23553,1,0,0:0:0:0:
96,96,23857,1,0,0:0:0:0:
96,96,24161,1,0,0:0:0:0:
96,96,24566,1,2,0:0:0:0:
96,96,24769,1,0,0:0:0:0:
96,96,24972,1,0,0:0:0:0:
96,96,25174,1,0,0:0:0:0:
96,96,25985,1,4,0:0:0:0:
96,96,26391,1,2,0:0:0:0:
96,96,26796,1,0,0:0:0:0:
96,96,26999,1,0,0:0:0:0:
96,96,27202,1,2,0:0:0:0:
96,96,27404,1,0,0:0:0:0:
96,96,27810,1,0,0:0:0:0:
96,96,28012,1,0,0:0:0:0:
96,96,28418,1,2,0:0:0:0:
96,96,29229,1,0,0:0:0:0:
96,96,29634,1,2,0:0:0:0:
96,96,30040,1,0,0:0:0:0:
96,96,30242,1,0,0:0:0:0:
96,96,30445,1,2,0:0:0:0:
96,96,30648,1,0,0:0:0:0:
96,96,31053,1,0,0:0:0:0:
96,96,31256,1,0,0:0:0:0:
96,96,31661,1,2,0:0:0:0:
96,96,32472,1,6,0:0:0:0:
96,96,32877,1,0,0:0:0:0:
96,96,33283,1,2,0:0:0:0:
96,96,33485,1,2,0:0:0:0:
96,96,33688,1,0,0:0:0:0:
96,96,33891,1,2,0:0:0:0:
96,96,34296,1,2,0:0:0:0:
96,96,34499,1,2,0:0:0:0:
96,96,34904,1,0,0:0:0:0:
96,96,35715,1,2,0:0:0:0:
96,96,36121,1,0,0:0:0:0:
96,96,36526,1,2,0:0:0:0:
96,96,36729,1,2,0:0:0:0:
96,96,36931,1,0,0:0:0:0:
96,96,37134,1,2,0:0:0:0:
96,96,37540,1,2,0:0:0:0:
96,96,37742,1,2,0:0:0:0:
96,96,38148,1,0,0:0:0:0:
96,96,38958,1,0,0:0:0:0:
96,96,39161,1,0,0:0:0:0:
96,96,39364,1,2,0:0:0:0:
96,96,39769,1,0,0:0:0:0:
96,96,40175,1,0,0:0:0:0:
96,96,40580,1,0,0:0:0:0:
96,96,40783,1,2,0:0:0:0:
96,96,40985,1,2,0:0:0:0:
96,96,41391,1,2,0:0:0:0:
96,96,41796,1,0,0:0:0:0:
96,96,42202,1,0,0:0:0:0:
96,96,42404,1,0,0:0:0:0:
96,96,42607,1,2,0:0:0:0:
64,96,43823,1,6,0:0:0:0:
64,96,44229,1,6,0:0:0:0:
64,96,44634,1,2,0:0:0:0:
64,96,44837,1,2,0:0:0:0:
64,96,45040,1,0,0:0:0:0:
96,96,45445,1,0,0:0:0:0:
96,96,45648,1,0,0:0:0:0:
96,96,45850,1,2,0:0:0:0:
96,96,46256,1,0,0:0:0:0:
96,96,46661,1,0,0:0:0:0:
96,96,47067,1,0,0:0:0:0:
96,96,47269,1,2,0:0:0:0:
96,96,47472,1,2,0:0:0:0:
96,96,47877,1,2,0:0:0:0:
96,96,48283,1,0,0:0:0:0:
96,96,48688,1,0,0:0:0:0:
96,96,48891,1,0,0:0:0:0:
96,96,49094,1,2,0:0:0:0:
64,96,50310,1,6,0:0:0:0:
64,96,50715,1,6,0:0:0:0:
64,96,51121,1,2,0:0:0:0:
64,96,51323,1,2,0:0:0:0:
64,96,51526,1,0,0:0:0:0:
96,96,51931,1,0,0:0:0:0:
96,96,52134,1,2,0:0:0:0:
96,96,52336,1,0,0:0:0:0:
96,96,52742,1,2,0:0:0:0:
96,96,53147,1,0,0:0:0:0:
96,96,53553,1,2,0:0:0:0:
96,96,53755,1,2,0:0:0:0:
96,96,53958,1,0,0:0:0:0:
96,96,54363,1,2,0:0:0:0:
96,96,54769,1,2,0:0:0:0:
96,96,55174,1,2,0:0:0:0:
96,96,55377,1,0,0:0:0:0:
96,96,55580,1,0,0:0:0:0:
64,96,56796,1,4,0:0:0:0:
64,96,57201,1,4,0:0:0:0:
64,96,57607,1,0,0:0:0:0:
64,96,57809,1,0,0:0:0:0:
64,96,58012,1,2,0:0:0:0:
96,96,58418,1,0,0:0:0:0:
96,96,58621,1,2,0:0:0:0:
96,96,58823,1,0,0:0:0:0:
96,96,59229,1,2,0:0:0:0:
96,96,59634,1,0,0:0:0:0:
96,96,60040,1,2,0:0:0:0:
96,96,60242,1,2,0:0:0:0:
96,96,60445,1,0,0:0:0:0:
96,96,60850,1,2,0:0:0:0:
96,96,61256,1,2,0:0:0:0:
96,96,61661,1,0,0:0:0:0:
96,96,61864,1,0,0:0:0:0:
96,96,62067,1,2,0:0:0:0:
96,96,62472,1,0,0:0:0:0:
96,96,62675,1,0,0:0:0:0:
96,96,62877,1,2,0:0:0:0:
96,96,63283,1,0,0:0:0:0:
96,96,63486,1,2,0:0:0:0:
96,96,63688,1,0,0:0:0:0:
96,96,63891,1,2,0:0:0:0:
96,96,64094,1,0,0:0:0:0:
96,96,64904,1,6,0:0:0:0:
96,96,65310,1,2,0:0:0:0:
96,96,65513,1,2,0:0:0:0:
96,96,65715,1,0,0:0:0:0:
96,96,66121,1,2,0:0:0:0:
96,96,66323,1,0,0:0:0:0:
96,96,66526,1,0,0:0:0:0:
96,96,66931,1,0,0:0:0:0:
96,96,67337,1,2,0:0:0:0:
96,96,67742,1,2,0:0:0:0:
96,96,68148,1,0,0:0:0:0:
96,96,68553,1,2,0:0:0:0:
96,96,68756,1,2,0:0:0:0:
96,96,68959,1,0,0:0:0:0:
96,96,69364,1,2,0:0:0:0:
96,96,69769,1,0,0:0:0:0:
96,96,69972,1,0,0:0:0:0:
96,96,70175,1,2,0:0:0:0:
96,96,70377,1,0,0:0:0:0:
96,96,70580,1,2,0:0:0:0:
96,96,71391,1,6,0:0:0:0:
96,96,71796,1,2,0:0:0:0:
96,96,71999,1,2,0:0:0:0:
96,96,72202,1,0,0:0:0:0:
96,96,72607,1,2,0:0:0:0:
96,96,72810,1,0,0:0:0:0:
96,96,73013,1,0,0:0:0:0:
96,96,73418,1,0,0:0:0:0:
96,96,73823,1,2,0:0:0:0:
96,96,74229,1,2,0:0:0:0:
96,96,74634,1,0,0:0:0:0:
96,96,75040,1,2,0:0:0:0:
96,96,75242,1,2,0:0:0:0:
96,96,75445,1,0,0:0:0:0:
96,96,75850,1,0,0:0:0:0:
96,96,76256,1,0,0:0:0:0:
96,96,76459,1,0,0:0:0:0:
96,96,76661,1,2,0:0:0:0:
96,96,76864,1,0,0:0:0:0:
96,96,77067,1,0,0:0:0:0:
96,96,77877,1,4,0:0:0:0:
96,96,78283,1,0,0:0:0:0:
96,96,78486,1,0,0:0:0:0:
96,96,78688,1,2,0:0:0:0:
96,96,79094,1,0,0:0:0:0:
96,96,79296,1,2,0:0:0:0:
96,96,79499,1,2,0:0:0:0:
96,96,79904,1,2,0:0:0:0:
96,96,80310,1,0,0:0:0:0:
96,96,80715,1,0,0:0:0:0:
96,96,81121,1,2,0:0:0:0:
96,96,81526,1,0,0:0:0:0:
96,96,81729,1,0,0:0:0:0:
96,96,81932,1,2,0:0:0:0:
96,96,82337,1,0,0:0:0:0:
96,96,82742,1,2,0:0:0:0:
96,96,82945,1,2,0:0:0:0:
96,96,83148,1,0,0:0:0:0:
96,96,83350,1,2,0:0:0:0:
96,96,83553,1,0,0:0:0:0:
96,96,84364,1,4,0:0:0:0:
96,96,84769,1,0,0:0:0:0:
96,96,84972,1,0,0:0:0:0:
96,96,85175,1,2,0:0:0:0:
96,96,85580,1,0,0:0:0:0:
96,96,85783,1,2,0:0:0:0:
96,96,85986,1,2,0:0:0:0:
96,96,86391,1,2,0:0:0:0:
96,96,86796,1,0,0:0:0:0:
96,96,87202,1,0,0:0:0:0:
96,96,87607,1,2,0:0:0:0:
96,96,88013,1,0,0:0:0:0:
96,96,88215,1,0,0:0:0:0:
96,96,88418,1,2,0:0:0:0:
96,96,88823,1,2,0:0:0:0:
96,96,89229,1,4,0:0:0:0:
96,96,90850,1,2,0:0:0:0:
96,96,91256,1,2,0:0:0:0:
96,96,91459,1,0,0:0:0:0:
96,96,91661,1,0,0:0:0:0:
96,96,92067,1,2,0:0:0:0:
96,96,92472,1,0,0:0:0:0:
96,96,92675,1,0,0:0:0:0:
96,96,92877,1,2,0:0:0:0:
96,96,93080,1,0,0:0:0:0:
96,96,93283,1,0,0:0:0:0:
96,96,93688,1,0,0:0:0:0:
96,96,94094,1,2,0:0:0:0:
96,96,94499,1,2,0:0:0:0:
128,96,94702,1,2,0:0:0:0:
128,96,94905,1,2,0:0:0:0:
128,96,95310,1,2,0:0:0:0:
128,96,95715,1,0,0:0:0:0:
128,96,96121,1,0,0:0:0:0:
128,96,96323,1,0,0:0:0:0:
128,96,96526,1,0,0:0:0:0:
128,96,96932,1,0,0:0:0:0:
96,96,97540,1,2,0:0:0:0:
96,96,97742,1,2,0:0:0:0:
96,96,97945,1,0,0:0:0:0:
96,96,98148,1,2,0:0:0:0:
96,96,98553,1,2,0:0:0:0:
96,96,98959,1,0,0:0:0:0:
96,96,99364,1,2,0:0:0:0:
96,96,99567,1,2,0:0:0:0:
96,96,99769,1,0,0:0:0:0:
96,96,100175,1,2,0:0:0:0:
96,96,100580,1,0,0:0:0:0:
96,96,100986,1,0,0:0:0:0:
128,96,101188,1,2,0:0:0:0:
128,96,101391,1,0,0:0:0:0:
128,96,101796,1,0,0:0:0:0:
128,96,102202,1,2,0:0:0:0:
128,96,102607,1,2,0:0:0:0:
128,96,102810,1,0,0:0:0:0:
128,96,103013,1,2,0:0:0:0:
96,96,103823,1,0,0:0:0:0:
96,96,104229,1,0,0:0:0:0:
96,96,104432,1,2,0:0:0:0:
96,96,104634,1,2,0:0:0:0:
96,96,105040,1,0,0:0:0:0:
96,96,105445,1,2,0:0:0:0:
96,96,105648,1,2,0:0:0:0:
96,96,105850,1,0,0:0:0:0:
96,96,106053,1,2,0:0:0:0:
96,96,106256,1,2,0:0:0:0:
96,96,106661,1,0,0:0:0:0:
96,96,107067,1,0,0:0:0:0:
96,96,107472,1,0,0:0:0:0:
128,96,107675,1,0,0:0:0:0:
128,96,107878,1,0,0:0:0:0:
128,96,108283,1,0,0:0:0:0:
128,96,108688,1,2,0:0:0:0:
128,96,109094,1,2,0:0:0:0:
128,96,109296,1,2,0:0:0:0:
128,96,109499,1,2,0:0:0:0:
128,96,109905,1,2,0:0:0:0:
96,96,110513,1,0,0:0:0:0:
96,96,110715,1,0,0:0:0:0:
96,96,110918,1,2,0:0:0:0:
96,96,111121,1,0,0:0:0:0:
96,96,111526,1,0,0:0:0:0:
96,96,111932,1,2,0:0:0:0:
96,96,112337,1,0,0:0:0:0:
96,96,112540,1,0,0:0:0:0:
96,96,112742,1,2,0:0:0:0:
96,96,113148,1,0,0:0:0:0:
96,96,113553,1,2,0:0:0:0:
96,96,113959,1,2,0:0:0:0:
128,96,114161,1,0,0:0:0:0:
128,96,114364,1,2,0:0:0:0:
128,96,114769,1,2,0:0:0:0:
128,96,115175,1,0,0:0:0:0:
128,96,115580,1,0,0:0:0:0:
128,96,115783,1,2,0:0:0:0:
128,96,115986,1,0,0:0:0:0:
96,96,116796,1,4,0:0:0:0:
96,96,116999,1,0,0:0:0:0:
96,96,117202,1,0,0:0:0:0:
96,96,117607,1,2,0:0:0:0:
96,96,117911,1,2,0:0:0:0:
96,96,118215,1,0,0:0:0:0:
96,96,118621,1,0,0:0:0:0:
96,96,118824,1,0,0:0:0:0:
96,96,119229,1,2,0:0:0:0:
96,96,119533,1,2,0:0:0:0:
96,96,120040,1,4,0:0:0:0:
96,96,120242,1,0,0:0:0:0:
96,96,120445,1,0,0:0:0:0:
96,96,120851,1,2,0:0:0:0:
96,96,121155,1,2,0:0:0:0:
96,96,121459,1,0,0:0:0:0:
96,96,121864,1,0,0:0:0:0:
96,96,122067,1,0,0:0:0:0:
96,96,122472,1,2,0:0:0:0:
96,96,123283,1,6,0:0:0:0:
96,96,123486,1,2,0:0:0:0:
96,96,123689,1,2,0:0:0:0:
96,96,124094,1,0,0:0:0:0:
96,96,124398,1,0,0:0:0:0:
96,96,124702,1,2,0:0:0:0:
96,96,125108,1,2,0:0:0:0:
96,96,125311,1,2,0:0:0:0:
96,96,125716,1,0,0:0:0:0:
96,96,126020,1,0,0:0:0:0:
96,96,126526,1,6,0:0:0:0:
96,96,126729,1,2,0:0:0:0:
96,96,126932,1,2,0:0:0:0:
96,96,127337,1,0,0:0:0:0:
96,96,127641,1,0,0:0:0:0:
96,96,127945,1,2,0:0:0:0:
96,96,128351,1,2,0:0:0:0:
96,96,128554,1,2,0:0:0:0:
96,96,128959,1,0,0:0:0:0:
96,96,129769,1,2,0:0:0:0:
96,96,129972,1,2,0:0:0:0:
96,96,130175,1,2,0:0:0:0:
96,96,130378,1,2,0:0:0:0:
96,96,130580,1,0,0:0:0:0:
96,96,130884,1,2,0:0:0:0:
96,96,131188,1,0,0:0:0:0:
96,96,131594,1,2,0:0:0:0:
96,96,131797,1,2,0:0:0:0:
96,96,132202,1,0,0:0:0:0:
96,96,132405,1,0,0:0:0:0:
96,96,132607,1,0,0:0:0:0:
