osu file format v14

[General]
AudioFilename: audio.mp3
AudioLeadIn: 0
PreviewTime: 68570
Countdown: 0
SampleSet: Normal
StackLeniency: 0.2
Mode: 0
LetterboxInBreaks: 0
WidescreenStoryboard: 1

[Editor]
DistanceSpacing: 0.6
BeatDivisor: 4
GridSize: 32
TimelineZoom: 1.9

[Metadata]
Title:Chaos King
TitleUnicode:Chaos King
Artist:Toby Fox
ArtistUnicode:Toby Fox
Creator:Quite Cynical
Version:i am the one the one the one dont need a gun
Source:
Tags:
BeatmapID:1897192
BeatmapSetID:909133

[Difficulty]
HPDrainRate:5
CircleSize:4
OverallDifficulty:8
ApproachRate:9.3
SliderMultiplier:2.5
SliderTickRate:1

[Events]
//Background and Video events
0,0,"2000dc3.jpg",0,0
//Break Periods
//Storyboard Layer 0 (Background)
//Storyboard Layer 1 (Fail)
//Storyboard Layer 2 (Pass)
//Storyboard Layer 3 (Foreground)
//Storyboard Sound Samples

[TimingPoints]
0,408.163265306122,4,1,0,100,1,0
0,-200,4,1,0,25,0,0
11428,-166.666666666667,4,1,0,25,0,0
12244,-142.857142857143,4,1,0,25,0,0
13061,-125,4,1,0,25,0,0
13877,-200,4,1,0,25,0,0
15408,-100,4,1,0,25,0,0
16326,204.081632653061,4,1,0,40,1,0

[Colours]
Combo1 : 255,255,255
Combo2 : 27,123,175

[HitObjects]
146,138,0,5,0,0:0:0:0:
146,138,306,1,0,0:0:0:0:
146,138,612,1,0,0:0:0:0:
146,138,918,1,0,0:0:0:0:
146,138,1224,5,0,0:0:0:0:
416,62,1428,1,0,0:0:0:0:
308,212,1632,1,0,0:0:0:0:
308,212,1938,5,0,0:0:0:0:
308,212,2244,1,0,0:0:0:0:
308,212,2551,1,0,0:0:0:0:
308,212,2857,1,0,0:0:0:0:
130,54,3061,1,0,0:0:0:0:
285,64,3265,1,0,0:0:0:0:
285,64,3571,1,0,0:0:0:0:
285,64,3877,1,0,0:0:0:0:
248,258,4081,6,0,P|328:180|459:179,1,218.75
24,242,4897,2,0,P|96:321|212:333,1,218.75
309,233,5714,5,0,0:0:0:0:
280,310,5816,1,0,0:0:0:0:
315,223,5918,1,0,0:0:0:0:
300,304,6020,1,0,0:0:0:0:
319,212,6122,1,0,0:0:0:0:
318,294,6224,1,0,0:0:0:0:
322,201,6326,1,0,0:0:0:0:
335,282,6428,1,0,0:0:0:0:
335,282,7346,6,0,P|229:262|144:180,1,218.75
394,207,8163,2,0,P|430:285|340:378,1,218.75
241,267,8979,5,0,0:0:0:0:
266,347,9081,1,0,0:0:0:0:
228,263,9183,1,0,0:0:0:0:
238,346,9285,1,0,0:0:0:0:
216,257,9387,1,0,0:0:0:0:
212,341,9489,1,0,0:0:0:0:
205,249,9591,1,0,0:0:0:0:
187,331,9693,1,0,0:0:0:0:
187,331,10612,6,0,L|432:331,1,218.75
450,253,11428,2,0,L|183:253,1,262.499991989136
143,177,12244,2,0,L|464:177,1,306.249990653992
491,101,13061,2,0,L|104:101,1,350
187,331,13877,2,0,L|432:331,1,218.75
256,192,14693,5,0,0:0:0:0:
256,192,15408,1,0,3:0:0:0:
249,219,15459,1,0,3:0:0:0:
235,243,15510,1,0,3:0:0:0:
368,295,15714,5,0,3:0:0:0:
326,332,15816,1,0,3:0:0:0:
393,158,16020,5,0,3:0:0:0:
416,208,16122,1,0,3:0:0:0:
179,322,16326,6,0,P|329:266|328:239,1,125,6|0,0:0|0:0,0:0:0:0:
223,127,16530,1,0,0:0:0:0:
223,127,16632,2,0,L|233:251,1,125,2|0,0:0|0:0,0:0:0:0:
127,69,16836,1,0,0:0:0:0:
127,69,16938,2,0,L|137:193,1,125,2|0,0:0|0:0,0:0:0:0:
335,235,17142,1,0,0:0:0:0:
335,235,17244,2,0,P|357:189|206:155,1,250,2|0,0:0|0:0,0:0:0:0:
142,303,17550,2,0,P|72:332|13:314,1,125,2|0,0:0|0:0,0:0:0:0:
176,212,17754,2,0,P|228:266|232:328,1,125,2|0,0:0|0:0,0:0:0:0:
437,70,17958,6,0,P|376:79|332:123,1,125,2|0,0:0|0:0,0:0:0:0:
294,341,18162,1,0,0:0:0:0:
292,266,18264,2,0,L|256:141,1,125,2|0,0:0|0:0,0:0:0:0:
36,93,18468,1,0,0:0:0:0:
71,157,18570,2,0,P|128:185|196:192,1,125,2|0,0:0|0:0,0:0:0:0:
413,158,18774,5,0,0:0:0:0:
428,232,18877,1,2,0:0:0:0:
403,161,18979,1,0,0:0:0:0:
437,228,19082,1,0,0:0:0:0:
448,170,19183,5,2,0:0:0:0:
392,219,19286,1,0,0:0:0:0:
441,163,19388,1,2,0:0:0:0:
399,226,19491,1,0,0:0:0:0:
