osu file format v14

[General]
AudioFilename: audio.mp3
AudioLeadIn: 0
PreviewTime: -1
Countdown: 0
SampleSet: Soft
StackLeniency: 0.7
Mode: 3
LetterboxInBreaks: 0
SpecialStyle: 0
WidescreenStoryboard: 0

[Editor]
DistanceSpacing: 0.8
BeatDivisor: 8
GridSize: 8
TimelineZoom: 1.7

[Metadata]
Title:Bonetrousle
TitleUnicode:Bonetrousle
Artist:Toby Fox
ArtistUnicode:Toby Fox
Creator:KamiaGasii
Version:Normal
Source:UNDERTALE
Tags:UNDERTALE Soundtrack Papyrus theme Bonetrousle
BeatmapID:1893425
BeatmapSetID:907390

[Difficulty]
HPDrainRate:7
CircleSize:6
OverallDifficulty:6
ApproachRate:5
SliderMultiplier:1.4
SliderTickRate:1

[Events]
//Background and Video events
0,0,"bonetrousle.jpg",0,0
//Break Periods
//Storyboard Layer 0 (Background)
//Storyboard Layer 1 (Fail)
//Storyboard Layer 2 (Pass)
//Storyboard Layer 3 (Foreground)
//Storyboard Sound Samples

[TimingPoints]
75,400,4,2,0,0,1,0

[HitObjects]
128,192,75,5,0,0:0:0:0:
469,192,475,5,0,0:0:0:0:
384,192,475,1,0,0:0:0:0:
42,192,875,1,0,0:0:0:0:
384,192,1275,1,0,0:0:0:0:
298,192,1275,1,0,0:0:0:0:
128,192,1675,1,0,0:0:0:0:
469,192,2075,1,0,0:0:0:0:
384,192,2075,1,0,0:0:0:0:
42,192,2475,1,0,0:0:0:0:
384,192,2875,1,0,0:0:0:0:
298,192,2875,1,0,0:0:0:0:
128,192,3275,1,0,0:0:0:0:
469,192,3675,1,0,0:0:0:0:
384,192,3675,1,0,0:0:0:0:
42,192,4075,1,0,0:0:0:0:
384,192,4475,1,0,0:0:0:0:
298,192,4475,1,0,0:0:0:0:
128,192,4875,1,0,0:0:0:0:
469,192,5275,1,0,0:0:0:0:
384,192,5275,1,0,0:0:0:0:
42,192,5675,1,0,0:0:0:0:
384,192,6075,1,0,0:0:0:0:
298,192,6075,1,0,0:0:0:0:
42,192,6475,1,0,0:0:0:0:
213,192,6675,1,0,0:0:0:0:
298,192,6875,1,0,0:0:0:0:
384,192,7075,1,0,0:0:0:0:
213,192,7275,128,0,7675:0:0:0:0:
298,192,8075,1,0,0:0:0:0:
384,192,8275,1,0,0:0:0:0:
469,192,8475,128,0,8875:0:0:0:0:
213,192,8875,1,0,0:0:0:0:
384,192,9075,1,0,0:0:0:0:
298,192,9275,1,0,0:0:0:0:
128,192,9475,1,0,0:0:0:0:
213,192,9675,1,0,0:0:0:0:
298,192,9875,1,0,0:0:0:0:
384,192,10075,128,0,10475:0:0:0:0:
128,192,10475,1,0,0:0:0:0:
298,192,10675,1,0,0:0:0:0:
213,192,10875,1,0,0:0:0:0:
42,192,11075,1,0,0:0:0:0:
128,192,11275,1,0,0:0:0:0:
213,192,11475,1,0,0:0:0:0:
298,192,11675,128,0,12075:0:0:0:0:
42,192,12075,1,0,0:0:0:0:
128,192,12075,1,0,0:0:0:0:
213,192,12275,1,0,0:0:0:0:
128,192,12475,1,0,0:0:0:0:
42,192,12675,1,0,0:0:0:0:
213,192,13075,1,0,0:0:0:0:
298,192,13275,1,0,0:0:0:0:
384,192,13475,1,0,0:0:0:0:
213,192,13675,128,0,13975:0:0:0:0:
298,192,13975,128,0,14475:0:0:0:0:
384,192,14025,128,0,14475:0:0:0:0:
469,192,14075,128,0,14475:0:0:0:0:
213,192,14475,1,0,0:0:0:0:
128,192,14675,1,0,0:0:0:0:
42,192,14875,128,0,15275:0:0:0:0:
213,192,15275,1,0,0:0:0:0:
298,192,15475,1,0,0:0:0:0:
384,192,15675,1,0,0:0:0:0:
298,192,15875,1,0,0:0:0:0:
42,192,16075,1,0,0:0:0:0:
128,192,16275,1,0,0:0:0:0:
213,192,16475,128,0,16875:0:0:0:0:
128,192,16875,1,0,0:0:0:0:
213,192,17075,1,0,0:0:0:0:
128,192,17275,1,0,0:0:0:0:
42,192,17475,1,0,0:0:0:0:
213,192,17675,1,0,0:0:0:0:
298,192,17875,1,0,0:0:0:0:
469,192,18075,128,0,18475:0:0:0:0:
213,192,18475,1,0,0:0:0:0:
298,192,18475,1,0,0:0:0:0:
384,192,18475,1,0,0:0:0:0:
298,192,19475,1,0,0:0:0:0:
384,192,19675,1,0,0:0:0:0:
469,192,19875,1,0,0:0:0:0:
213,192,20075,128,0,20475:0:0:0:0:
384,192,20475,1,0,0:0:0:0:
213,192,20875,1,0,0:0:0:0:
384,192,21075,1,0,0:0:0:0:
298,192,21275,1,0,0:0:0:0:
469,192,21675,1,0,0:0:0:0:
384,192,21875,1,0,0:0:0:0:
298,192,22075,1,0,0:0:0:0:
213,192,22275,1,0,0:0:0:0:
42,192,22475,1,0,0:0:0:0:
213,192,22675,1,0,0:0:0:0:
128,192,22875,128,0,23275:0:0:0:0:
298,192,23275,1,0,0:0:0:0:
213,192,23475,1,0,0:0:0:0:
128,192,23675,1,0,0:0:0:0:
42,192,23875,1,0,0:0:0:0:
298,192,24075,1,0,0:0:0:0:
469,192,24275,1,0,0:0:0:0:
384,192,24475,128,0,24875:0:0:0:0:
42,192,24875,1,0,0:0:0:0:
128,192,24875,1,0,0:0:0:0:
213,192,24875,1,0,0:0:0:0:
128,192,25875,1,0,0:0:0:0:
213,192,26075,1,0,0:0:0:0:
298,192,26275,1,0,0:0:0:0:
213,192,26475,128,0,26775:0:0:0:0:
298,192,26775,128,0,27275:0:0:0:0:
384,192,26825,128,0,27275:0:0:0:0:
469,192,26875,128,0,27275:0:0:0:0:
213,192,27275,1,0,0:0:0:0:
42,192,27475,1,0,0:0:0:0:
128,192,27675,128,0,28075:0:0:0:0:
298,192,28075,1,0,0:0:0:0:
469,192,28275,1,0,0:0:0:0:
384,192,28475,1,0,0:0:0:0:
213,192,28675,1,0,0:0:0:0:
42,192,28875,1,0,0:0:0:0:
128,192,29075,1,0,0:0:0:0:
213,192,29275,128,0,29675:0:0:0:0:
469,192,29675,1,0,0:0:0:0:
384,192,29875,1,0,0:0:0:0:
298,192,30075,1,0,0:0:0:0:
213,192,30275,1,0,0:0:0:0:
298,192,30475,1,0,0:0:0:0:
128,192,30675,1,0,0:0:0:0:
213,192,30875,128,0,31275:0:0:0:0:
128,192,31275,1,0,0:0:0:0:
298,192,31275,1,0,0:0:0:0:
469,192,32075,1,0,0:0:0:0:
384,192,32075,1,0,0:0:0:0:
42,192,32075,1,0,0:0:0:0:
128,192,32075,1,0,0:0:0:0:
213,192,32275,1,0,0:0:0:0:
298,192,32475,1,0,0:0:0:0:
469,192,32675,1,0,0:0:0:0:
384,192,32675,1,0,0:0:0:0:
298,192,32875,128,0,33275:0:0:0:0:
128,192,33275,1,0,0:0:0:0:
213,192,33275,1,0,0:0:0:0:
213,192,33475,1,0,0:0:0:0:
42,192,33675,1,0,0:0:0:0:
128,192,33675,1,0,0:0:0:0:
213,192,33875,1,0,0:0:0:0:
384,192,34075,128,0,34475:0:0:0:0:
298,192,34075,128,0,34475:0:0:0:0:
128,192,34475,1,0,0:0:0:0:
213,192,34675,1,0,0:0:0:0:
469,192,34875,1,0,0:0:0:0:
384,192,34875,1,0,0:0:0:0:
42,192,35075,1,0,0:0:0:0:
213,192,35275,128,0,35575:0:0:0:0:
128,192,35275,128,0,35575:0:0:0:0:
298,192,35575,1,0,0:0:0:0:
384,192,35625,1,0,0:0:0:0:
469,192,35675,1,0,0:0:0:0:
213,192,35875,1,0,0:0:0:0:
469,192,36075,128,0,36475:0:0:0:0:
384,192,36075,128,0,36475:0:0:0:0:
298,192,36475,1,0,0:0:0:0:
42,192,36675,1,0,0:0:0:0:
128,192,36675,1,0,0:0:0:0:
469,192,36875,128,0,37175:0:0:0:0:
384,192,36875,128,0,37175:0:0:0:0:
298,192,37175,1,0,0:0:0:0:
213,192,37225,1,0,0:0:0:0:
128,192,37275,1,0,0:0:0:0:
298,192,37475,1,0,0:0:0:0:
213,192,37475,1,0,0:0:0:0:
469,192,37675,128,0,38475:0:0:0:0:
384,192,37675,128,0,38475:0:0:0:0:
128,192,38675,1,0,0:0:0:0:
213,192,38675,1,0,0:0:0:0:
298,192,38875,1,0,0:0:0:0:
213,192,39075,1,0,0:0:0:0:
384,192,39275,128,0,39675:0:0:0:0:
298,192,39275,128,0,39675:0:0:0:0:
213,192,39675,1,0,0:0:0:0:
42,192,39875,1,0,0:0:0:0:
213,192,40075,1,0,0:0:0:0:
128,192,40075,1,0,0:0:0:0:
298,192,40275,1,0,0:0:0:0:
128,192,40475,128,0,40875:0:0:0:0:
213,192,40475,128,0,40875:0:0:0:0:
298,192,40875,1,0,0:0:0:0:
469,192,41075,1,0,0:0:0:0:
384,192,41075,1,0,0:0:0:0:
298,192,41275,1,0,0:0:0:0:
213,192,41475,1,0,0:0:0:0:
42,192,41675,128,0,41975:0:0:0:0:
128,192,41675,128,0,41975:0:0:0:0:
213,192,41975,1,0,0:0:0:0:
298,192,42025,1,0,0:0:0:0:
384,192,42075,1,0,0:0:0:0:
213,192,42275,1,0,0:0:0:0:
469,192,42475,128,0,42875:0:0:0:0:
384,192,42475,128,0,42875:0:0:0:0:
298,192,42475,128,0,42875:0:0:0:0:
213,192,42875,1,0,0:0:0:0:
128,192,42925,1,0,0:0:0:0:
42,192,42975,1,0,0:0:0:0:
213,192,43075,1,0,0:0:0:0:
469,192,43275,1,0,0:0:0:0:
298,192,43275,1,0,0:0:0:0:
42,192,43475,1,0,0:0:0:0:
213,192,43475,1,0,0:0:0:0:
298,192,43675,1,0,0:0:0:0:
128,192,43675,1,0,0:0:0:0:
42,192,43875,1,0,0:0:0:0:
213,192,43875,1,0,0:0:0:0:
469,192,44075,128,0,44675:0:0:0:0:
298,192,44075,128,0,44675:0:0:0:0:
384,192,44675,1,0,0:0:0:0:
42,192,44875,1,0,0:0:0:0:
128,192,44875,1,0,0:0:0:0:
469,192,44875,1,0,0:0:0:0:
384,192,44875,1,0,0:0:0:0:
213,192,45075,1,0,0:0:0:0:
298,192,45275,1,0,0:0:0:0:
469,192,45475,1,0,0:0:0:0:
384,192,45475,1,0,0:0:0:0:
128,192,45675,128,0,46075:0:0:0:0:
298,192,45675,128,0,46075:0:0:0:0:
384,192,46075,128,0,46475:0:0:0:0:
213,192,46075,128,0,46475:0:0:0:0:
298,192,46475,1,0,0:0:0:0:
128,192,46675,1,0,0:0:0:0:
42,192,46875,128,0,47275:0:0:0:0:
213,192,46875,128,0,47275:0:0:0:0:
128,192,47275,1,0,0:0:0:0:
384,192,47475,1,0,0:0:0:0:
298,192,47475,1,0,0:0:0:0:
469,192,47675,1,0,0:0:0:0:
384,192,47875,1,0,0:0:0:0:
128,192,48075,128,0,48375:0:0:0:0:
298,192,48075,128,0,48375:0:0:0:0:
213,192,48375,1,0,0:0:0:0:
384,192,48425,1,0,0:0:0:0:
469,192,48475,1,0,0:0:0:0:
42,192,48675,1,0,0:0:0:0:
128,192,48675,1,0,0:0:0:0:
469,192,48875,128,0,49275:0:0:0:0:
298,192,48875,128,0,49275:0:0:0:0:
213,192,48875,128,0,49275:0:0:0:0:
384,192,49275,1,0,0:0:0:0:
128,192,49475,1,0,0:0:0:0:
298,192,49675,128,0,49975:0:0:0:0:
213,192,49675,128,0,49975:0:0:0:0:
42,192,49675,128,0,49975:0:0:0:0:
128,192,49975,1,0,0:0:0:0:
384,192,50025,1,0,0:0:0:0:
469,192,50075,1,0,0:0:0:0:
128,192,50275,1,0,0:0:0:0:
384,192,50275,1,0,0:0:0:0:
213,192,50475,128,0,51275:0:0:0:0:
298,192,50475,128,0,51275:0:0:0:0:
42,192,51475,1,0,0:0:0:0:
213,192,51475,1,0,0:0:0:0:
128,192,51675,1,0,0:0:0:0:
469,192,51875,1,0,0:0:0:0:
298,192,51875,1,0,0:0:0:0:
384,192,52075,128,0,52375:0:0:0:0:
213,192,52375,128,0,52875:0:0:0:0:
298,192,52425,128,0,52875:0:0:0:0:
469,192,52475,128,0,52875:0:0:0:0:
384,192,52875,1,0,0:0:0:0:
298,192,53075,1,0,0:0:0:0:
384,192,53075,1,0,0:0:0:0:
128,192,53275,128,0,53675:0:0:0:0:
213,192,53275,128,0,53675:0:0:0:0:
42,192,53675,1,0,0:0:0:0:
213,192,53975,1,0,0:0:0:0:
298,192,54025,1,0,0:0:0:0:
384,192,54075,1,0,0:0:0:0:
469,192,54125,128,0,54475:0:0:0:0:
384,192,54275,128,0,54475:0:0:0:0:
298,192,54475,1,0,0:0:0:0:
128,192,54675,1,0,0:0:0:0:
298,192,54875,1,0,0:0:0:0:
128,192,55075,1,0,0:0:0:0:
42,192,55275,1,0,0:0:0:0:
213,192,55675,1,0,0:0:0:0:
128,192,56075,1,0,0:0:0:0:
213,192,56175,1,0,0:0:0:0:
298,192,56275,1,0,0:0:0:0:
384,192,56375,1,0,0:0:0:0:
469,192,56475,1,0,0:0:0:0:
128,192,56875,1,0,0:0:0:0:
469,192,57275,128,0,57575:0:0:0:0:
