osu file format v14

[General]
AudioFilename: audio.mp3
AudioLeadIn: 0
PreviewTime: -1
Countdown: 0
SampleSet: Soft
StackLeniency: 0.7
Mode: 3
LetterboxInBreaks: 0
SpecialStyle: 0
WidescreenStoryboard: 1

[Editor]
DistanceSpacing: 0.8
BeatDivisor: 4
GridSize: 8
TimelineZoom: 1.7

[Metadata]
Title:Bonetrousle
TitleUnicode:Bonetrousle
Artist:Toby Fox
ArtistUnicode:Toby Fox
Creator:KamiaGasii
Version:Easy
Source:UNDERTALE
Tags:UNDERTALE Soundtrack Papyrus theme Bonetrousle
BeatmapID:1893423
BeatmapSetID:907390

[Difficulty]
HPDrainRate:7
CircleSize:6
OverallDifficulty:7
ApproachRate:5
SliderMultiplier:1.4
SliderTickRate:1

[Events]
//Background and Video events
0,0,"bonetrousle.jpg",0,0
//Break Periods
//Storyboard Layer 0 (Background)
//Storyboard Layer 1 (Fail)
//Storyboard Layer 2 (Pass)
//Storyboard Layer 3 (Foreground)
//Storyboard Sound Samples

[TimingPoints]
75,400,4,2,0,0,1,0

[HitObjects]
128,192,75,5,0,0:0:0:0:
469,192,475,5,0,0:0:0:0:
42,192,875,1,0,0:0:0:0:
384,192,1275,1,0,0:0:0:0:
128,192,1675,1,0,0:0:0:0:
469,192,2075,1,0,0:0:0:0:
42,192,2475,1,0,0:0:0:0:
384,192,2875,1,0,0:0:0:0:
128,192,3275,1,0,0:0:0:0:
469,192,3675,1,0,0:0:0:0:
42,192,4075,1,0,0:0:0:0:
384,192,4475,1,0,0:0:0:0:
128,192,4875,1,0,0:0:0:0:
469,192,5275,1,0,0:0:0:0:
42,192,5675,1,0,0:0:0:0:
384,192,6075,1,0,0:0:0:0:
42,192,6475,1,0,0:0:0:0:
384,192,6875,1,0,0:0:0:0:
469,192,7275,1,0,0:0:0:0:
128,192,7675,1,0,0:0:0:0:
298,192,8075,1,0,0:0:0:0:
469,192,8475,1,0,0:0:0:0:
213,192,8875,1,0,0:0:0:0:
298,192,9275,1,0,0:0:0:0:
213,192,9675,1,0,0:0:0:0:
384,192,10075,1,0,0:0:0:0:
128,192,10475,1,0,0:0:0:0:
213,192,10875,1,0,0:0:0:0:
128,192,11275,1,0,0:0:0:0:
298,192,11675,1,0,0:0:0:0:
42,192,12075,1,0,0:0:0:0:
128,192,12075,1,0,0:0:0:0:
213,192,12875,1,0,0:0:0:0:
384,192,13275,1,0,0:0:0:0:
469,192,13675,1,0,0:0:0:0:
469,192,14075,128,0,14475:0:0:0:0:
42,192,14875,128,0,15275:0:0:0:0:
298,192,15675,1,0,0:0:0:0:
213,192,16075,1,0,0:0:0:0:
128,192,16475,1,0,0:0:0:0:
128,192,16875,1,0,0:0:0:0:
42,192,17275,1,0,0:0:0:0:
213,192,17675,1,0,0:0:0:0:
469,192,18075,128,0,18475:0:0:0:0:
384,192,18475,1,0,0:0:0:0:
384,192,19675,1,0,0:0:0:0:
213,192,20075,1,0,0:0:0:0:
384,192,20475,1,0,0:0:0:0:
128,192,20875,1,0,0:0:0:0:
298,192,21275,1,0,0:0:0:0:
469,192,21675,1,0,0:0:0:0:
384,192,21875,1,0,0:0:0:0:
298,192,22075,1,0,0:0:0:0:
213,192,22275,1,0,0:0:0:0:
128,192,22475,1,0,0:0:0:0:
42,192,22875,128,0,23275:0:0:0:0:
298,192,23675,1,0,0:0:0:0:
213,192,24075,1,0,0:0:0:0:
469,192,24475,128,0,24875:0:0:0:0:
42,192,24875,1,0,0:0:0:0:
213,192,26075,1,0,0:0:0:0:
298,192,26475,1,0,0:0:0:0:
469,192,26875,128,0,27275:0:0:0:0:
128,192,27675,1,0,0:0:0:0:
298,192,28075,1,0,0:0:0:0:
384,192,28475,1,0,0:0:0:0:
213,192,28875,1,0,0:0:0:0:
128,192,29275,1,0,0:0:0:0:
384,192,29675,1,0,0:0:0:0:
298,192,30075,1,0,0:0:0:0:
213,192,30475,128,0,30875:0:0:0:0:
298,192,30875,128,0,31275:0:0:0:0:
42,192,32075,1,0,0:0:0:0:
469,192,32075,1,0,0:0:0:0:
213,192,32475,1,0,0:0:0:0:
384,192,32875,1,0,0:0:0:0:
128,192,33275,1,0,0:0:0:0:
213,192,33275,1,0,0:0:0:0:
42,192,33675,1,0,0:0:0:0:
298,192,34075,1,0,0:0:0:0:
128,192,34475,1,0,0:0:0:0:
469,192,34875,1,0,0:0:0:0:
384,192,34875,1,0,0:0:0:0:
128,192,35275,1,0,0:0:0:0:
213,192,35675,1,0,0:0:0:0:
469,192,36075,128,0,36475:0:0:0:0:
384,192,36075,128,0,36475:0:0:0:0:
42,192,36875,128,0,37275:0:0:0:0:
128,192,36875,128,0,37275:0:0:0:0:
469,192,37675,128,0,38475:0:0:0:0:
384,192,37675,128,0,38475:0:0:0:0:
298,192,38875,1,0,0:0:0:0:
213,192,38875,1,0,0:0:0:0:
384,192,39275,1,0,0:0:0:0:
213,192,39675,1,0,0:0:0:0:
42,192,40075,1,0,0:0:0:0:
128,192,40075,1,0,0:0:0:0:
213,192,40475,1,0,0:0:0:0:
298,192,40875,1,0,0:0:0:0:
298,192,41275,1,0,0:0:0:0:
42,192,41675,1,0,0:0:0:0:
128,192,41675,1,0,0:0:0:0:
384,192,42075,1,0,0:0:0:0:
298,192,42475,128,0,42875:0:0:0:0:
213,192,42475,128,0,42875:0:0:0:0:
469,192,43275,1,0,0:0:0:0:
384,192,43475,1,0,0:0:0:0:
298,192,43675,1,0,0:0:0:0:
213,192,43875,1,0,0:0:0:0:
42,192,44075,128,0,44875:0:0:0:0:
213,192,45275,1,0,0:0:0:0:
469,192,45675,1,0,0:0:0:0:
384,192,45675,1,0,0:0:0:0:
298,192,46075,1,0,0:0:0:0:
42,192,46475,1,0,0:0:0:0:
213,192,46875,1,0,0:0:0:0:
42,192,47275,1,0,0:0:0:0:
128,192,47275,1,0,0:0:0:0:
298,192,47675,1,0,0:0:0:0:
469,192,48075,1,0,0:0:0:0:
298,192,48475,1,0,0:0:0:0:
469,192,48875,128,0,49275:0:0:0:0:
42,192,49675,128,0,50075:0:0:0:0:
298,192,50475,128,0,51275:0:0:0:0:
42,192,51675,1,0,0:0:0:0:
298,192,52075,1,0,0:0:0:0:
213,192,52075,1,0,0:0:0:0:
469,192,52475,1,0,0:0:0:0:
384,192,52875,1,0,0:0:0:0:
128,192,53275,1,0,0:0:0:0:
42,192,53675,1,0,0:0:0:0:
128,192,53675,1,0,0:0:0:0:
298,192,54075,1,0,0:0:0:0:
128,192,54475,1,0,0:0:0:0:
213,192,54875,1,0,0:0:0:0:
469,192,55275,1,0,0:0:0:0:
384,192,55275,1,0,0:0:0:0:
213,192,55675,1,0,0:0:0:0:
213,192,56075,1,0,0:0:0:0:
298,192,56275,1,0,0:0:0:0:
384,192,56475,1,0,0:0:0:0:
128,192,56875,1,0,0:0:0:0:
469,192,57275,1,0,0:0:0:0:
