osu file format v14

[General]
AudioFilename: audio.mp3
AudioLeadIn: 0
PreviewTime: -1
Countdown: 1
SampleSet: Normal
StackLeniency: 0.7
Mode: 0
LetterboxInBreaks: 0
WidescreenStoryboard: 1

[Editor]
DistanceSpacing: 0.9
BeatDivisor: 4
GridSize: 4
TimelineZoom: 1

[Metadata]
Title:Bergentrueckung
TitleUnicode:Bergentrückung
Artist:Toby Fox
ArtistUnicode:Toby Fox
Creator:Random Kid
Version:Determined
Source:Undertale
Tags:undertale frisk chara flowey determination love sans papyrus toriel
BeatmapID:1767462
BeatmapSetID:844996

[Difficulty]
HPDrainRate:5
CircleSize:3.7
OverallDifficulty:5
ApproachRate:6
SliderMultiplier:1.5
SliderTickRate:1

[Events]
//Background and Video events
0,0,"asgoreeeboy.jpg",0,0
//Break Periods
//Storyboard Layer 0 (Background)
//Storyboard Layer 1 (Fail)
//Storyboard Layer 2 (Pass)
//Storyboard Layer 3 (Foreground)
//Storyboard Sound Samples

[TimingPoints]
128,530.973451327434,4,1,0,100,1,0
10747,-76.9230769230769,4,1,0,100,0,0
13933,-66.6666666666667,4,1,0,100,0,0
17119,-100,4,1,0,100,0,0
27738,-76.9230769230769,4,1,0,100,0,0
30924,-66.6666666666667,4,1,0,100,0,0

[HitObjects]
35,16,128,6,0,L|31:105,1,75
110,151,658,2,0,L|114:240,1,75
60,300,1189,2,0,B|118:330|169:297|169:297|225:266|289:313,1,225
362,340,2251,2,0,P|357:282|371:251,1,75
438,199,2782,2,0,P|443:141|429:110,1,75
489,50,3313,2,0,B|431:20|380:53|380:53|324:84|260:37,1,225
177,28,4375,6,0,L|171:128,1,75
90,172,4906,2,0,L|96:272,1,75
189,233,5437,1,0,0:0:0:0:
176,321,5703,1,0,0:0:0:0:
280,273,5968,1,0,0:0:0:0:
267,185,6234,1,0,0:0:0:0:
329,118,6499,6,0,L|417:104,1,75
347,221,7030,2,0,L|259:207,1,75
188,149,7561,2,0,B|158:207|191:258|191:258|222:314|175:378,1,225
46,312,8623,6,0,L|121:308,1,75
74,197,9154,2,0,L|0:192,1,75
92,89,9685,2,0,B|150:59|201:92|201:92|257:123|321:76,1,225
386,46,10747,6,0,P|381:104|392:177,1,97.4999955368044
477,249,11278,2,0,P|482:191|471:118,1,97.4999955368044
378,235,11809,2,0,L|251:239,1,97.4999955368044
221,319,12340,2,0,L|94:315,1,97.4999955368044
54,251,12871,5,0,0:0:0:0:
62,163,13136,1,0,0:0:0:0:
180,129,13402,1,0,0:0:0:0:
172,41,13667,1,0,0:0:0:0:
261,5,13933,2,0,P|326:3|374:24,1,112.500004291535
404,106,14464,2,0,P|469:108|517:87,1,112.500004291535
464,199,14995,6,0,L|459:331,1,112.500004291535
361,350,15526,1,0,0:0:0:0:
348,259,15791,1,0,0:0:0:0:
382,146,16057,2,0,B|294:191|218:141|218:141|134:95|38:165,1,337.500012874604
137,291,17119,6,0,L|143:206,1,75
256,353,17650,2,0,L|250:268,1,75
379,314,18181,2,0,B|409:256|376:205|376:205|345:149|392:85,1,225,0|0,3:0|3:0,3:0:0:0:
463,63,19243,2,0,P|418:69|371:53,1,75
296,0,19774,2,0,P|251:-6|204:10,1,75
125,52,20304,2,0,B|155:110|122:161|122:161|91:217|138:281,1,225,0|0,3:0|3:0,3:0:0:0:
211,321,21366,6,0,L|308:316,1,75
380,220,21897,2,0,L|283:215,1,75
219,140,22428,1,0,0:0:0:0:
232,52,22694,1,0,0:0:0:0:
325,31,22959,1,0,0:0:0:0:
338,119,23225,1,0,0:0:0:0:
449,177,23490,6,0,P|456:213|451:250,1,75
333,310,24021,2,0,P|328:347|335:383,1,75
237,262,24552,2,0,B|179:232|128:265|128:265|72:296|8:249,1,225,0|0,3:0|3:0,3:0:0:0:
81,197,25614,6,0,L|88:110,1,75
177,22,26145,2,0,L|184:109,1,75
269,143,26676,2,0,B|327:173|378:140|378:140|434:109|498:156,1,225,0|0,3:0|3:0,3:0:0:0:
429,224,27738,6,0,L|423:339,1,97.4999955368044
307,383,28269,2,0,L|301:268,1,97.4999955368044
227,198,28800,2,0,P|177:210|127:197,1,97.4999955368044
94,117,29331,2,0,P|44:105|-6:118,1,97.4999955368044
39,198,29862,5,0,0:0:0:0:
33,286,30128,1,0,0:0:0:0:
142,369,30393,1,0,0:0:0:0:
136,281,30659,1,0,0:0:0:0:
214,195,30924,6,0,P|268:185|323:205,1,112.500004291535
390,276,31455,2,0,P|444:286|499:266,1,112.500004291535
445,193,31986,6,0,L|436:80,1,112.500004291535
353,22,32517,1,0,0:0:0:0:
327,105,32782,1,0,0:0:0:0:
296,185,33048,6,0,B|321:137|267:84|255:137|232:156|232:156|211:127|206:84|165:100|126:140|136:216|229:269|229:269|266:251|284:218,1,450.000017166138
