osu file format v14

[General]
AudioFilename: audio.mp3
AudioLeadIn: 0
PreviewTime: 17391
Countdown: 0
SampleSet: Soft
StackLeniency: 0.7
Mode: 3
LetterboxInBreaks: 0
SpecialStyle: 0
WidescreenStoryboard: 0

[Editor]
DistanceSpacing: 1
BeatDivisor: 4
GridSize: 32
TimelineZoom: 1

[Metadata]
Title:Beginning
TitleUnicode:Beginning
Artist:Toby Fox
ArtistUnicode:Toby Fox
Creator:TheNewBungping
Version:Hard
Source:DELTARUNE
Tags:undertale toriel kris susie ralsei lancer
BeatmapID:1837784
BeatmapSetID:878769

[Difficulty]
HPDrainRate:7
CircleSize:4
OverallDifficulty:7
ApproachRate:5
SliderMultiplier:1.4
SliderTickRate:1

[Events]
//Background and Video events
0,0,"toriel_and_frisk_by_bluekomadori-d9kk4sn.jpg",0,0
//Break Periods
//Storyboard Layer 0 (Background)
//Storyboard Layer 1 (Fail)
//Storyboard Layer 2 (Pass)
//Storyboard Layer 3 (Foreground)
//Storyboard Sound Samples

[TimingPoints]
0,434.782608695652,4,2,0,20,1,0
20869,-100,4,2,0,20,0,1
34782,-100,4,2,0,20,0,0

[HitObjects]
448,192,0,5,0,0:0:0:0:
192,192,0,1,0,0:0:0:0:
320,192,217,1,0,0:0:0:0:
320,192,434,1,0,0:0:0:0:
448,192,652,1,0,0:0:0:0:
192,192,652,1,0,0:0:0:0:
320,192,869,1,0,0:0:0:0:
320,192,1086,1,0,0:0:0:0:
448,192,1304,1,0,0:0:0:0:
192,192,1304,1,0,0:0:0:0:
320,192,1521,1,0,0:0:0:0:
192,192,1739,1,0,0:0:0:0:
64,192,1739,1,0,0:0:0:0:
448,192,1956,1,0,0:0:0:0:
448,192,2173,1,0,0:0:0:0:
192,192,2391,1,0,0:0:0:0:
64,192,2391,1,0,0:0:0:0:
448,192,2608,1,0,0:0:0:0:
448,192,2826,1,0,0:0:0:0:
192,192,3043,1,0,0:0:0:0:
64,192,3043,1,0,0:0:0:0:
448,192,3260,1,0,0:0:0:0:
320,192,3478,1,0,0:0:0:0:
64,192,3478,1,0,0:0:0:0:
192,192,3695,1,0,0:0:0:0:
192,192,3913,1,0,0:0:0:0:
320,192,4130,1,0,0:0:0:0:
64,192,4130,1,0,0:0:0:0:
192,192,4347,1,0,0:0:0:0:
192,192,4565,1,0,0:0:0:0:
320,192,4782,1,0,0:0:0:0:
64,192,4782,1,0,0:0:0:0:
192,192,4999,1,0,0:0:0:0:
448,192,5217,1,0,0:0:0:0:
320,192,5217,1,0,0:0:0:0:
64,192,5434,1,0,0:0:0:0:
64,192,5652,1,0,0:0:0:0:
448,192,5869,1,0,0:0:0:0:
320,192,5869,1,0,0:0:0:0:
64,192,6086,1,0,0:0:0:0:
64,192,6304,1,0,0:0:0:0:
448,192,6521,1,0,0:0:0:0:
320,192,6521,1,0,0:0:0:0:
192,192,6739,128,0,6847:0:0:0:0:
320,192,6847,128,0,6956:0:0:0:0:
448,192,6956,128,0,7065:0:0:0:0:
64,192,6956,1,0,0:0:0:0:
448,192,7173,128,0,7282:0:0:0:0:
448,192,7391,128,0,7499:0:0:0:0:
448,192,7608,128,0,7717:0:0:0:0:
192,192,7608,1,0,0:0:0:0:
448,192,7826,128,0,8260:0:0:0:0:
64,192,8043,1,0,0:0:0:0:
320,192,8260,1,0,0:0:0:0:
192,192,8260,128,0,8478:0:0:0:0:
320,192,8478,128,0,8695:0:0:0:0:
448,192,8695,1,0,0:0:0:0:
64,192,8695,128,0,8804:0:0:0:0:
64,192,8913,128,0,9021:0:0:0:0:
64,192,9130,128,0,9239:0:0:0:0:
64,192,9347,128,0,9456:0:0:0:0:
320,192,9347,1,0,0:0:0:0:
64,192,9565,128,0,9999:0:0:0:0:
448,192,9782,1,0,0:0:0:0:
192,192,9999,1,0,0:0:0:0:
320,192,9999,1,0,0:0:0:0:
448,192,10217,128,0,10326:0:0:0:0:
320,192,10326,128,0,10434:0:0:0:0:
64,192,10434,1,0,0:0:0:0:
192,192,10434,128,0,10543:0:0:0:0:
192,192,10652,128,0,10760:0:0:0:0:
192,192,10869,128,0,10978:0:0:0:0:
192,192,11086,128,0,11195:0:0:0:0:
448,192,11086,1,0,0:0:0:0:
192,192,11304,128,0,11739:0:0:0:0:
64,192,11521,1,0,0:0:0:0:
320,192,11739,1,0,0:0:0:0:
448,192,11739,128,0,11956:0:0:0:0:
64,192,11956,128,0,12173:0:0:0:0:
192,192,12173,1,0,0:0:0:0:
320,192,12173,128,0,12826:0:0:0:0:
448,192,12391,1,0,0:0:0:0:
64,192,12608,1,0,0:0:0:0:
448,192,12826,1,0,0:0:0:0:
192,192,12826,128,0,12934:0:0:0:0:
192,192,13043,128,0,13478:0:0:0:0:
64,192,13260,1,0,0:0:0:0:
320,192,13478,1,0,0:0:0:0:
448,192,13478,1,0,0:0:0:0:
64,192,13695,1,0,0:0:0:0:
192,192,13804,1,0,0:0:0:0:
448,192,13913,1,0,0:0:0:0:
320,192,13913,128,0,14021:0:0:0:0:
320,192,14130,128,0,14239:0:0:0:0:
320,192,14347,128,0,14456:0:0:0:0:
320,192,14565,128,0,14673:0:0:0:0:
64,192,14565,1,0,0:0:0:0:
320,192,14782,128,0,15217:0:0:0:0:
448,192,14999,1,0,0:0:0:0:
192,192,15217,1,0,0:0:0:0:
64,192,15217,128,0,15434:0:0:0:0:
448,192,15434,128,0,15652:0:0:0:0:
192,192,15652,128,0,15760:0:0:0:0:
320,192,15652,1,0,0:0:0:0:
192,192,15869,128,0,15978:0:0:0:0:
192,192,16086,128,0,16195:0:0:0:0:
192,192,16304,128,0,16413:0:0:0:0:
64,192,16304,1,0,0:0:0:0:
192,192,16521,128,0,16956:0:0:0:0:
320,192,16739,1,0,0:0:0:0:
64,192,16956,1,0,0:0:0:0:
448,192,16956,128,0,17173:0:0:0:0:
320,192,17173,128,0,17391:0:0:0:0:
192,192,17391,1,0,0:0:0:0:
64,192,17391,128,0,18043:0:0:0:0:
448,192,17608,1,0,0:0:0:0:
320,192,17826,1,0,0:0:0:0:
448,192,18043,1,0,0:0:0:0:
192,192,18043,128,0,18260:0:0:0:0:
320,192,18260,128,0,18478:0:0:0:0:
448,192,18478,128,0,18695:0:0:0:0:
64,192,18695,1,0,0:0:0:0:
192,192,18695,128,0,19021:0:0:0:0:
320,192,18913,1,0,0:0:0:0:
64,192,19021,128,0,19130:0:0:0:0:
448,192,19130,128,0,20869:0:0:0:0:
64,192,20652,1,0,0:0:0:0:
320,192,20760,1,0,0:0:0:0:
192,192,20869,1,0,0:0:0:0:
64,192,20869,128,0,21086:0:0:0:0:
448,192,21086,1,0,0:0:0:0:
192,192,21304,1,0,0:0:0:0:
320,192,21304,128,0,21521:0:0:0:0:
448,192,21521,1,0,0:0:0:0:
64,192,21739,128,0,21956:0:0:0:0:
192,192,21739,1,0,0:0:0:0:
320,192,21956,1,0,0:0:0:0:
192,192,22173,1,0,0:0:0:0:
448,192,22173,128,0,22391:0:0:0:0:
64,192,22391,1,0,0:0:0:0:
320,192,22608,1,0,0:0:0:0:
192,192,22608,128,0,22826:0:0:0:0:
64,192,22826,1,0,0:0:0:0:
320,192,23043,1,0,0:0:0:0:
448,192,23043,128,0,23260:0:0:0:0:
192,192,23152,1,0,0:0:0:0:
64,192,23260,1,0,0:0:0:0:
192,192,23478,1,0,0:0:0:0:
320,192,23478,128,0,23695:0:0:0:0:
448,192,23695,1,0,0:0:0:0:
64,192,23913,128,0,24130:0:0:0:0:
192,192,23913,1,0,0:0:0:0:
320,192,24130,1,0,0:0:0:0:
448,192,24347,128,0,24565:0:0:0:0:
192,192,24347,1,0,0:0:0:0:
64,192,24565,1,0,0:0:0:0:
192,192,24782,128,0,24999:0:0:0:0:
320,192,24782,1,0,0:0:0:0:
448,192,24891,1,0,0:0:0:0:
64,192,24999,1,0,0:0:0:0:
320,192,25217,128,0,25434:0:0:0:0:
448,192,25217,1,0,0:0:0:0:
64,192,25434,1,0,0:0:0:0:
192,192,25652,1,0,0:0:0:0:
448,192,25652,128,0,25869:0:0:0:0:
320,192,25869,1,0,0:0:0:0:
192,192,26086,1,0,0:0:0:0:
64,192,26086,128,0,26304:0:0:0:0:
448,192,26304,1,0,0:0:0:0:
192,192,26521,1,0,0:0:0:0:
320,192,26521,128,0,26739:0:0:0:0:
64,192,26739,1,0,0:0:0:0:
192,192,26956,1,0,0:0:0:0:
448,192,26956,128,0,27173:0:0:0:0:
320,192,27173,1,0,0:0:0:0:
64,192,27282,1,0,0:0:0:0:
448,192,27391,1,0,0:0:0:0:
192,192,27391,128,0,27608:0:0:0:0:
320,192,27608,1,0,0:0:0:0:
448,192,27826,1,0,0:0:0:0:
64,192,27826,128,0,28043:0:0:0:0:
192,192,28043,1,0,0:0:0:0:
448,192,28260,128,0,28478:0:0:0:0:
320,192,28260,1,0,0:0:0:0:
192,192,28478,1,0,0:0:0:0:
64,192,28695,1,0,0:0:0:0:
320,192,28695,128,0,28913:0:0:0:0:
448,192,28913,1,0,0:0:0:0:
64,192,29130,1,0,0:0:0:0:
192,192,29130,128,0,29347:0:0:0:0:
320,192,29347,1,0,0:0:0:0:
64,192,29565,1,0,0:0:0:0:
448,192,29565,128,0,29782:0:0:0:0:
320,192,29782,1,0,0:0:0:0:
64,192,29999,128,0,30217:0:0:0:0:
192,192,29999,1,0,0:0:0:0:
320,192,30108,1,0,0:0:0:0:
448,192,30217,1,0,0:0:0:0:
192,192,30434,128,0,30652:0:0:0:0:
320,192,30434,1,0,0:0:0:0:
448,192,30652,1,0,0:0:0:0:
64,192,30869,1,0,0:0:0:0:
320,192,30869,128,0,31086:0:0:0:0:
192,192,31086,1,0,0:0:0:0:
64,192,31304,128,0,31521:0:0:0:0:
448,192,31304,1,0,0:0:0:0:
320,192,31521,1,0,0:0:0:0:
64,192,31739,128,0,31956:0:0:0:0:
192,192,31739,1,0,0:0:0:0:
448,192,31956,1,0,0:0:0:0:
192,192,32173,128,0,32391:0:0:0:0:
320,192,32173,1,0,0:0:0:0:
64,192,32391,1,0,0:0:0:0:
448,192,32608,1,0,0:0:0:0:
192,192,32608,128,0,32826:0:0:0:0:
64,192,32826,1,0,0:0:0:0:
192,192,33043,1,0,0:0:0:0:
320,192,33043,128,0,33260:0:0:0:0:
448,192,33260,1,0,0:0:0:0:
64,192,33478,1,0,0:0:0:0:
320,192,33478,128,0,33695:0:0:0:0:
192,192,33695,128,0,33913:0:0:0:0:
448,192,33913,128,0,34130:0:0:0:0:
64,192,33913,128,0,34130:0:0:0:0:
320,192,34130,128,0,34347:0:0:0:0:
448,192,34347,128,0,34565:0:0:0:0:
192,192,34347,128,0,34565:0:0:0:0:
64,192,34565,128,0,34782:0:0:0:0:
320,192,34782,128,0,35434:0:0:0:0:
448,192,34782,1,0,0:0:0:0:
64,192,34999,1,0,0:0:0:0:
192,192,35217,1,0,0:0:0:0:
448,192,35217,1,0,0:0:0:0:
64,192,35434,128,0,35652:0:0:0:0:
192,192,35652,1,0,0:0:0:0:
448,192,35652,128,0,35869:0:0:0:0:
320,192,35869,128,0,36086:0:0:0:0:
64,192,36086,1,0,0:0:0:0:
192,192,36086,128,0,36413:0:0:0:0:
448,192,36304,1,0,0:0:0:0:
320,192,36413,128,0,36521:0:0:0:0:
64,192,36521,128,0,37391:0:0:0:0:
192,192,37173,128,0,37391:0:0:0:0:
320,192,37391,128,0,37608:0:0:0:0:
448,192,37391,128,0,38260:0:0:0:0:
64,192,37608,128,0,37826:0:0:0:0:
192,192,37826,128,0,38043:0:0:0:0:
320,192,38043,128,0,38260:0:0:0:0:
64,192,38260,1,0,0:0:0:0:
192,192,38260,1,0,0:0:0:0:
448,192,38695,1,0,0:0:0:0:
320,192,39130,1,0,0:0:0:0:
192,192,39565,1,0,0:0:0:0:
64,192,39999,1,0,0:0:0:0:
448,192,39999,128,0,40869:0:0:0:0:
320,192,40434,1,0,0:0:0:0:
192,192,40869,1,0,0:0:0:0:
64,192,40869,128,0,41739:0:0:0:0:
448,192,41304,1,0,0:0:0:0:
192,192,41739,1,0,0:0:0:0:
320,192,41739,128,0,43478:0:0:0:0:
64,192,42173,1,0,0:0:0:0:
448,192,42608,1,0,0:0:0:0:
192,192,43043,1,0,0:0:0:0:
64,192,43478,1,0,0:0:0:0:
448,192,43478,128,0,45217:0:0:0:0:
192,192,43913,1,0,0:0:0:0:
320,192,44347,1,0,0:0:0:0:
64,192,44782,1,0,0:0:0:0:
320,192,45217,1,0,0:0:0:0:
192,192,45217,1,0,0:0:0:0:
448,192,45652,1,0,0:0:0:0:
64,192,46086,1,0,0:0:0:0:
320,192,46521,1,0,0:0:0:0:
448,192,46956,1,0,0:0:0:0:
192,192,46956,128,0,47826:0:0:0:0:
64,192,47391,1,0,0:0:0:0:
448,192,47826,1,0,0:0:0:0:
320,192,47826,128,0,48695:0:0:0:0:
64,192,48260,1,0,0:0:0:0:
192,192,48695,1,0,0:0:0:0:
448,192,48695,128,0,50434:0:0:0:0:
320,192,49130,1,0,0:0:0:0:
64,192,49565,1,0,0:0:0:0:
320,192,49999,1,0,0:0:0:0:
192,192,50434,1,0,0:0:0:0:
64,192,50434,128,0,52173:0:0:0:0:
320,192,50869,1,0,0:0:0:0:
192,192,51304,1,0,0:0:0:0:
320,192,51739,1,0,0:0:0:0:
192,192,52173,128,0,55652:0:0:0:0:
448,192,52173,128,0,55652:0:0:0:0:
