osu file format v14

[General]
AudioFilename: audio.mp3
AudioLeadIn: 0
PreviewTime: 20641
Countdown: 0
SampleSet: Soft
StackLeniency: 0.7
Mode: 2
LetterboxInBreaks: 0
WidescreenStoryboard: 1

[Editor]
Bookmarks: 6783,20913,38304,52217
DistanceSpacing: 1.4
BeatDivisor: 4
GridSize: 8
TimelineZoom: 1.6

[Metadata]
Title:Beginning
TitleUnicode:Beginning
Artist:Toby Fox
ArtistUnicode:Toby Fox
Creator:Nelly
Version:Salad
Source:DELTARUNE
Tags:UNDERTALE DELTA RUNE Intro Car video game instrumental
BeatmapID:2206572
BeatmapSetID:1055790

[Difficulty]
HPDrainRate:5
CircleSize:3
OverallDifficulty:7
ApproachRate:7
SliderMultiplier:1.4
SliderTickRate:1

[Events]
//Background and Video events
0,0,"SmilingRalsei.jpg",0,0
//Break Periods
//Storyboard Layer 0 (Background)
//Storyboard Layer 1 (Fail)
//Storyboard Layer 2 (Pass)
//Storyboard Layer 3 (Foreground)
//Storyboard Layer 4 (Overlay)
//Storyboard Sound Samples

[TimingPoints]
44,434.782608695652,4,2,1,40,1,0
20913,-100,4,2,1,60,0,1
31348,-100,4,2,1,50,0,1
34826,-100,4,2,1,40,0,0
37435,-100,4,2,1,30,0,0
38304,-125,4,2,1,25,0,0
40695,-125,4,2,1,5,0,0
40912,-125,4,2,1,25,0,0
41564,-125,4,2,1,5,0,0
41782,-125,4,2,1,25,0,0
47651,-125,4,2,1,5,0,0
47869,-125,4,2,1,25,0,0
48521,-125,4,2,1,5,0,0
48738,-125,4,2,1,25,0,0
52217,-125,4,2,2,25,0,0
53086,-125,4,2,1,20,0,0
53956,-125,4,2,1,15,0,0
54825,-125,4,2,1,10,0,0
55695,-125,4,2,1,5,0,0

[Colours]
Combo1 : 147,147,147
Combo2 : 4,174,0
Combo3 : 255,17,136
Combo4 : 253,215,0

[HitObjects]
38,152,44,6,0,L|248:160,2,210,2|2|2,0:0|0:0|0:0,0:0:0:0:
192,284,1783,2,0,L|402:278,2,210,2|2|2,0:0|0:0|0:0,0:0:0:0:
356,329,3522,6,0,P|395:331|459:200,2,210,2|2|2,0:0|0:0|0:0,0:0:0:0:
164,309,5261,2,0,P|124:309|29:186,2,210,2|2|2,0:0|0:0|0:0,0:0:0:0:
261,307,6783,1,2,0:0:0:0:
458,300,7000,6,0,P|458:272|365:205,1,140,2|2,0:0|0:0,0:0:0:0:
281,196,7652,2,0,L|206:192,1,70,2|2,0:0|0:0,0:0:0:0:
342,90,8304,1,2,0:0:0:0:
244,49,8521,1,2,0:0:0:0:
145,23,8739,6,0,P|112:31|43:125,1,140,2|2,0:0|0:0,0:0:0:0:
140,133,9391,1,2,0:0:0:0:
234,158,9609,2,0,P|261:191|222:272,1,140,2|2,0:0|0:0,0:0:0:0:
130,275,10261,1,2,0:0:0:0:
236,345,10478,6,0,P|287:329|347:263,1,140,2|2,0:0|0:0,0:0:0:0:
251,232,11130,1,2,0:0:0:0:
164,221,11348,2,0,P|109:188|68:125,1,140,2|2,0:0|0:0,0:0:0:0:
165,88,12000,1,2,0:0:0:0:
353,64,12217,6,0,P|400:91|351:210,1,210,2|2,0:0|0:0,0:0:0:0:
258,212,13087,2,0,L|116:207,1,140,2|0,0:0|0:0,0:0:0:0:
473,345,13957,6,0,P|463:295|378:249,1,140,2|2,0:0|0:0,0:0:0:0:
297,242,14609,2,0,L|223:240,1,70,2|2,0:0|0:0,0:0:0:0:
428,151,15261,1,2,0:0:0:0:
355,147,15478,1,2,0:0:0:0:
146,133,15696,6,0,P|156:183|241:228,1,140,2|2,0:0|0:0,0:0:0:0:
316,222,16348,2,0,L|235:220,1,70,2|2,0:0|0:0,0:0:0:0:
82,325,17000,1,2,0:0:0:0:
177,319,17217,1,2,0:0:0:0:
391,303,17435,6,0,P|455:230|392:157,1,210,2|2,0:0|0:0,0:0:0:0:
278,159,18304,2,0,L|207:166,2,70,2|2|2,0:0|0:0|0:0,0:0:0:0:
110,320,19065,1,0,0:0:0:0:
103,256,19174,5,2,0:0:0:0:
356,148,20696,1,2,0:0:0:0:
142,138,20913,6,0,P|128:140|32:218,1,140,6|10,0:0|0:0,0:0:0:0:
352,282,21783,1,2,0:0:0:0:
162,299,22217,2,0,L|241:291,1,70,10|2,0:0|0:0,0:0:0:0:
321,283,22652,5,2,0:0:0:0:
485,120,23087,2,0,L|491:191,1,70,10|10,0:0|0:0,0:0:0:0:
275,252,23522,2,0,P|218:248|132:134,1,210,2|2,0:0|0:0,0:0:0:0:
244,64,24391,5,2,0:0:0:0:
412,141,24826,2,0,L|338:145,1,70,10|10,0:0|0:0,0:0:0:0:
126,181,25261,2,0,P|122:225|190:286,1,140,2|10,0:0|0:0,0:0:0:0:
280,288,25913,1,2,0:0:0:0:
69,342,26130,6,0,P|24:295|85:176,1,210,6|2,0:0|0:0,0:0:0:0:
288,157,27000,2,0,L|439:153,1,140,6|8,0:0|0:0,0:0:0:0:
469,150,27652,1,2,0:0:0:0:
251,50,27870,6,0,L|111:58,1,140,6|10,0:0|0:0,0:0:0:0:
422,267,28739,1,2,0:0:0:0:
217,202,29174,1,10,0:0:0:0:
295,209,29391,1,2,0:0:0:0:
373,215,29608,5,2,0:0:0:0:
168,356,30043,2,0,L|185:287,1,70,10|10,0:0|0:0,0:0:0:0:
395,348,30478,2,0,P|429:330|394:255,1,140,2|10,0:0|0:0,0:0:0:0:
291,251,31130,1,2,0:0:0:0:
91,245,31348,6,0,P|36:172|103:95,1,210,2|2,0:0|0:0,0:0:0:0:
216,91,32217,2,0,L|355:94,1,140,2|2,0:0|0:0,0:0:0:0:
471,303,33087,6,0,L|259:300,1,210,2|2,0:0|0:0,0:0:0:0:
178,299,33957,1,2,0:0:0:0:
376,222,34391,1,2,0:0:0:0:
382,152,34608,1,2,0:0:0:0:
180,112,34826,6,0,P|154:124|127:225,1,140,2|0,0:0|0:0,0:0:0:0:
273,268,35696,2,0,L|415:261,1,140,2|2,0:0|0:0,0:0:0:0:
245,360,36565,2,0,P|170:261|262:166,1,280,2|2,0:0|0:0,0:0:0:0:
126,336,38304,6,0,P|106:291|136:230,1,112,2|2,0:0|0:0,0:0:0:0:
290,224,39174,2,0,P|310:179|280:118,1,112,2|2,0:0|0:0,0:0:0:0:
142,94,40043,6,0,P|260:87|309:97,1,168,2|0,0:0|0:0,0:0:0:0:
382,208,40912,2,0,P|264:201|213:210,1,168,2|0,0:0|0:0,0:0:0:0:
120,354,41783,2,0,P|75:317|132:84,1,336,2|2,0:0|0:0,0:0:0:0:
260,59,43522,6,0,L|375:63,2,112,2|2|2,0:0|0:0|0:0,0:0:0:0:
131,84,44825,1,2,0:0:0:0:
311,318,45261,6,0,L|425:313,1,112,2|2,0:0|0:0,0:0:0:0:
264,239,46130,2,0,P|218:202|232:148,1,112,2|2,0:0|0:0,0:0:0:0:
370,94,47000,6,0,P|252:87|203:97,1,168,2|0,0:0|0:0,0:0:0:0:
130,208,47870,2,0,P|248:201|299:210,1,168,2|0,0:0|0:0,0:0:0:0:
381,354,48739,2,0,P|426:317|365:86,1,336,2|2,0:0|0:0,0:0:0:0:
252,59,50478,6,0,L|137:63,2,112,2|2|2,0:0|0:0|0:0,0:0:0:0:
394,102,51783,1,2,0:0:0:0:
68,227,52217,5,6,0:0:0:0:
256,192,52652,12,0,55696,0:0:0:0:
