osu file format v14

[General]
AudioFilename: audio.mp3
AudioLeadIn: 0
PreviewTime: 20641
Countdown: 0
SampleSet: Soft
StackLeniency: 0.7
Mode: 2
LetterboxInBreaks: 0
WidescreenStoryboard: 1

[Editor]
Bookmarks: 6783,20913,38304,52217
DistanceSpacing: 2.4
BeatDivisor: 4
GridSize: 8
TimelineZoom: 1.6

[Metadata]
Title:Beginning
TitleUnicode:Beginning
Artist:Toby Fox
ArtistUnicode:Toby Fox
Creator:Nelly
Version:Platter
Source:DELTARUNE
Tags:UNDERTALE DELTA RUNE Intro Car video game instrumental
BeatmapID:2206571
BeatmapSetID:1055790

[Difficulty]
HPDrainRate:6
CircleSize:3.5
OverallDifficulty:7.8
ApproachRate:7.8
SliderMultiplier:1.7
SliderTickRate:1

[Events]
//Background and Video events
0,0,"SmilingRalsei.jpg",0,0
//Break Periods
//Storyboard Layer 0 (Background)
//Storyboard Layer 1 (Fail)
//Storyboard Layer 2 (Pass)
//Storyboard Layer 3 (Foreground)
//Storyboard Layer 4 (Overlay)
//Storyboard Sound Samples

[TimingPoints]
44,434.782608695652,4,2,1,40,1,0
20913,-100,4,2,1,60,0,1
31348,-100,4,2,1,50,0,1
34826,-100,4,2,1,40,0,0
37435,-100,4,2,1,30,0,0
38304,-125,4,2,1,25,0,0
40804,-125,4,2,1,5,0,0
40912,-125,4,2,1,25,0,0
41673,-125,4,2,1,5,0,0
41782,-125,4,2,1,25,0,0
47760,-125,4,2,1,5,0,0
47869,-125,4,2,1,25,0,0
48630,-125,4,2,1,5,0,0
48738,-125,4,2,1,25,0,0
52217,-125,4,2,2,25,0,0
53086,-125,4,2,1,20,0,0
53956,-125,4,2,1,15,0,0
54825,-125,4,2,1,10,0,0
55695,-125,4,2,1,5,0,0

[Colours]
Combo1 : 147,147,147
Combo2 : 4,174,0
Combo3 : 255,17,136
Combo4 : 253,215,0

[HitObjects]
266,55,44,6,0,L|440:50,1,170,2|0,0:0|0:0,0:0:0:0:
337,163,696,2,0,L|163:158,1,170,2|0,0:0|0:0,0:0:0:0:
286,271,1348,2,0,L|373:268,1,85,2|0,0:0|0:0,0:0:0:0:
154,334,1783,6,0,P|125:322|81:200,1,170,2|0,0:0|0:0,0:0:0:0:
190,197,2435,2,0,P|225:187|282:70,1,170,2|0,0:0|0:0,0:0:0:0:
176,49,3087,2,0,L|87:44,1,85,2|0,0:0|0:0,0:0:0:0:
296,137,3522,6,0,L|474:133,1,170,2|0,0:0|0:0,0:0:0:0:
340,175,4174,2,0,P|305:185|248:302,1,170,2|0,0:0|0:0,0:0:0:0:
375,352,4826,2,0,L|383:268,1,85,2|0,0:0|0:0,0:0:0:0:
170,34,5261,6,0,P|190:114|263:154,1,170,2|0,0:0|0:0,0:0:0:0:
360,247,5913,2,0,L|184:246,1,170,2|0,0:0|0:0,0:0:0:0:
307,343,6565,1,2,0:0:0:0:
110,338,6783,2,0,L|61:340,1,42.5,2|2,0:0|0:0,0:0:0:0:
110,338,7000,6,0,L|279:347,1,170,2|2,0:0|0:0,0:0:0:0:
376,353,7652,1,2,0:0:0:0:
266,250,7870,2,0,P|239:216|298:123,1,170,2|2,0:0|0:0,0:0:0:0:
404,123,8522,1,2,0:0:0:0:
196,40,8739,6,0,L|25:37,1,170,2|2,0:0|0:0,0:0:0:0:
110,136,9391,1,2,0:0:0:0:
217,161,9609,2,0,P|264:163|349:253,1,170,2|2,0:0|0:0,0:0:0:0:
248,285,10261,1,2,0:0:0:0:
446,352,10478,6,0,P|477:326|440:220,1,170,2|2,0:0|0:0,0:0:0:0:
349,213,11130,1,2,0:0:0:0:
240,205,11348,2,0,P|197:183|243:99,1,170,2|2,0:0|0:0,0:0:0:0:
336,98,12000,1,2,0:0:0:0:
134,50,12217,6,0,P|80:105|131:163,1,170,2|0,0:0|0:0,0:0:0:0:
230,167,12870,1,2,0:0:0:0:
112,264,13087,2,0,P|77:240|119:144,1,170,2|0,0:0|0:0,0:0:0:0:
329,256,13739,2,0,L|371:258,1,42.5,2|2,0:0|0:0,0:0:0:0:
329,256,13957,6,0,L|159:247,1,170,2|2,0:0|0:0,0:0:0:0:
256,161,14609,1,2,0:0:0:0:
342,64,14826,2,0,L|172:73,1,170,2|2,0:0|0:0,0:0:0:0:
84,80,15478,1,2,0:0:0:0:
289,260,15696,6,0,P|346:243|358:141,1,170,2|2,0:0|0:0,0:0:0:0:
265,122,16348,1,2,0:0:0:0:
164,225,16565,2,0,L|334:234,1,170,2|2,0:0|0:0,0:0:0:0:
422,241,17217,1,2,0:0:0:0:
217,342,17435,6,0,P|175:326|216:239,1,170,2|0,0:0|0:0,0:0:0:0:
330,241,18087,2,0,L|417:246,2,85,2|2|2,0:0|0:0|0:0,0:0:0:0:
110,232,18739,2,0,P|79:205|124:144,1,127.5,2|0,0:0|0:0,0:0:0:0:
196,142,19174,6,0,B|279:136|334:144|375:156|405:185|426:216|434:266|427:322|392:351|329:360|284:346|240:288|235:237|297:222|381:235,1,595,2|2,0:0|0:0,0:0:0:0:
97,237,20913,5,6,0:0:0:0:
26,176,21130,1,2,0:0:0:0:
74,105,21347,1,10,0:0:0:0:
167,89,21565,1,2,0:0:0:0:
361,221,21783,2,0,L|191:216,1,170,2|10,0:0|0:0,0:0:0:0:
267,313,22435,1,2,0:0:0:0:
468,249,22652,6,0,L|457:165,1,85,2|2,0:0|0:0,0:0:0:0:
324,90,23087,1,10,0:0:0:0:
281,94,23195,1,8,0:0:0:0:
239,97,23304,1,10,0:0:0:0:
460,296,23522,2,0,L|494:213,1,85,2|0,0:0|0:0,0:0:0:0:
423,142,23957,1,8,0:0:0:0:
224,230,24174,2,0,L|182:233,1,42.5,2|2,0:0|0:0,0:0:0:0:
224,230,24391,6,0,L|309:233,1,85,2|2,0:0|0:0,0:0:0:0:
214,114,24826,2,0,L|171:111,2,42.5,10|8|10,0:0|0:0|0:0,0:0:0:0:
422,140,25261,1,2,0:0:0:0:
492,190,25478,1,2,0:0:0:0:
435,269,25695,1,10,0:0:0:0:
341,280,25913,1,2,0:0:0:0:
48,257,26130,6,0,P|32:231|143:82,1,255,6|2,0:0|0:0,0:0:0:0:
341,121,27000,2,0,P|335:148|229:237,1,170,6|8,0:0|0:0,0:0:0:0:
129,236,27652,1,2,0:0:0:0:
424,321,27870,5,6,0:0:0:0:
494,271,28087,1,2,0:0:0:0:
437,192,28304,1,10,0:0:0:0:
343,181,28522,1,2,0:0:0:0:
168,256,28739,2,0,L|338:255,1,170,2|10,0:0|0:0,0:0:0:0:
429,253,29391,1,2,0:0:0:0:
227,144,29609,6,0,L|142:141,1,85,2|2,0:0|0:0,0:0:0:0:
263,51,30043,2,0,L|308:48,2,42.5,10|8|10,0:0|0:0|0:0,0:0:0:0:
61,76,30478,2,0,L|54:164,1,85,2|0,0:0|0:0,0:0:0:0:
159,239,30913,1,10,0:0:0:0:
51,237,31130,1,2,0:0:0:0:
336,340,31348,6,0,P|383:323|373:219,1,170,2|0,0:0|0:0,0:0:0:0:
271,211,32000,1,2,0:0:0:0:
67,211,32217,2,0,L|48:128,1,85,2|2,0:0|0:0,0:0:0:0:
245,83,32652,2,0,L|376:80,1,127.5,2|0,0:0|0:0,0:0:0:0:
307,171,33087,6,0,P|268:181|306:269,1,170,2|0,0:0|0:0,0:0:0:0:
399,268,33739,1,2,0:0:0:0:
213,332,33956,2,0,L|206:247,1,85,2|2,0:0|0:0,0:0:0:0:
352,224,34391,2,0,L|355:139,1,85,2|2,0:0|0:0,0:0:0:0:
135,171,34826,6,0,P|116:126|198:61,1,170,2|0,0:0|0:0,0:0:0:0:
290,78,35478,1,2,0:0:0:0:
369,157,35696,2,0,L|199:154,1,170,2|2,0:0|0:0,0:0:0:0:
294,241,36348,1,0,0:0:0:0:
403,283,36565,2,0,P|448:245|348:41,1,340,2|2,0:0|0:0,0:0:0:0:
110,224,38305,6,0,L|246:222,1,136,2|2,0:0|0:0,0:0:0:0:
378,116,39174,2,0,L|242:114,1,136,2|2,0:0|0:0,0:0:0:0:
100,113,40044,6,0,P|53:131|100:268,1,238,2|0,0:0|0:0,0:0:0:0:
139,269,40913,2,0,L|376:261,1,238,2|0,0:0|0:0,0:0:0:0:
417,252,41783,6,0,P|374:240|425:-21,1,408,2|2,0:0|0:0,0:0:0:0:
248,50,43522,2,0,P|185:75|146:135,1,136,2|2,0:0|0:0,0:0:0:0:
330,263,44391,2,0,L|193:267,1,136,2|2,0:0|0:0,0:0:0:0:
456,79,45261,6,0,P|442:118|357:173,1,136,2|2,0:0|0:0,0:0:0:0:
185,189,46131,2,0,L|48:186,1,136,2|2,0:0|0:0,0:0:0:0:
196,304,47000,6,0,P|323:284|440:287,1,238,2|0,0:0|0:0,0:0:0:0:
464,192,47870,2,0,P|337:172|220:175,1,238,2|0,0:0|0:0,0:0:0:0:
194,180,48739,6,0,B|142:187|93:162|75:109|75:58|112:13|151:2|189:10|215:17|252:36|300:40|341:18,1,408,2|2,0:0|0:0,0:0:0:0:
444,140,50478,2,0,L|308:131,1,136,2|2,0:0|0:0,0:0:0:0:
168,119,51348,1,2,0:0:0:0:
357,247,51783,1,2,0:0:0:0:
12,307,52217,5,6,0:0:0:0:
256,192,52435,12,0,55696,0:0:0:0:
