osu file format v14

[General]
AudioFilename: audio.mp3
AudioLeadIn: 0
PreviewTime: 20641
Countdown: 0
SampleSet: Soft
StackLeniency: 0.7
Mode: 2
LetterboxInBreaks: 0
WidescreenStoryboard: 1

[Editor]
Bookmarks: 6783,20913,38304,52217
DistanceSpacing: 1.3
BeatDivisor: 4
GridSize: 8
TimelineZoom: 1.6

[Metadata]
Title:Beginning
TitleUnicode:Beginning
Artist:Toby Fox
ArtistUnicode:Toby Fox
Creator:Nelly
Version:First Day in The New Town
Source:DELTARUNE
Tags:UNDERTALE DELTA RUNE Intro Car video game instrumental
BeatmapID:2206570
BeatmapSetID:1055790

[Difficulty]
HPDrainRate:7
CircleSize:3.8
OverallDifficulty:8.6
ApproachRate:8.6
SliderMultiplier:2.1
SliderTickRate:1

[Events]
//Background and Video events
0,0,"SmilingRalsei.jpg",0,0
//Break Periods
//Storyboard Layer 0 (Background)
//Storyboard Layer 1 (Fail)
//Storyboard Layer 2 (Pass)
//Storyboard Layer 3 (Foreground)
//Storyboard Layer 4 (Overlay)
//Storyboard Sound Samples

[TimingPoints]
44,434.782608695652,4,2,1,40,1,0
19174,-142.857142857143,4,2,1,40,0,0
20913,-100,4,2,1,60,0,1
31348,-100,4,2,1,50,0,1
34826,-100,4,2,1,40,0,0
36565,-100,4,2,1,30,0,0
38304,-125,4,2,1,25,0,0
40804,-125,4,2,1,5,0,0
40912,-125,4,2,1,25,0,0
41673,-125,4,2,1,5,0,0
41782,-125,4,2,1,25,0,0
47760,-125,4,2,1,5,0,0
47869,-125,4,2,1,25,0,0
48630,-125,4,2,1,5,0,0
48738,-125,4,2,1,25,0,0
52217,-125,4,2,2,25,0,0
53086,-125,4,2,1,20,0,0
53956,-125,4,2,1,15,0,0
54825,-125,4,2,1,10,0,0
55695,-125,4,2,1,5,0,0

[Colours]
Combo1 : 147,147,147
Combo2 : 4,174,0
Combo3 : 255,17,136
Combo4 : 253,215,0

[HitObjects]
171,44,44,6,0,L|67:39,2,105,2|0|0,0:0|0:0|0:0,0:0:0:0:
279,255,696,2,0,L|174:259,2,105,2|0|0,0:0|0:0|0:0,0:0:0:0:
93,147,1348,2,0,L|89:254,1,105,2|0,0:0|0:0,0:0:0:0:
382,173,1783,6,0,L|275:169,1,105,2|0,0:0|0:0,0:0:0:0:
174,163,2217,1,0,0:0:0:0:
278,274,2435,2,0,L|383:278,2,105,2|0|0,0:0|0:0|0:0,0:0:0:0:
87,65,3087,2,0,L|194:61,1,105,2|0,0:0|0:0,0:0:0:0:
470,65,3522,6,0,L|365:61,2,105,2|0|0,0:0|0:0|0:0,0:0:0:0:
352,147,4174,2,0,L|248:151,1,105,2|0,0:0|0:0,0:0:0:0:
352,238,4609,1,0,0:0:0:0:
161,256,4826,2,0,L|57:252,1,105,2|0,0:0|0:0,0:0:0:0:
337,113,5261,6,0,L|442:109,2,105,2|0|0,0:0|0:0|0:0,0:0:0:0:
229,206,5913,2,0,L|124:202,2,105,2|0|0,0:0|0:0|0:0,0:0:0:0:
335,215,6565,1,2,0:0:0:0:
153,344,6783,2,0,L|148:291,1,52.5,2|2,0:0|0:0,0:0:0:0:
377,208,7000,6,0,L|483:202,1,105,2|2,0:0|0:0,0:0:0:0:
292,202,7435,2,0,L|186:196,1,105,2|2,0:0|0:0,0:0:0:0:
376,86,7870,2,0,L|162:92,1,210,2|2,0:0|0:0,0:0:0:0:
292,202,8522,1,2,0:0:0:0:
16,296,8739,6,0,L|121:300,1,105,2|2,0:0|0:0,0:0:0:0:
310,204,9174,2,0,L|205:208,1,105,2|2,0:0|0:0,0:0:0:0:
394,270,9609,2,0,P|435:232|385:107,1,210,2|2,0:0|0:0,0:0:0:0:
265,93,10261,2,0,L|212:90,1,52.5,2|2,0:0|0:0,0:0:0:0:
473,145,10478,6,0,L|478:249,1,105,2|2,0:0|0:0,0:0:0:0:
310,268,10913,1,2,0:0:0:0:
477,268,11130,1,2,0:0:0:0:
287,268,11348,2,0,P|241:239|290:118,1,210,2|2,0:0|0:0,0:0:0:0:
456,118,12000,1,2,0:0:0:0:
167,66,12217,6,0,P|111:75|30:196,1,210,2|0,0:0|0:0,0:0:0:0:
136,242,12870,1,2,0:0:0:0:
413,320,13087,2,0,L|503:263,2,105,2|0|0,0:0|0:0|0:0,0:0:0:0:
221,252,13739,2,0,L|217:198,1,52.5,2|2,0:0|0:0,0:0:0:0:
432,96,13957,6,0,L|326:94,1,105,2|2,0:0|0:0,0:0:0:0:
138,88,14391,2,0,L|130:195,1,105,2|2,0:0|0:0,0:0:0:0:
339,312,14826,2,0,P|379:309|415:166,1,210,2|2,0:0|0:0,0:0:0:0:
318,149,15478,1,2,0:0:0:0:
40,136,15696,6,0,L|145:133,1,105,2|2,0:0|0:0,0:0:0:0:
335,258,16130,2,0,L|230:255,1,105,2|2,0:0|0:0,0:0:0:0:
40,136,16565,2,0,L|250:132,1,210,2|2,0:0|0:0,0:0:0:0:
140,224,17217,1,2,0:0:0:0:
425,334,17435,6,0,L|431:229,1,105,2|0,0:0|0:0,0:0:0:0:
302,227,17870,2,0,L|296:122,1,105,0|2,0:0|0:0,0:0:0:0:
487,94,18304,2,0,L|382:86,1,105,2|2,0:0|0:0,0:0:0:0:
172,74,18739,2,0,P|134:102|177:185,1,157.5,2|0,0:0|0:0,0:0:0:0:
354,356,19174,6,0,B|422:354|479:286|448:181|382:113|291:292|237:239|220:164|209:110|253:72|283:58|331:55,1,514.499984298707,2|2,0:0|0:0,0:0:0:0:
382,55,20804,1,2,0:0:0:0:
144,32,20913,6,0,L|141:136,1,105,6|2,0:0|0:0,0:0:0:0:
310,187,21348,2,0,L|313:291,1,105,10|2,0:0|0:0,0:0:0:0:
24,320,21783,2,0,L|234:323,1,210,2|10,0:0|0:0,0:0:0:0:
66,216,22435,1,2,0:0:0:0:
361,168,22652,6,0,L|364:64,1,105,2|2,0:0|0:0,0:0:0:0:
195,199,23087,1,10,0:0:0:0:
194,146,23195,1,8,0:0:0:0:
192,94,23304,1,10,0:0:0:0:
471,263,23522,2,0,L|361:264,1,105,2|0,0:0|0:0,0:0:0:0:
247,264,23957,1,8,0:0:0:0:
367,160,24174,2,0,L|311:158,1,52.5,2|2,0:0|0:0,0:0:0:0:
80,126,24391,6,0,L|187:123,1,105,2|2,0:0|0:0,0:0:0:0:
354,114,24826,2,8,L|411:112,2,52.5,10|8|10,0:0|0:0|0:0,0:0:0:0:
40,292,25261,1,2,0:0:0:0:
208,283,25478,2,0,L|212:179,1,105,2|10,0:0|0:0,0:0:0:0:
34,161,25913,1,2,0:0:0:0:
353,57,26130,6,0,P|315:59|257:205,1,210,6|8,0:0|0:0,0:0:0:0:
421,195,26783,1,2,0:0:0:0:
114,173,27000,2,0,P|152:175|210:321,1,210,6|8,0:0|0:0,0:0:0:0:
46,311,27652,2,0,L|107:310,1,52.5,2|2,0:0|0:0,0:0:0:0:
311,304,27870,6,0,L|416:302,1,105,6|2,0:0|0:0,0:0:0:0:
249,218,28304,2,0,L|144:216,1,105,10|2,0:0|0:0,0:0:0:0:
431,49,28739,2,0,P|472:81|420:208,1,210,2|10,0:0|0:0,0:0:0:0:
310,209,29391,1,2,0:0:0:0:
25,201,29609,6,0,L|21:95,1,105,2|2,0:0|0:0,0:0:0:0:
189,34,30043,1,10,0:0:0:0:
137,32,30151,1,8,0:0:0:0:
85,31,30260,1,10,0:0:0:0:
371,284,30478,2,0,L|375:178,1,105,2|0,0:0|0:0,0:0:0:0:
197,123,30913,1,10,0:0:0:0:
375,122,31130,1,2,0:0:0:0:
75,248,31348,6,0,L|68:144,1,105,2|0,0:0|0:0,0:0:0:0:
216,273,31783,2,0,L|223:169,1,105,0|2,0:0|0:0,0:0:0:0:
377,121,32217,2,0,L|272:118,1,105,2|2,0:0|0:0,0:0:0:0:
68,118,32652,2,0,P|61:144|140:230,1,157.5,2|0,0:0|0:0,0:0:0:0:
370,351,33087,6,0,L|377:247,1,105,2|0,0:0|0:0,0:0:0:0:
229,376,33522,2,0,L|222:272,1,105,0|2,0:0|0:0,0:0:0:0:
68,350,33956,2,0,L|75:246,1,105,2|2,0:0|0:0,0:0:0:0:
205,142,34391,1,2,0:0:0:0:
76,142,34609,1,2,0:0:0:0:
279,59,34826,6,0,P|318:81|280:211,1,210,2|0,0:0|0:0,0:0:0:0:
159,215,35478,1,2,0:0:0:0:
361,364,35696,2,0,L|369:258,1,105,2|2,0:0|0:0,0:0:0:0:
192,293,36130,2,0,P|190:244|284:208,1,157.5,2|0,0:0|0:0,0:0:0:0:
384,220,36565,6,0,P|443:197|367:26,1,315,2|2,0:0|0:0,0:0:0:0:
187,62,37435,2,0,L|182:168,1,105,2|2,0:0|0:0,0:0:0:0:
306,197,37870,2,0,L|311:303,1,105,2|2,0:0|0:0,0:0:0:0:
104,345,38305,6,0,P|64:320|110:229,1,168,2|2,0:0|0:0,0:0:0:0:
281,135,39174,2,0,L|114:133,1,168,2|2,0:0|0:0,0:0:0:0:
409,93,40044,6,0,P|451:108|411:296,1,294,2|0,0:0|0:0,0:0:0:0:
353,295,40913,2,0,P|282:264|71:291,1,294,2|0,0:0|0:0,0:0:0:0:
33,333,41783,6,0,P|103:327|32:41,1,504,2|2,0:0|0:0,0:0:0:0:
259,142,43522,2,0,L|92:147,1,168,2|2,0:0|0:0,0:0:0:0:
275,256,44391,2,0,L|442:260,1,168,2|2,0:0|0:0,0:0:0:0:
157,266,45261,6,0,P|133:204|151:104,1,168,2|2,0:0|0:0,0:0:0:0:
322,176,46131,2,0,P|395:140|416:59,1,168,2|2,0:0|0:0,0:0:0:0:
103,93,47000,6,0,P|61:108|101:296,1,294,2|0,0:0|0:0,0:0:0:0:
159,295,47870,2,0,P|230:264|441:291,1,294,2|0,0:0|0:0,0:0:0:0:
479,333,48739,6,0,P|418:329|385:-8,1,504,2|2,0:0|0:0,0:0:0:0:
187,142,50478,2,0,L|357:137,2,168,2|2|2,0:0|0:0|0:0,0:0:0:0:
389,255,51783,1,2,0:0:0:0:
81,309,52218,5,6,0:0:0:0:
256,192,52435,12,0,55696,0:0:0:0:
