osu file format v14

[General]
AudioFilename: audio.mp3
AudioLeadIn: 0
PreviewTime: 20641
Countdown: 0
SampleSet: Soft
StackLeniency: 0.7
Mode: 2
LetterboxInBreaks: 0
WidescreenStoryboard: 1

[Editor]
Bookmarks: 6783,20913,38304,52217
DistanceSpacing: 1.3
BeatDivisor: 4
GridSize: 8
TimelineZoom: 1.6

[Metadata]
Title:Beginning
TitleUnicode:Beginning
Artist:Toby Fox
ArtistUnicode:Toby Fox
Creator:Nelly
Version:Cup
Source:DELTARUNE
Tags:UNDERTALE DELTA RUNE Intro Car video game instrumental
BeatmapID:2206569
BeatmapSetID:1055790

[Difficulty]
HPDrainRate:4
CircleSize:2.5
OverallDifficulty:6
ApproachRate:6
SliderMultiplier:1.3
SliderTickRate:1

[Events]
//Background and Video events
0,0,"SmilingRalsei.jpg",0,0
//Break Periods
//Storyboard Layer 0 (Background)
//Storyboard Layer 1 (Fail)
//Storyboard Layer 2 (Pass)
//Storyboard Layer 3 (Foreground)
//Storyboard Layer 4 (Overlay)
//Storyboard Sound Samples

[TimingPoints]
44,434.782608695652,4,2,1,40,1,0
20913,-100,4,2,1,60,0,1
31348,-100,4,2,1,50,0,1
34826,-100,4,2,1,40,0,0
37435,-100,4,2,1,30,0,0
38304,-125,4,2,1,25,0,0
52217,-125,4,2,2,25,0,0
53086,-125,4,2,1,20,0,0
53956,-125,4,2,1,15,0,0
54825,-125,4,2,1,10,0,0
55695,-125,4,2,1,5,0,0

[Colours]
Combo1 : 147,147,147
Combo2 : 4,174,0
Combo3 : 255,17,136
Combo4 : 253,215,0

[HitObjects]
79,147,44,6,0,L|278:153,2,195,2|2|2,0:0|0:0|0:0,0:0:0:0:
209,300,1783,2,0,L|403:294,2,195,2|2|2,0:0|0:0|0:0,0:0:0:0:
347,246,3522,6,0,P|387:246|468:126,2,195,2|2|2,0:0|0:0|0:0,0:0:0:0:
208,246,5261,2,0,P|168:246|87:126,2,195,2|2|2,0:0|0:0|0:0,0:0:0:0:
283,267,6783,1,2,0:0:0:0:
357,283,7000,6,0,P|384:269|356:193,1,130,2|2,0:0|0:0,0:0:0:0:
187,184,7870,2,0,L|56:180,1,130,2|2,0:0|0:0,0:0:0:0:
141,123,8522,1,2,0:0:0:0:
245,87,8739,6,0,L|381:92,1,130,2|2,0:0|0:0,0:0:0:0:
204,192,9609,2,0,P|155:224|205:325,1,195,2|2,0:0|0:0,0:0:0:0:
289,328,10478,6,0,L|419:324,1,130,2|2,0:0|0:0,0:0:0:0:
281,220,11348,2,0,L|151:216,1,130,2|2,0:0|0:0,0:0:0:0:
236,114,12000,1,2,0:0:0:0:
336,114,12217,6,0,P|372:124|340:240,1,195,2|2,0:0|0:0,0:0:0:0:
236,242,13087,2,0,P|200:252|232:368,1,195,2|2,0:0|0:0,0:0:0:0:
313,372,13957,6,0,L|446:367,2,130,2|2|2,0:0|0:0|0:0,0:0:0:0:
157,259,15261,2,0,L|89:256,1,65,2|2,0:0|0:0,0:0:0:0:
157,259,15696,5,2,0:0:0:0:
300,259,16130,2,0,P|338:236|302:174,1,130,2|2,0:0|0:0,0:0:0:0:
149,180,17000,1,2,0:0:0:0:
226,177,17217,1,2,0:0:0:0:
303,174,17435,6,0,P|351:155|303:55,1,195,2|2,0:0|0:0,0:0:0:0:
219,54,18304,2,0,L|85:61,1,130,2|2,0:0|0:0,0:0:0:0:
241,212,19065,1,0,0:0:0:0:
246,179,19174,1,2,0:0:0:0:
446,77,20696,1,2,0:0:0:0:
352,85,20913,5,6,0:0:0:0:
212,175,21348,2,0,L|343:181,1,130,10|2,0:0|0:0,0:0:0:0:
187,291,22217,2,0,L|122:294,1,65,10|2,0:0|0:0,0:0:0:0:
187,291,22652,5,2,0:0:0:0:
354,200,23087,1,10,0:0:0:0:
276,198,23304,1,10,0:0:0:0:
197,197,23522,2,0,P|154:175|201:65,1,195,2|2,0:0|0:0,0:0:0:0:
288,62,24391,6,0,L|419:66,1,130,2|10,0:0|0:0,0:0:0:0:
248,167,25261,2,0,P|215:195|248:264,1,130,2|10,0:0|0:0,0:0:0:0:
323,264,25913,1,2,0:0:0:0:
402,263,26130,5,6,0:0:0:0:
122,182,26783,1,2,0:0:0:0:
205,173,27000,1,6,0:0:0:0:
424,93,27652,1,2,0:0:0:0:
343,84,27870,6,0,L|208:92,2,130,6|10|2,0:0|0:0|0:0,0:0:0:0:
499,228,29174,2,0,L|431:223,1,65,10|2,0:0|0:0,0:0:0:0:
343,215,29608,5,2,0:0:0:0:
186,210,30043,2,0,L|256:208,1,65,10|10,0:0|0:0,0:0:0:0:
325,205,30477,1,2,0:0:0:0:
159,207,30913,2,0,L|149:141,1,65,10|2,0:0|0:0,0:0:0:0:
240,127,31348,6,0,P|296:138|326:259,1,195,2|2,0:0|0:0,0:0:0:0:
242,273,32217,1,2,0:0:0:0:
78,273,32652,1,2,0:0:0:0:
234,273,33087,2,0,P|342:251|385:120,1,260,2|2,0:0|0:0,0:0:0:0:
229,114,34391,1,2,0:0:0:0:
72,109,34826,6,0,P|38:160|81:228,1,130,2|0,0:0|0:0,0:0:0:0:
219,218,35696,2,0,L|350:212,1,130,2|2,0:0|0:0,0:0:0:0:
192,69,36565,2,0,P|263:72|422:171,1,260,2|2,0:0|0:0,0:0:0:0:
126,336,38304,6,0,P|106:291|136:230,1,104,2|2,0:0|0:0,0:0:0:0:
290,224,39174,2,0,P|310:179|280:118,1,104,2|2,0:0|0:0,0:0:0:0:
142,94,40043,6,0,P|260:87|358:104,1,208,2|2,0:0|0:0,0:0:0:0:
131,354,41782,2,0,P|80:324|176:62,1,416,2|2,0:0|0:0,0:0:0:0:
337,66,43956,6,0,L|452:70,2,104,2|2|2,0:0|0:0|0:0,0:0:0:0:
180,83,45261,6,0,P|160:128|190:189,1,104,2|2,0:0|0:0,0:0:0:0:
344,195,46130,2,0,P|364:240|334:301,1,104,2|2,0:0|0:0,0:0:0:0:
164,328,47000,6,0,P|116:294|178:177,1,208,2|2,0:0|0:0,0:0:0:0:
385,348,48738,2,0,P|436:318|340:56,1,416,2|2,0:0|0:0,0:0:0:0:
194,62,50913,6,0,L|83:67,2,104,2|2|2,0:0|0:0|0:0,0:0:0:0:
342,88,52217,5,6,0:0:0:0:
256,192,52651,12,0,55695,0:0:0:0:
