osu file format v14

[General]
AudioFilename: audio.mp3
AudioLeadIn: 0
PreviewTime: 20641
Countdown: 0
SampleSet: Normal
StackLeniency: 0.7
Mode: 1
LetterboxInBreaks: 0
WidescreenStoryboard: 1

[Editor]
Bookmarks: 7000,19174,27870,38304
DistanceSpacing: 0.1
BeatDivisor: 4
GridSize: 32
TimelineZoom: 1.5

[Metadata]
Title:Beginning
TitleUnicode:Beginning
Artist:Toby Fox
ArtistUnicode:Toby Fox
Creator:K a t a g i r i
Version:Futsuu
Source:DELTARUNE
Tags:video game ost original soundtrack sound tracks instrumental UNDERTALE Once Upon A Time DELTA RUNE Don't Forget chapter 1 one Intro Car randelman4ik katagiri k_a_t_a_g_i_r_i
BeatmapID:3071252
BeatmapSetID:1498540

[Difficulty]
HPDrainRate:8
CircleSize:5
OverallDifficulty:3
ApproachRate:5
SliderMultiplier:1.4
SliderTickRate:1

[Events]
//Background and Video events
0,0,"bg.jpg",0,25
//Break Periods
//Storyboard Layer 0 (Background)
//Storyboard Layer 1 (Fail)
//Storyboard Layer 2 (Pass)
//Storyboard Layer 3 (Foreground)
//Storyboard Layer 4 (Overlay)
//Storyboard Sound Samples

[TimingPoints]
44,434.782608695652,4,1,0,55,1,0
20913,-100,4,1,0,75,0,1
31293,-100,4,1,0,60,0,1
33087,-100,4,1,0,50,0,0
34772,-100,4,1,0,40,0,0
38250,-100,4,1,0,30,0,0
38304,434.782608695652,4,1,0,30,1,0
52162,-100,4,1,0,40,0,0

[HitObjects]
256,192,7000,5,8,0:0:0:0:
256,192,7435,1,8,0:0:0:0:
256,192,7652,1,8,0:0:0:0:
256,192,7870,1,8,0:0:0:0:
256,192,8739,1,0,0:0:0:0:
256,192,9174,1,0,0:0:0:0:
256,192,9391,1,0,0:0:0:0:
256,192,9609,1,0,0:0:0:0:
256,192,10261,1,8,0:0:0:0:
256,192,10478,1,0,0:0:0:0:
256,192,10913,1,0,0:0:0:0:
256,192,11348,1,0,0:0:0:0:
256,192,11783,1,8,0:0:0:0:
256,192,12000,1,8,0:0:0:0:
256,192,12217,1,8,0:0:0:0:
256,192,12870,1,0,0:0:0:0:
256,192,13087,1,0,0:0:0:0:
256,192,13957,1,8,0:0:0:0:
256,192,14391,1,8,0:0:0:0:
256,192,14609,1,8,0:0:0:0:
256,192,14826,1,8,0:0:0:0:
256,192,15696,1,0,0:0:0:0:
256,192,16130,1,0,0:0:0:0:
256,192,16348,1,0,0:0:0:0:
256,192,16565,1,0,0:0:0:0:
256,192,17000,1,8,0:0:0:0:
256,192,17435,1,0,0:0:0:0:
256,192,18304,1,8,0:0:0:0:
256,192,18739,1,8,0:0:0:0:
256,192,19174,1,0,0:0:0:0:
256,192,20913,1,12,0:0:0:0:
256,192,21348,1,8,0:0:0:0:
256,192,21565,1,8,0:0:0:0:
256,192,21783,1,8,0:0:0:0:
256,192,22217,1,0,0:0:0:0:
256,192,22652,1,0,0:0:0:0:
256,192,23087,1,8,0:0:0:0:
256,192,23304,1,8,0:0:0:0:
256,192,23522,1,0,0:0:0:0:
256,192,24174,1,8,0:0:0:0:
256,192,24391,1,0,0:0:0:0:
256,192,24826,1,0,0:0:0:0:
256,192,25261,1,8,0:0:0:0:
256,192,25696,1,0,0:0:0:0:
256,192,25913,1,8,0:0:0:0:
256,192,26130,1,4,0:0:0:0:
256,192,26783,1,8,0:0:0:0:
256,192,27000,1,4,0:0:0:0:
256,192,27870,1,12,0:0:0:0:
256,192,28304,1,8,0:0:0:0:
256,192,28522,1,8,0:0:0:0:
256,192,28739,1,8,0:0:0:0:
256,192,29174,1,0,0:0:0:0:
256,192,29609,1,8,0:0:0:0:
256,192,30043,1,8,0:0:0:0:
256,192,30261,1,8,0:0:0:0:
256,192,30478,1,0,0:0:0:0:
256,192,31348,1,0,0:0:0:0:
256,192,32217,1,8,0:0:0:0:
256,192,32435,1,8,0:0:0:0:
256,192,32652,1,0,0:0:0:0:
256,192,33087,1,0,0:0:0:0:
256,192,33739,1,0,0:0:0:0:
256,192,33957,1,8,0:0:0:0:
256,192,34391,1,8,0:0:0:0:
256,192,34609,1,8,0:0:0:0:
256,192,34826,1,0,0:0:0:0:
256,192,35478,1,0,0:0:0:0:
256,192,35696,1,8,0:0:0:0:
256,192,36130,1,8,0:0:0:0:
256,192,36565,1,0,0:0:0:0:
256,192,37217,1,0,0:0:0:0:
256,192,37435,1,8,0:0:0:0:
256,192,38304,1,8,0:0:0:0:
256,192,40043,1,8,0:0:0:0:
256,192,40912,1,0,0:0:0:0:
256,192,41782,1,0,0:0:0:0:
256,192,43521,1,0,0:0:0:0:
256,192,45260,1,8,0:0:0:0:
256,192,46999,1,8,0:0:0:0:
256,192,47869,1,0,0:0:0:0:
256,192,48738,1,0,0:0:0:0:
256,192,50477,1,0,0:0:0:0:
256,192,52217,1,8,0:0:0:0:
