osu file format v14

[General]
AudioFilename: audio.mp3
AudioLeadIn: 0
PreviewTime: 101717
Countdown: 0
SampleSet: None
StackLeniency: 0.7
Mode: 0
LetterboxInBreaks: 0
WidescreenStoryboard: 0

[Editor]
DistanceSpacing: 0.8
BeatDivisor: 4
GridSize: 4
TimelineZoom: 2.2

[Metadata]
Title:Battle Tower
TitleUnicode:Battle Tower
Artist:Toby Fox
ArtistUnicode:Toby Fox
Creator:valentheo
Version:A Sword And Shield?
Source:
Tags:
BeatmapID:2248157
BeatmapSetID:1074254

[Difficulty]
HPDrainRate:6
CircleSize:4
OverallDifficulty:8.5
ApproachRate:9.6
SliderMultiplier:1.5
SliderTickRate:1

[Events]
//Background and Video events
0,0,"Pokemon_Legendaires.png",0,0
//Break Periods
//Storyboard Layer 0 (Background)
//Storyboard Layer 1 (Fail)
//Storyboard Layer 2 (Pass)
//Storyboard Layer 3 (Foreground)
//Storyboard Layer 4 (Overlay)
//Storyboard Sound Samples

[TimingPoints]
179,230.769230769231,4,2,1,40,1,0
3871,-400,4,2,1,70,0,0
6582,-400,4,2,1,10,0,0
6640,-100,4,2,1,70,0,0
6986,-200,4,2,1,70,0,0
7505,-200,4,2,1,10,0,0
7563,-100,4,2,1,70,0,0
14371,-200,4,2,1,70,0,0
14890,-200,4,2,1,10,0,0
14948,-86.9565217391304,4,2,1,70,0,0

[HitObjects]
200,100,179,6,0,P|223:157|228:193,1,75,2|0,0:0|0:0,0:0:0:0:
207,329,409,2,0,P|244:280|273:258,1,75,2|0,0:0|0:0,0:0:0:0:
464,331,640,1,2,0:0:0:0:
437,351,755,2,0,P|376:342|342:328,1,75,2|0,0:0|0:0,0:0:0:0:
120,307,986,2,0,P|108:231|183:181,1,150,2|0,0:0|0:0,0:0:0:0:
354,349,1332,6,0,P|303:350|259:344,1,75,2|0,0:0|0:0,0:0:0:0:
324,253,1563,1,2,0:0:0:0:
346,243,1679,2,0,P|409:258|439:278,1,75,2|0,0:0|0:0,0:0:0:0:
87,264,1909,2,0,B|187:260|135:298|243:297,1,150,2|0,0:0|0:0,0:0:0:0:
323,120,2255,6,0,P|289:169|279:205,1,75,2|0,0:0|0:0,0:0:0:0:
447,333,2486,1,2,0:0:0:0:
458,298,2602,2,0,P|432:244|406:217,1,75,2|0,0:0|0:0,0:0:0:0:
218,289,2832,2,0,P|290:308|391:275,1,150,2|0,0:0|0:0,0:0:0:0:
322,70,3179,6,0,P|299:121|283:168,1,75,2|0,0:0|0:0,0:0:0:0:
376,261,3409,1,2,0:0:0:0:
128,171,3525,2,0,P|180:162|281:191,1,150,2|0,0:0|0:0,0:0:0:0:
173,323,3871,6,0,L|232:46,1,262.5,2|0,0:0|0:0,0:0:0:0:
422,202,5717,2,0,P|397:247|310:259,1,140.625,2|0,0:0|0:0,0:0:0:0:
341,69,6640,6,0,P|349:126|347:171,1,75,2|0,0:0|0:0,0:0:0:0:
142,250,6871,5,2,0:0:0:0:
304,178,6986,6,0,P|339:198|299:302,1,168.75,2|0,0:0|0:0,0:0:0:0:
81,260,7563,6,0,B|167:244,1,75,6|0,3:2|0:0,0:0:0:0:
431,313,7794,2,0,B|345:297,1,75,2|0,3:2|0:0,0:0:0:0:
157,72,8025,1,6,3:2:0:0:
385,232,8140,2,0,P|326:256|290:264,1,75,6|0,3:2|0:0,0:0:0:0:
38,198,8371,2,0,B|139:203|87:243|197:240,1,150,6|0,3:2|0:0,0:0:0:0:
312,84,8717,6,0,P|278:142|285:176,1,75,6|0,3:2|0:0,0:0:0:0:
417,275,8948,1,2,0:0:0:0:
164,188,9063,2,0,P|113:197|71:213,1,75,6|0,3:2|0:0,0:0:0:0:
37,358,9294,2,0,P|78:326|65:229,1,150,6|0,3:2|0:0,0:0:0:0:
261,351,9640,6,0,L|285:260,1,75,6|0,3:2|0:0,0:0:0:0:
116,129,9871,1,0,0:0:0:0:
409,229,9986,2,0,L|354:152,1,75,6|0,3:2|0:0,0:0:0:0:
106,255,10217,2,0,P|177:283|270:284,1,150,6|0,3:2|0:0,0:0:0:0:
308,62,10563,6,0,P|278:120|272:154,1,75,4|0,3:2|0:0,0:0:0:0:
366,320,10794,1,0,3:2:0:0:
162,122,10909,2,0,P|105:160|84:177,1,75,4|0,3:2|0:0,0:0:0:0:
174,331,11140,1,0,0:0:0:0:
81,260,11255,6,0,B|167:244,1,75,6|0,3:2|0:0,0:0:0:0:
431,313,11486,2,0,B|345:297,1,75,2|0,3:2|0:0,0:0:0:0:
157,72,11717,1,6,3:2:0:0:
385,232,11832,2,0,P|326:256|290:264,1,75,6|0,3:2|0:0,0:0:0:0:
38,198,12063,2,0,B|139:203|87:243|197:240,1,150,6|0,3:2|0:0,0:0:0:0:
312,84,12409,6,0,P|278:142|285:176,1,75,6|0,3:2|0:0,0:0:0:0:
417,275,12640,1,2,0:0:0:0:
164,188,12755,2,0,P|113:197|71:213,1,75,6|0,3:2|0:0,0:0:0:0:
414,149,12986,1,0,0:0:0:0:
176,338,13102,5,2,3:2:0:0:
182,110,13218,1,0,0:0:0:0:
277,324,13333,1,0,0:0:0:0:
372,102,13448,1,0,0:0:0:0:
131,342,13564,5,2,3:2:0:0:
137,114,13680,1,0,0:0:0:0:
232,328,13795,1,0,0:0:0:0:
327,106,13910,1,0,0:0:0:0:
50,240,14025,6,0,P|103:242|135:241,1,75,2|0,0:0|0:0,0:0:0:0:
241,58,14255,5,2,0:0:0:0:
332,264,14371,6,0,P|372:223|341:122,1,168.75,2|0,0:0|0:0,0:0:0:0:
310,114,14948,5,6,3:2:0:0:
157,259,15063,1,0,3:2:0:0:
316,341,15179,2,0,P|378:335|410:319,1,86.2500016450882,8|0,0:0|0:0,0:0:0:0:
357,116,15409,5,2,3:2:0:0:
146,110,15524,1,0,3:2:0:0:
200,280,15640,2,0,P|248:319|282:330,1,86.2500016450882,8|0,0:0|0:0,0:0:0:0:
411,192,15871,5,2,3:2:0:0:
266,38,15986,1,0,3:2:0:0:
184,196,16102,2,0,P|190:257|205:289,1,86.2500016450882,8|0,0:0|0:0,0:0:0:0:
322,322,16332,5,2,3:2:0:0:
386,94,16448,1,0,3:2:0:0:
124,93,16563,1,8,3:2:0:0:
471,334,16679,6,0,P|427:303|378:265,1,86.2500016450882,6|0,3:2|3:2,0:0:0:0:
84,266,16909,1,0,3:2:0:0:
176,333,17025,2,0,P|238:334|267:324,1,86.2500016450882,8|0,0:0|0:0,0:0:0:0:
354,59,17255,2,0,P|322:112|316:142,1,86.2500016450882,0|0,3:2|0:0,0:0:0:0:
380,320,17486,5,10,0:0:0:0:
408,255,17543,1,2,0:0:0:0:
381,191,17601,1,2,0:0:0:0:
316,165,17659,1,2,0:0:0:0:
251,185,17718,2,0,P|210:211|190:255,1,86.2500016450882,2|0,3:2|0:0,0:0:0:0:
448,315,17948,1,10,0:0:0:0:
267,116,18063,2,0,P|205:110|163:112,1,86.2500016450882,2|0,0:0|3:2,0:0:0:0:
391,249,18294,2,0,P|453:255|495:253,1,86.2500016450882,2|8,0:0|0:0,0:0:0:0:
272,50,18525,1,0,0:0:0:0:
74,344,18640,5,6,3:2:0:0:
99,64,18755,1,0,3:2:0:0:
290,179,18871,2,0,P|270:230|243:269,1,86.2500016450882,8|0,0:0|0:0,0:0:0:0:
99,302,19102,5,2,3:2:0:0:
218,47,19217,1,0,3:2:0:0:
358,220,19333,2,0,P|321:261|283:288,1,86.2500016450882,8|0,0:0|0:0,0:0:0:0:
136,252,19563,5,2,3:2:0:0:
335,53,19678,1,0,3:2:0:0:
407,263,19794,2,0,P|358:289|313:301,1,86.2500016450882,8|0,0:0|0:0,0:0:0:0:
167,92,20025,5,2,3:2:0:0:
420,198,20140,1,2,3:2:0:0:
266,351,20255,1,10,0:0:0:0:
309,116,20371,2,0,P|373:115|429:123,1,86.2500016450882,6|0,0:0|3:2,0:0:0:0:
476,301,20602,1,0,3:2:0:0:
141,199,20717,2,0,P|190:186|249:179,1,86.2500016450882,8|0,0:0|0:0,0:0:0:0:
451,353,20948,2,0,P|400:348|342:334,1,86.2500016450882,0|0,3:2|0:0,0:0:0:0:
296,146,21179,5,10,0:0:0:0:
349,190,21236,1,2,0:0:0:0:
344,259,21294,1,2,0:0:0:0:
285,295,21352,1,2,0:0:0:0:
226,274,21409,2,0,P|172:215|166:181,1,86.2500016450882,2|0,3:2|0:0,0:0:0:0:
364,124,21640,1,10,0:0:0:0:
239,340,21755,2,0,P|186:340|133:330,1,86.2500016450882,2|0,0:0|3:2,0:0:0:0:
314,73,21986,1,2,3:2:0:0:
408,298,22102,1,10,0:0:0:0:
117,142,22217,1,2,0:0:0:0:
406,183,22332,5,6,3:2:0:0:
192,333,22448,1,0,3:2:0:0:
206,94,22563,2,0,P|280:69|318:68,1,86.2500016450882,8|0,0:0|0:0,0:0:0:0:
334,313,22794,5,2,3:2:0:0:
76,267,22910,1,0,3:2:0:0:
255,108,23025,2,0,P|325:142|352:168,1,86.2500016450882,8|0,0:0|0:0,0:0:0:0:
197,319,23255,5,2,3:2:0:0:
47,104,23371,1,0,3:2:0:0:
286,118,23486,2,0,P|311:192|312:230,1,86.2500016450882,8|0,0:0|0:0,0:0:0:0:
95,254,23717,1,2,3:2:0:0:
282,86,23832,1,0,3:2:0:0:
401,281,23948,1,8,0:0:0:0:
155,138,24063,2,0,P|164:71|184:43,1,86.2500016450882,4|0,0:0|3:2,0:0:0:0:
411,128,24294,1,0,3:2:0:0:
248,321,24409,2,0,P|190:323|139:310,1,86.2500016450882,8|0,0:0|0:0,0:0:0:0:
373,237,24640,2,0,P|403:286|417:336,1,86.2500016450882,0|0,3:2|0:0,0:0:0:0:
86,138,24871,5,10,0:0:0:0:
156,148,24928,1,2,0:0:0:0:
213,191,24986,1,2,0:0:0:0:
283,202,25044,1,2,0:0:0:0:
350,186,25102,2,0,P|406:154|423:126,1,86.2500016450882,2|0,3:2|0:0,0:0:0:0:
280,52,25332,1,10,0:0:0:0:
155,213,25448,2,0,P|150:285|157:315,1,86.2500016450882,2|0,0:0|3:2,0:0:0:0:
407,146,25679,2,0,P|412:74|405:44,1,86.2500016450882,2|8,0:0|0:0,0:0:0:0:
178,105,25909,1,0,0:0:0:0:
400,282,26025,5,6,3:2:0:0:
314,41,26140,1,0,3:2:0:0:
192,241,26255,2,0,P|188:293|198:358,1,86.2500016450882,8|0,0:0|0:0,0:0:0:0:
403,237,26486,5,2,3:2:0:0:
239,39,26601,1,0,3:2:0:0:
193,269,26716,2,0,P|207:319|238:376,1,86.2500016450882,8|0,0:0|0:0,0:0:0:0:
388,192,26948,5,2,3:2:0:0:
166,62,27063,1,0,3:2:0:0:
201,293,27178,2,0,P|231:335|280:378,1,86.2500016450882,8|0,0:0|0:0,0:0:0:0:
414,293,27409,5,2,3:2:0:0:
123,123,27525,1,2,3:2:0:0:
185,332,27640,1,10,0:0:0:0:
321,132,27755,2,0,B|299:96|286:87|243:67,1,86.2500016450882,6|0,0:0|0:0,0:0:0:0:
91,255,27986,1,2,0:0:0:0:
401,188,28102,1,10,0:0:0:0:
50,177,28217,2,0,P|116:177|157:178,1,86.2500016450882,6|0,3:2|0:0,0:0:0:0:
266,309,28448,1,2,3:2:0:0:
197,58,28563,1,10,0:0:0:0:
175,308,28679,6,0,L|199:199,1,86.2500016450882,14|0,0:0|0:0,0:0:0:0:
296,46,28909,1,10,0:0:0:0:
323,316,29025,2,0,L|347:207,1,86.2500016450882,10|0,0:0|0:0,0:0:0:0:
317,46,29255,5,6,3:2:0:0:
226,73,29312,1,0,3:2:0:0:
221,167,29370,1,0,3:2:0:0:
309,203,29428,1,0,3:2:0:0:
359,132,29486,1,8,3:0:0:0:
287,136,29543,1,8,3:0:0:0:
220,163,29601,1,8,3:0:0:0:
149,167,29659,1,8,3:0:0:0:
88,131,29717,6,0,P|158:129|203:135,1,86.2500016450882,6|0,3:2|0:0,0:0:0:0:
