osu file format v14

[General]
AudioFilename: audio.mp3
AudioLeadIn: 0
PreviewTime: 36914
Countdown: 0
SampleSet: Normal
StackLeniency: 0.7
Mode: 3
LetterboxInBreaks: 0
SpecialStyle: 0
WidescreenStoryboard: 0

[Editor]
DistanceSpacing: 0.8
BeatDivisor: 4
GridSize: 16
TimelineZoom: 1.7

[Metadata]
Title:Another Medium
TitleUnicode:Another Medium
Artist:Toby Fox
ArtistUnicode:Toby Fox
Creator:Kivicat
Version:DETERMINATION
Source:Undertale
Tags:
BeatmapID:1369259
BeatmapSetID:646216

[Difficulty]
HPDrainRate:8
CircleSize:7
OverallDifficulty:7.5
ApproachRate:5
SliderMultiplier:1.4
SliderTickRate:1

[Events]
//Background and Video events
0,0,"1.jpg",0,0
//Break Periods
//Storyboard Layer 0 (Background)
//Storyboard Layer 1 (Fail)
//Storyboard Layer 2 (Pass)
//Storyboard Layer 3 (Foreground)
//Storyboard Sound Samples

[TimingPoints]
3684,461.538461538462,4,1,0,0,1,0

[HitObjects]
182,192,3684,5,0,0:0:0:20:P_F5.wav
36,192,3799,1,0,0:0:0:21:P_C5.wav
256,192,3914,1,0,0:0:0:22:P_C6.wav
109,192,4030,1,0,0:0:0:23:P_G5.wav
475,192,4145,1,0,0:0:0:24:P_G6.wav
182,192,4260,1,0,0:0:0:25:P_C6.wav
329,192,4376,1,0,0:0:0:26:P_D#6.wav
109,192,4491,1,0,0:0:0:27:P_G5.wav
402,192,4607,1,0,0:0:0:28:P_F6.wav
182,192,4722,1,0,0:0:0:29:P_A#5.wav
329,192,4837,1,0,0:0:0:30:P_C6.wav
109,192,4953,1,0,0:0:0:31:P_F5.wav
256,192,5068,1,0,0:0:0:32:P_G#5.wav
36,192,5184,1,0,0:0:0:33:P_D#5.wav
329,192,5299,1,0,0:0:0:34:P_C6.wav
256,192,5414,1,0,0:0:0:35:P_G#5.wav
182,192,5530,1,0,0:0:0:36:P_F5.wav
36,192,5645,1,0,0:0:0:37:P_C5.wav
256,192,5760,1,0,0:0:0:38:P_G#5.wav
109,192,5876,1,0,0:0:0:39:P_F5.wav
329,192,5991,1,0,0:0:0:40:P_G6.wav
182,192,6107,1,0,0:0:0:42:P_C6.wav
402,192,6222,1,0,0:0:0:44:P_G#6.wav
256,192,6337,1,0,0:0:0:46:P_C#6.wav
475,192,6453,1,0,0:0:0:48:P_A#6.wav
182,192,6568,1,0,0:0:0:50:P_D#6.wav
402,192,6684,1,0,0:0:0:52:P_G#6.wav
109,192,6799,1,0,0:0:0:54:P_C#6.wav
329,192,6914,1,0,0:0:0:56:P_G6.wav
36,192,7030,1,0,0:0:0:58:P_C6.wav
402,192,7145,1,0,0:0:0:60:P_D#6.wav
329,192,7260,1,0,0:0:0:60:P_G#5.wav
36,192,7376,128,0,11068:0:0:0:0:
256,192,7376,1,0,0:0:0:60:P_F#5.wav
109,192,7491,1,0,0:0:0:60:P_D#5.wav
329,192,7607,1,0,0:0:0:60:P_A#5.wav
182,192,7722,1,0,0:0:0:60:P_F#5.wav
475,192,7837,1,0,0:0:0:60:P_G#6.wav
329,192,7953,1,0,0:0:0:60:P_C#6.wav
402,192,8068,1,0,0:0:0:60:P_F#6.wav
256,192,8184,1,0,0:0:0:60:P_A#5.wav
329,192,8299,1,0,0:0:0:60:P_F6.wav
182,192,8414,1,0,0:0:0:60:P_F#5.wav
256,192,8530,1,0,0:0:0:60:P_C#6.wav
109,192,8645,1,0,0:0:0:60:P_G#5.wav
182,192,8760,1,0,0:0:0:60:P_A#5.wav
109,192,8876,1,0,0:0:0:60:P_D#5.wav
402,192,8991,1,0,0:0:0:60:P_C#6.wav
329,192,9107,1,0,0:0:0:60:P_G#5.wav
256,192,9222,1,0,0:0:0:60:P_F#5.wav
109,192,9337,1,0,0:0:0:60:P_D#5.wav
402,192,9453,1,0,0:0:0:60:P_C#6.wav
256,192,9568,1,0,0:0:0:60:P_F#5.wav
475,192,9684,1,0,0:0:0:60:P_D#6.wav
329,192,9799,1,0,0:0:0:60:P_G#5.wav
402,192,9914,1,0,0:0:0:60:P_C#6.wav
256,192,10030,1,0,0:0:0:60:P_F#5.wav
329,192,10145,1,0,0:0:0:60:P_C6.wav
182,192,10260,1,0,0:0:0:60:P_D#5.wav
256,192,10376,1,0,0:0:0:60:P_G#5.wav
109,192,10491,1,0,0:0:0:60:P_C#5.wav
182,192,10607,1,0,0:0:0:60:P_F5.wav
109,192,10722,1,0,0:0:0:60:P_D#5.wav
402,192,10837,1,0,0:0:0:60:P_G#5.wav
256,192,10953,1,0,0:0:0:60:P_C#5.wav
109,192,11068,128,0,12914:0:0:0:0:
329,192,11068,1,0,0:0:0:60:P_F#5.wav
182,192,11184,1,0,0:0:0:60:P_D#5.wav
402,192,11299,1,0,0:0:0:60:P_A#5.wav
256,192,11414,1,0,0:0:0:60:P_F#5.wav
475,192,11530,1,0,0:0:0:60:P_G#6.wav
329,192,11645,1,0,0:0:0:60:P_C#6.wav
402,192,11760,1,0,0:0:0:60:P_F#6.wav
256,192,11876,1,0,0:0:0:60:P_A#5.wav
329,192,11991,1,0,0:0:0:60:P_F6.wav
182,192,12107,1,0,0:0:0:60:P_F#5.wav
256,192,12222,1,0,0:0:0:60:P_C#6.wav
36,192,12337,1,0,0:0:0:60:P_G#5.wav
182,192,12453,1,0,0:0:0:60:P_A#5.wav
36,192,12568,1,0,0:0:0:60:P_D#5.wav
475,192,12684,1,0,0:0:0:60:P_C#6.wav
402,192,12799,1,0,0:0:0:60:P_G#5.wav
182,192,12914,128,0,14760:0:0:0:0:
329,192,12914,1,0,0:0:0:60:P_F#5.wav
36,192,13030,1,0,0:0:0:60:P_D#5.wav
402,192,13145,1,0,0:0:0:60:P_C#6.wav
109,192,13260,1,0,0:0:0:60:P_F#5.wav
475,192,13376,1,0,0:0:0:60:P_D#6.wav
329,192,13491,1,0,0:0:0:60:P_G#5.wav
402,192,13607,1,0,0:0:0:60:P_C#6.wav
256,192,13722,1,0,0:0:0:60:P_F#5.wav
329,192,13837,1,0,0:0:0:60:P_C6.wav
109,192,13953,1,0,0:0:0:60:P_D#5.wav
256,192,14068,1,0,0:0:0:60:P_G#5.wav
36,192,14184,1,0,0:0:0:60:P_C#5.wav
109,192,14299,1,0,0:0:0:60:P_F5.wav
36,192,14414,1,0,0:0:0:60:P_C5.wav
402,192,14530,1,0,0:0:0:60:P_G#5.wav
256,192,14645,1,0,0:0:0:60:P_C#5.wav
329,192,14760,5,0,0:0:0:60:P_F5.wav
109,192,14760,128,0,17991:0:0:0:0:
36,192,14876,1,0,0:0:0:60:P_C5.wav
402,192,14991,1,0,0:0:0:60:P_C6.wav
182,192,15107,1,0,0:0:0:60:P_G5.wav
475,192,15222,1,0,0:0:0:60:P_G6.wav
256,192,15337,1,0,0:0:0:60:P_C6.wav
329,192,15453,1,0,0:0:0:60:P_D#6.wav
36,192,15568,1,0,0:0:0:60:P_G5.wav
402,192,15684,1,0,0:0:0:60:P_F6.wav
182,192,15799,1,0,0:0:0:60:P_A#5.wav
329,192,15914,1,0,0:0:0:60:P_C6.wav
36,192,16030,1,0,0:0:0:60:P_F5.wav
182,192,16145,1,0,0:0:0:60:P_G#5.wav
36,192,16260,1,0,0:0:0:60:P_D#5.wav
329,192,16376,1,0,0:0:0:60:P_C6.wav
256,192,16491,1,0,0:0:0:60:P_G#5.wav
182,192,16607,1,0,0:0:0:60:P_F5.wav
36,192,16722,1,0,0:0:0:60:P_C5.wav
256,192,16837,1,0,0:0:0:60:P_G#5.wav
182,192,16953,1,0,0:0:0:60:P_F5.wav
329,192,17068,1,0,0:0:0:60:P_G6.wav
182,192,17184,1,0,0:0:0:60:P_C6.wav
402,192,17299,1,0,0:0:0:60:P_G#6.wav
256,192,17414,1,0,0:0:0:60:P_C#6.wav
475,192,17530,1,0,0:0:0:60:P_A#6.wav
329,192,17645,1,0,0:0:0:60:P_D#6.wav
402,192,17760,1,0,0:0:0:60:P_G#6.wav
256,192,17876,1,0,0:0:0:60:P_C#6.wav
36,192,17991,128,0,18453:0:0:0:0:
329,192,17991,1,0,0:0:0:60:P_G6.wav
182,192,18107,1,0,0:0:0:60:P_C6.wav
402,192,18222,1,0,0:0:0:60:P_D#6.wav
329,192,18337,1,0,0:0:0:60:P_G#5.wav
256,192,18453,5,0,0:0:0:60:P_F5.wav
109,192,18453,128,0,20760:0:0:0:0:
182,192,18568,1,0,0:0:0:60:P_C5.wav
402,192,18684,1,0,0:0:0:60:P_C6.wav
256,192,18799,1,0,0:0:0:60:P_G5.wav
475,192,18914,1,0,0:0:0:60:P_G6.wav
329,192,19030,1,0,0:0:0:60:P_C6.wav
182,192,19145,1,0,0:0:0:60:P_D#6.wav
329,192,19260,1,0,0:0:0:60:P_G5.wav
36,192,19376,1,0,0:0:0:60:P_F6.wav
256,192,19491,1,0,0:0:0:60:P_A#5.wav
182,192,19607,1,0,0:0:0:60:P_C6.wav
329,192,19722,1,0,0:0:0:60:P_F5.wav
256,192,19837,1,0,0:0:0:60:P_G#5.wav
402,192,19953,1,0,0:0:0:60:P_D#5.wav
182,192,20068,1,0,0:0:0:60:P_C6.wav
256,192,20184,1,0,0:0:0:60:P_G#5.wav
329,192,20299,1,0,0:0:0:60:P_F5.wav
475,192,20414,1,0,0:0:0:60:P_C5.wav
256,192,20530,1,0,0:0:0:60:P_G#5.wav
402,192,20645,1,0,0:0:0:60:P_F5.wav
36,192,20760,128,0,21222:0:0:0:0:
329,192,20760,1,0,0:0:0:60:P_G6.wav
182,192,20876,1,0,0:0:0:60:P_C6.wav
402,192,20991,1,0,0:0:0:60:P_G#6.wav
256,192,21107,1,0,0:0:0:60:P_C#6.wav
109,192,21222,128,0,21684:0:0:0:0:
475,192,21222,1,0,0:0:0:60:P_A#6.wav
329,192,21337,1,0,0:0:0:60:P_D#6.wav
402,192,21453,1,0,0:0:0:60:P_G#6.wav
256,192,21568,1,0,0:0:0:60:P_C#6.wav
182,192,21684,128,0,22145:0:0:0:0:
475,192,21684,128,0,22145:0:0:0:0:
329,192,21684,1,0,0:0:0:60:P_G6.wav
36,192,21799,1,0,0:0:0:60:P_C6.wav
402,192,21914,1,0,0:0:0:60:P_D#6.wav
256,192,22030,1,0,0:0:0:60:P_G#5.wav
329,192,22145,128,0,24453:0:0:0:0:
36,192,22145,128,0,25837:0:0:0:0:
109,192,22145,1,0,0:0:0:0:
402,192,22145,1,0,0:0:0:60:P_F#5.wav
182,192,22260,1,0,0:0:0:60:P_D#5.wav
475,192,22376,1,0,0:0:0:60:P_A#5.wav
256,192,22491,1,0,0:0:0:60:P_F#5.wav
109,192,22607,1,0,0:0:0:60:P_G#6.wav
402,192,22722,1,0,0:0:0:60:P_C#6.wav
182,192,22837,1,0,0:0:0:60:P_F#6.wav
475,192,22953,1,0,0:0:0:60:P_A#5.wav
402,192,23068,1,0,0:0:0:0:
256,192,23068,1,0,0:0:0:60:P_F6.wav
109,192,23184,1,0,0:0:0:60:P_F#5.wav
475,192,23299,1,0,0:0:0:60:P_C#6.wav
182,192,23414,1,0,0:0:0:60:P_G#5.wav
402,192,23530,1,0,0:0:0:60:P_A#5.wav
256,192,23645,1,0,0:0:0:60:P_D#5.wav
109,192,23760,1,0,0:0:0:60:P_C#6.wav
182,192,23876,1,0,0:0:0:60:P_G#5.wav
475,192,23991,1,0,0:0:0:0:
256,192,23991,1,0,0:0:0:60:P_F#5.wav
402,192,24107,1,0,0:0:0:60:P_D#5.wav
182,192,24222,1,0,0:0:0:60:P_C#6.wav
475,192,24337,1,0,0:0:0:60:P_F#5.wav
256,192,24453,128,0,24914:0:0:0:0:
109,192,24453,1,0,0:0:0:60:P_D#6.wav
402,192,24568,1,0,0:0:0:60:P_G#5.wav
182,192,24684,1,0,0:0:0:60:P_C#6.wav
475,192,24799,1,0,0:0:0:60:P_F#5.wav
182,192,24914,1,0,0:0:0:0:
329,192,24914,128,0,25376:0:0:0:0:
109,192,24914,1,0,0:0:0:60:P_C6.wav
402,192,25030,1,0,0:0:0:60:P_D#5.wav
182,192,25145,1,0,0:0:0:60:P_G#5.wav
256,192,25260,1,0,0:0:0:60:P_C#5.wav
402,192,25376,128,0,25837:0:0:0:0:
109,192,25376,1,0,0:0:0:60:P_F5.wav
182,192,25491,1,0,0:0:0:60:P_D#5.wav
329,192,25607,1,0,0:0:0:60:P_G#5.wav
182,192,25722,1,0,0:0:0:60:P_C#5.wav
475,192,25837,128,0,27684:0:0:0:0:
109,192,25837,128,0,27684:0:0:0:0:
329,192,25837,1,0,0:0:0:0:
256,192,25837,1,0,0:0:0:60:P_F#5.wav
182,192,25953,1,0,0:0:0:60:P_D#5.wav
329,192,26068,1,0,0:0:0:60:P_A#5.wav
256,192,26184,1,0,0:0:0:60:P_F#5.wav
402,192,26299,1,0,0:0:0:60:P_G#6.wav
182,192,26414,1,0,0:0:0:60:P_C#6.wav
329,192,26530,1,0,0:0:0:60:P_F#6.wav
36,192,26645,1,0,0:0:0:60:P_A#5.wav
402,192,26760,1,0,0:0:0:0:
256,192,26760,1,0,0:0:0:60:P_F6.wav
329,192,26876,1,0,0:0:0:60:P_F#5.wav
182,192,26991,1,0,0:0:0:60:P_C#6.wav
256,192,27107,1,0,0:0:0:60:P_G#5.wav
36,192,27222,1,0,0:0:0:60:P_A#5.wav
182,192,27337,1,0,0:0:0:60:P_D#5.wav
402,192,27453,1,0,0:0:0:60:P_C#6.wav
329,192,27568,1,0,0:0:0:60:P_G#5.wav
402,192,27684,128,0,28607:0:0:0:0:
182,192,27684,128,0,29530:0:0:0:0:
36,192,27684,1,0,0:0:0:0:
256,192,27684,1,0,0:0:0:60:P_F#5.wav
109,192,27799,1,0,0:0:0:60:P_D#5.wav
329,192,27914,1,0,0:0:0:60:P_C#6.wav
256,192,28030,1,0,0:0:0:60:P_F#5.wav
475,192,28145,1,0,0:0:0:60:P_D#6.wav
109,192,28260,1,0,0:0:0:60:P_G#5.wav
329,192,28376,1,0,0:0:0:60:P_C#6.wav
36,192,28491,1,0,0:0:0:60:P_F#5.wav
329,192,28607,128,0,29530:0:0:0:0:
475,192,28607,1,0,0:0:0:0:
256,192,28607,1,0,0:0:0:60:P_C6.wav
402,192,28722,1,0,0:0:0:60:P_D#5.wav
109,192,28837,1,0,0:0:0:60:P_G#5.wav
256,192,28953,1,0,0:0:0:60:P_C#5.wav
36,192,29068,1,0,0:0:0:60:P_F5.wav
109,192,29184,1,0,0:0:0:60:P_C5.wav
256,192,29299,1,0,0:0:0:60:P_G#5.wav
36,192,29414,1,0,0:0:0:60:P_C#5.wav
402,192,29530,5,0,0:0:0:60:P_F5.wav
256,192,29530,128,0,32760:0:0:0:0:
109,192,29530,128,0,32760:0:0:0:0:
475,192,29530,1,0,0:0:0:0:
182,192,29645,1,0,0:0:0:60:P_C5.wav
402,192,29760,1,0,0:0:0:60:P_C6.wav
329,192,29876,1,0,0:0:0:60:P_G5.wav
475,192,29991,1,0,0:0:0:60:P_G6.wav
402,192,30107,1,0,0:0:0:60:P_C6.wav
182,192,30222,1,0,0:0:0:60:P_D#6.wav
329,192,30337,1,0,0:0:0:60:P_G5.wav
36,192,30453,1,0,0:0:0:0:
475,192,30453,1,0,0:0:0:60:P_F6.wav
329,192,30568,1,0,0:0:0:60:P_A#5.wav
182,192,30684,1,0,0:0:0:60:P_C6.wav
402,192,30799,1,0,0:0:0:60:P_F5.wav
329,192,30914,1,0,0:0:0:60:P_G#5.wav
475,192,31030,1,0,0:0:0:60:P_D#5.wav
36,192,31145,1,0,0:0:0:60:P_C6.wav
182,192,31260,1,0,0:0:0:60:P_G#5.wav
36,192,31376,1,0,0:0:0:0:
329,192,31376,1,0,0:0:0:60:P_F5.wav
475,192,31491,1,0,0:0:0:60:P_C5.wav
182,192,31607,1,0,0:0:0:60:P_G#5.wav
402,192,31722,1,0,0:0:0:60:P_F5.wav
329,192,31837,1,0,0:0:0:60:P_G6.wav
36,192,31953,1,0,0:0:0:60:P_C6.wav
402,192,32068,1,0,0:0:0:60:P_G#6.wav
182,192,32184,1,0,0:0:0:60:P_C#6.wav
475,192,32299,1,0,0:0:0:0:
329,192,32299,1,0,0:0:0:60:P_A#6.wav
36,192,32414,1,0,0:0:0:60:P_D#6.wav
402,192,32530,1,0,0:0:0:60:P_G#6.wav
475,192,32645,1,0,0:0:0:60:P_C#6.wav
182,192,32760,128,0,33222:0:0:0:0:
36,192,32760,128,0,33222:0:0:0:0:
329,192,32760,1,0,0:0:0:60:P_G6.wav
402,192,32876,1,0,0:0:0:60:P_C6.wav
256,192,32991,1,0,0:0:0:60:P_D#6.wav
329,192,33107,1,0,0:0:0:60:P_G#5.wav
402,192,33222,5,0,0:0:0:60:P_F5.wav
256,192,33222,128,0,36914:0:0:0:0:
109,192,33222,128,0,35530:0:0:0:0:
475,192,33222,1,0,0:0:0:0:
182,192,33337,1,0,0:0:0:60:P_C5.wav
329,192,33453,1,0,0:0:0:60:P_C6.wav
36,192,33568,1,0,0:0:0:60:P_G5.wav
182,192,33684,1,0,0:0:0:60:P_G6.wav
36,192,33799,1,0,0:0:0:60:P_C6.wav
402,192,33914,1,0,0:0:0:60:P_D#6.wav
182,192,34030,1,0,0:0:0:60:P_G5.wav
475,192,34145,1,0,0:0:0:0:
329,192,34145,1,0,0:0:0:60:P_F6.wav
182,192,34260,1,0,0:0:0:60:P_A#5.wav
402,192,34376,1,0,0:0:0:60:P_C6.wav
329,192,34491,1,0,0:0:0:60:P_F5.wav
475,192,34607,1,0,0:0:0:60:P_G#5.wav
329,192,34722,1,0,0:0:0:60:P_D#5.wav
36,192,34837,1,0,0:0:0:60:P_C6.wav
182,192,34953,1,0,0:0:0:60:P_G#5.wav
402,192,35068,1,0,0:0:0:0:
329,192,35068,1,0,0:0:0:60:P_F5.wav
36,192,35184,1,0,0:0:0:60:P_C5.wav
475,192,35299,1,0,0:0:0:60:P_G#5.wav
182,192,35414,1,0,0:0:0:60:P_F5.wav
36,192,35530,128,0,35991:0:0:0:0:
329,192,35530,1,0,0:0:0:60:P_G6.wav
182,192,35645,1,0,0:0:0:60:P_C6.wav
402,192,35760,1,0,0:0:0:60:P_G#6.wav
329,192,35876,1,0,0:0:0:60:P_C#6.wav
109,192,35991,128,0,36453:0:0:0:0:
182,192,35991,1,0,0:0:0:0:
475,192,35991,1,0,0:0:0:60:P_A#6.wav
402,192,36107,1,0,0:0:0:60:P_D#6.wav
182,192,36222,1,0,0:0:0:0:
475,192,36222,1,0,0:0:0:60:P_G#6.wav
329,192,36337,1,0,0:0:0:60:P_C#6.wav
182,192,36453,128,0,36914:0:0:0:0:
36,192,36453,1,0,0:0:0:0:
402,192,36453,1,0,0:0:0:60:P_G6.wav
329,192,36568,1,0,0:0:0:60:P_C6.wav
109,192,36684,1,0,0:0:0:0:
475,192,36684,1,0,0:0:0:60:P_D#6.wav
402,192,36799,1,0,0:0:0:60:P_G#5.wav
36,192,36914,1,0,0:0:0:0:
109,192,36914,1,0,0:0:0:0:
475,192,36914,1,0,0:0:0:0:
329,192,36914,1,0,0:0:0:60:P_F#5.wav
256,192,37030,1,0,0:0:0:60:P_D#5.wav
109,192,37145,1,0,0:0:0:0:
402,192,37145,1,0,0:0:0:60:P_A#5.wav
182,192,37260,1,0,0:0:0:60:P_F#5.wav
36,192,37376,1,0,0:0:0:0:
402,192,37376,1,0,0:0:0:0:
475,192,37376,1,0,0:0:0:0:
329,192,37376,1,0,0:0:0:60:P_G#6.wav
182,192,37491,1,0,0:0:0:60:P_C#6.wav
109,192,37607,1,0,0:0:0:0:
402,192,37607,1,0,0:0:0:60:P_F#6.wav
256,192,37722,1,0,0:0:0:60:P_A#5.wav
36,192,37837,1,0,0:0:0:0:
475,192,37837,1,0,0:0:0:0:
329,192,37837,1,0,0:0:0:60:P_F6.wav
182,192,37953,1,0,0:0:0:60:P_F#5.wav
109,192,38068,1,0,0:0:0:0:
402,192,38068,1,0,0:0:0:60:P_C#6.wav
256,192,38184,1,0,0:0:0:60:P_G#5.wav
36,192,38299,1,0,0:0:0:0:
109,192,38299,1,0,0:0:0:0:
475,192,38299,1,0,0:0:0:0:
182,192,38299,1,0,0:0:0:60:P_A#5.wav
329,192,38414,1,0,0:0:0:60:P_D#5.wav
475,192,38530,1,0,0:0:0:0:
109,192,38530,1,0,0:0:0:60:P_C#6.wav
256,192,38645,1,0,0:0:0:60:P_G#5.wav
36,192,38760,1,0,0:0:0:0:
402,192,38760,1,0,0:0:0:0:
182,192,38760,1,0,0:0:0:60:P_F#5.wav
329,192,38876,1,0,0:0:0:60:P_D#5.wav
109,192,38991,1,0,0:0:0:0:
256,192,38991,1,0,0:0:0:60:P_C#6.wav
402,192,39107,1,0,0:0:0:60:P_F#5.wav
36,192,39222,1,0,0:0:0:0:
109,192,39222,1,0,0:0:0:0:
182,192,39222,1,0,0:0:0:0:
329,192,39222,1,0,0:0:0:60:P_D#6.wav
475,192,39337,1,0,0:0:0:60:P_G#5.wav
109,192,39453,1,0,0:0:0:0:
256,192,39453,1,0,0:0:0:60:P_C#6.wav
402,192,39568,1,0,0:0:0:60:P_F#5.wav
36,192,39684,1,0,0:0:0:0:
475,192,39684,1,0,0:0:0:0:
182,192,39684,1,0,0:0:0:60:P_C6.wav
329,192,39799,1,0,0:0:0:60:P_D#5.wav
402,192,39914,1,0,0:0:0:0:
109,192,39914,1,0,0:0:0:60:P_G#5.wav
256,192,40030,1,0,0:0:0:60:P_C#5.wav
36,192,40145,1,0,0:0:0:0:
475,192,40145,1,0,0:0:0:0:
402,192,40145,1,0,0:0:0:0:
329,192,40145,1,0,0:0:0:60:P_F5.wav
36,192,40260,1,0,0:0:0:0:
182,192,40260,1,0,0:0:0:60:P_D#5.wav
36,192,40376,1,0,0:0:0:0:
402,192,40376,1,0,0:0:0:0:
109,192,40376,1,0,0:0:0:60:P_C#5.wav
36,192,40491,1,0,0:0:0:0:
182,192,40491,1,0,0:0:0:60:P_D#5.wav
36,192,40607,1,0,0:0:0:0:
475,192,40607,1,0,0:0:0:0:
329,192,40607,1,0,0:0:0:60:P_F#5.wav
182,192,40722,1,0,0:0:0:60:P_D#5.wav
109,192,40837,1,0,0:0:0:0:
402,192,40837,1,0,0:0:0:60:P_A#5.wav
256,192,40953,1,0,0:0:0:60:P_F#5.wav
36,192,41068,1,0,0:0:0:0:
109,192,41068,1,0,0:0:0:0:
475,192,41068,1,0,0:0:0:0:
182,192,41068,1,0,0:0:0:60:P_G#6.wav
329,192,41184,1,0,0:0:0:60:P_C#6.wav
402,192,41299,1,0,0:0:0:0:
109,192,41299,1,0,0:0:0:60:P_F#6.wav
256,192,41414,1,0,0:0:0:60:P_A#5.wav
36,192,41530,1,0,0:0:0:0:
475,192,41530,1,0,0:0:0:0:
329,192,41530,1,0,0:0:0:60:P_F6.wav
182,192,41645,1,0,0:0:0:60:P_F#5.wav
109,192,41760,1,0,0:0:0:0:
402,192,41760,1,0,0:0:0:60:P_C#6.wav
256,192,41876,1,0,0:0:0:60:P_G#5.wav
36,192,41991,1,0,0:0:0:0:
109,192,41991,1,0,0:0:0:0:
475,192,41991,1,0,0:0:0:0:
182,192,41991,1,0,0:0:0:60:P_A#5.wav
329,192,42107,1,0,0:0:0:60:P_D#5.wav
402,192,42222,1,0,0:0:0:0:
109,192,42222,1,0,0:0:0:60:P_C#6.wav
256,192,42337,1,0,0:0:0:60:P_G#5.wav
36,192,42453,1,0,0:0:0:0:
402,192,42453,1,0,0:0:0:0:
182,192,42453,1,0,0:0:0:60:P_F#5.wav
329,192,42568,1,0,0:0:0:60:P_D#5.wav
109,192,42684,1,0,0:0:0:0:
256,192,42684,1,0,0:0:0:60:P_C#6.wav
329,192,42799,1,0,0:0:0:60:P_F#5.wav
36,192,42914,1,0,0:0:0:0:
109,192,42914,1,0,0:0:0:0:
182,192,42914,1,0,0:0:0:0:
402,192,42914,1,0,0:0:0:60:P_D#6.wav
256,192,43030,1,0,0:0:0:60:P_G#5.wav
109,192,43145,1,0,0:0:0:0:
329,192,43145,1,0,0:0:0:60:P_C#6.wav
256,192,43260,1,0,0:0:0:60:P_F#5.wav
36,192,43376,1,0,0:0:0:0:
402,192,43376,1,0,0:0:0:0:
182,192,43376,1,0,0:0:0:60:P_C6.wav
329,192,43491,1,0,0:0:0:60:P_D#5.wav
475,192,43607,1,0,0:0:0:0:
256,192,43607,1,0,0:0:0:60:P_G#5.wav
402,192,43722,1,0,0:0:0:60:P_C#5.wav
36,192,43837,1,0,0:0:0:0:
109,192,43837,1,0,0:0:0:0:
182,192,43837,1,0,0:0:0:0:
329,192,43837,1,0,0:0:0:60:P_F5.wav
256,192,43953,1,0,0:0:0:60:P_C5.wav
109,192,44068,1,0,0:0:0:0:
475,192,44068,1,0,0:0:0:60:P_G#5.wav
329,192,44184,1,0,0:0:0:60:P_C#5.wav
402,192,44299,5,0,0:0:0:60:P_F5.wav
36,192,44299,1,0,0:0:0:0:
182,192,44299,128,0,46030:0:0:0:0:
256,192,44414,1,0,0:0:0:60:P_C5.wav
109,192,44530,1,0,0:0:0:0:
475,192,44530,1,0,0:0:0:60:P_C6.wav
109,192,44645,1,0,0:0:0:0:
329,192,44645,1,0,0:0:0:60:P_G5.wav
36,192,44760,1,0,0:0:0:0:
402,192,44760,1,0,0:0:0:0:
256,192,44760,1,0,0:0:0:60:P_G6.wav
329,192,44876,1,0,0:0:0:60:P_C6.wav
475,192,44991,1,0,0:0:0:0:
109,192,44991,1,0,0:0:0:60:P_D#6.wav
475,192,45107,1,0,0:0:0:0:
256,192,45107,1,0,0:0:0:60:P_G5.wav
36,192,45222,1,0,0:0:0:0:
402,192,45222,1,0,0:0:0:60:P_F6.wav
256,192,45337,1,0,0:0:0:60:P_A#5.wav
109,192,45453,1,0,0:0:0:0:
475,192,45453,1,0,0:0:0:60:P_C6.wav
109,192,45568,1,0,0:0:0:0:
329,192,45568,1,0,0:0:0:60:P_F5.wav
36,192,45684,1,0,0:0:0:0:
475,192,45684,1,0,0:0:0:0:
256,192,45684,1,0,0:0:0:60:P_G#5.wav
402,192,45799,1,0,0:0:0:60:P_D#5.wav
329,192,45914,1,0,0:0:0:0:
36,192,45914,1,0,0:0:0:60:P_C6.wav
329,192,46030,1,0,0:0:0:0:
109,192,46030,1,0,0:0:0:60:P_G#5.wav
182,192,46145,128,0,47530:0:0:0:0:
256,192,46145,1,0,0:0:0:0:
402,192,46145,1,0,0:0:0:60:P_F5.wav
475,192,46260,1,0,0:0:0:60:P_C5.wav
109,192,46376,1,0,0:0:0:0:
329,192,46376,1,0,0:0:0:60:P_G#5.wav
109,192,46491,1,0,0:0:0:0:
402,192,46491,1,0,0:0:0:60:P_F5.wav
36,192,46607,1,0,0:0:0:0:
475,192,46607,1,0,0:0:0:0:
256,192,46607,1,0,0:0:0:60:P_G6.wav
329,192,46722,1,0,0:0:0:60:P_C6.wav
402,192,46837,1,0,0:0:0:0:
109,192,46837,1,0,0:0:0:60:P_G#6.wav
402,192,46953,1,0,0:0:0:0:
256,192,46953,1,0,0:0:0:60:P_C#6.wav
329,192,47068,1,0,0:0:0:0:
36,192,47068,1,0,0:0:0:60:P_A#6.wav
256,192,47184,1,0,0:0:0:60:P_D#6.wav
109,192,47299,1,0,0:0:0:0:
402,192,47299,1,0,0:0:0:60:P_G#6.wav
109,192,47414,1,0,0:0:0:0:
329,192,47414,1,0,0:0:0:60:P_C#6.wav
36,192,47530,128,0,47991:0:0:0:0:
256,192,47530,1,0,0:0:0:0:
402,192,47530,1,0,0:0:0:0:
475,192,47530,1,0,0:0:0:60:P_G6.wav
329,192,47645,1,0,0:0:0:60:P_C6.wav
256,192,47760,1,0,0:0:0:0:
475,192,47760,1,0,0:0:0:60:P_D#6.wav
256,192,47876,1,0,0:0:0:0:
402,192,47876,1,0,0:0:0:60:P_G#5.wav
182,192,47991,128,0,48799:0:0:0:0:
109,192,47991,1,0,0:0:0:0:
329,192,47991,128,0,48107:0:0:0:60:P_F5.wav
475,192,48107,128,0,48222:0:0:0:60:P_C5.wav
36,192,48222,1,0,0:0:0:0:
256,192,48222,128,0,48337:0:0:0:60:P_C6.wav
402,192,48337,128,0,48453:0:0:0:60:P_G5.wav
329,192,48453,1,0,0:0:0:0:
475,192,48453,1,0,0:0:0:0:
109,192,48453,128,0,48568:0:0:0:60:P_G6.wav
256,192,48568,128,0,48684:0:0:0:60:P_C6.wav
36,192,48684,1,0,0:0:0:0:
475,192,48684,128,0,48799:0:0:0:60:P_D#6.wav
402,192,48799,128,0,48914:0:0:0:60:P_G5.wav
109,192,48914,1,0,0:0:0:0:
329,192,48914,128,0,48943:0:0:0:60:P_F5_s.wav
182,192,48914,128,0,49722:0:0:0:0:
475,192,49030,128,0,49059:0:0:0:60:P_C5_s.wav
36,192,49145,1,0,0:0:0:0:
256,192,49145,128,0,49174:0:0:0:60:P_C6_s.wav
402,192,49260,128,0,49289:0:0:0:60:P_G5_s.wav
475,192,49376,1,0,0:0:0:0:
329,192,49376,1,0,0:0:0:0:
109,192,49376,128,0,49405:0:0:0:60:P_G6_s.wav
256,192,49491,128,0,49520:0:0:0:60:P_C6_s.wav
36,192,49607,1,0,0:0:0:0:
475,192,49607,128,0,49635:0:0:0:60:P_D#6_s.wav
402,192,49722,128,0,49751:0:0:0:60:P_G5_s.wav
182,192,49837,128,0,50299:0:0:0:0:
109,192,49837,1,0,0:0:0:0:
329,192,49837,128,0,50068:0:0:0:60:P_F5.wav
475,192,49953,128,0,50184:0:0:0:60:P_C5.wav
36,192,50068,1,0,0:0:0:0:
256,192,50068,128,0,50299:0:0:0:60:P_C6.wav
402,192,50184,128,0,50414:0:0:0:60:P_G5.wav
36,192,50299,128,0,50760:0:0:0:0:
475,192,50299,1,0,0:0:0:0:
109,192,50299,128,0,50530:0:0:0:60:P_G6.wav
256,192,50414,128,0,50645:0:0:0:60:P_C6.wav
402,192,50530,1,0,0:0:0:0:
475,192,50530,128,0,50876:0:0:0:60:P_D#6.wav
329,192,50645,128,0,50760:0:0:0:60:P_G5.wav
109,192,50760,128,0,51222:0:0:0:0:
182,192,50760,128,0,51222:0:0:0:60:P_G6.wav
329,192,50876,128,0,51107:0:0:0:60:P_C6.wav
256,192,50991,128,0,51222:0:0:0:0:
475,192,50991,128,0,51107:0:0:0:60:P_D#6.wav
402,192,51107,128,0,51222:0:0:0:60:P_G#5.wav
36,192,51222,1,0,0:0:0:0:
329,192,51222,1,0,0:0:0:0:
475,192,51222,1,0,0:0:0:60:P_D#6_s.wav
329,192,51337,1,0,0:0:0:0:
36,192,51337,1,0,0:0:0:0:
475,192,51337,1,0,0:0:0:60:P_D#6_s.wav
36,192,51453,1,0,0:0:0:0:
329,192,51453,1,0,0:0:0:0:
475,192,51453,1,0,0:0:0:60:P_D#6_s.wav
36,192,51568,1,0,0:0:0:0:
329,192,51568,1,0,0:0:0:0:
475,192,51568,1,0,0:0:0:60:P_D#6_s.wav
475,192,51684,1,0,0:0:0:0:
182,192,51684,1,0,0:0:0:0:
329,192,51684,128,0,51914:0:0:0:0:
36,192,51684,128,0,51914:0:0:0:0:
182,192,51914,128,0,52030:0:0:0:0:
402,192,51914,1,0,0:0:0:0:
256,192,52145,1,0,0:0:0:0:
36,192,52145,128,0,52376:0:0:0:0:
109,192,52145,1,0,0:0:0:0:
475,192,52145,1,0,0:0:0:0:
329,192,52376,128,0,53299:0:0:0:0:
182,192,52376,1,0,0:0:0:0:
36,192,52607,128,0,52837:0:0:0:0:
402,192,52607,1,0,0:0:0:0:
182,192,52837,1,0,0:0:0:0:
36,192,53068,128,0,53299:0:0:0:0:
109,192,53068,1,0,0:0:0:0:
475,192,53068,1,0,0:0:0:0:
182,192,53299,128,0,53414:0:0:0:0:
402,192,53299,1,0,0:0:0:0:
256,192,53530,1,0,0:0:0:0:
36,192,53530,128,0,53760:0:0:0:0:
475,192,53530,1,0,0:0:0:0:
329,192,53760,128,0,54453:0:0:0:0:
182,192,53760,1,0,0:0:0:0:
36,192,53991,128,0,54222:0:0:0:0:
109,192,53991,1,0,0:0:0:0:
402,192,53991,1,0,0:0:0:0:
182,192,54222,1,0,0:0:0:0:
36,192,54453,128,0,54684:0:0:0:0:
475,192,54453,1,0,0:0:0:0:
182,192,54684,128,0,54799:0:0:0:0:
329,192,54684,1,0,0:0:0:0:
256,192,54914,128,0,55376:0:0:0:0:
36,192,54914,1,0,0:0:0:0:
109,192,54914,1,0,0:0:0:0:
402,192,54914,1,0,0:0:0:0:
36,192,55030,1,0,0:0:0:0:
36,192,55145,1,0,0:0:0:0:
329,192,55145,1,0,0:0:0:0:
36,192,55260,1,0,0:0:0:0:
109,192,55376,128,0,55607:0:0:0:0:
475,192,55376,1,0,0:0:0:0:
182,192,55607,128,0,55722:0:0:0:0:
329,192,55607,1,0,0:0:0:0:
256,192,55837,1,0,0:0:0:0:
109,192,55837,128,0,56068:0:0:0:0:
36,192,55837,1,0,0:0:0:0:
402,192,55837,1,0,0:0:0:0:
329,192,56068,128,0,56991:0:0:0:0:
182,192,56068,1,0,0:0:0:0:
109,192,56299,128,0,56530:0:0:0:0:
475,192,56299,1,0,0:0:0:0:
182,192,56530,1,0,0:0:0:0:
109,192,56760,128,0,56991:0:0:0:0:
36,192,56760,1,0,0:0:0:0:
402,192,56760,1,0,0:0:0:0:
182,192,56991,128,0,57107:0:0:0:0:
475,192,56991,1,0,0:0:0:0:
256,192,57222,128,0,57453:0:0:0:0:
402,192,57222,1,0,0:0:0:0:
36,192,57222,1,0,0:0:0:0:
475,192,57453,128,0,58145:0:0:0:0:
182,192,57453,1,0,0:0:0:0:
256,192,57684,128,0,57914:0:0:0:0:
109,192,57684,1,0,0:0:0:0:
329,192,57684,1,0,0:0:0:0:
182,192,57914,1,0,0:0:0:0:
402,192,58145,128,0,58376:0:0:0:0:
256,192,58145,128,0,58376:0:0:0:0:
109,192,58145,128,0,58376:0:0:0:0:
36,192,58145,1,0,0:0:0:0:
182,192,58376,1,0,0:0:0:0:
329,192,58607,128,0,58837:0:0:0:0:
475,192,58607,128,0,58837:0:0:0:0:
182,192,58607,128,0,58837:0:0:0:0:
109,192,58607,1,0,0:0:0:0:
402,192,58607,1,0,0:0:0:0:
256,192,58837,1,0,0:0:0:0:
329,192,59068,5,0,0:0:0:60:P_D#5.wav
256,192,59068,128,0,61837:0:0:0:0:
402,192,59068,128,0,61837:0:0:0:0:
36,192,59068,128,0,59299:0:0:0:0:
109,192,59068,1,0,0:0:0:0:
475,192,59184,1,0,0:0:0:60:P_C5.wav
182,192,59299,1,0,0:0:0:60:P_C6.wav
329,192,59414,1,0,0:0:0:60:P_G5.wav
36,192,59530,128,0,59760:0:0:0:0:
475,192,59530,1,0,0:0:0:0:
109,192,59530,1,0,0:0:0:60:P_G6.wav
182,192,59645,1,0,0:0:0:60:P_C6.wav
329,192,59760,1,0,0:0:0:60:P_D#6.wav
182,192,59876,1,0,0:0:0:60:P_G5.wav
36,192,59991,128,0,60222:0:0:0:0:
109,192,59991,1,0,0:0:0:0:
475,192,59991,1,0,0:0:0:60:P_F6.wav
329,192,60107,1,0,0:0:0:60:P_A#5.wav
182,192,60222,1,0,0:0:0:60:P_C6.wav
329,192,60337,1,0,0:0:0:60:P_F5.wav
36,192,60453,128,0,60684:0:0:0:0:
475,192,60453,1,0,0:0:0:0:
109,192,60453,1,0,0:0:0:60:P_G#5.wav
182,192,60568,1,0,0:0:0:60:P_D#5.wav
329,192,60684,1,0,0:0:0:60:P_C6.wav
182,192,60799,1,0,0:0:0:60:P_G#5.wav
36,192,60914,128,0,61145:0:0:0:0:
329,192,60914,1,0,0:0:0:0:
109,192,60914,1,0,0:0:0:60:P_F5.wav
182,192,61030,1,0,0:0:0:60:P_C5.wav
475,192,61145,1,0,0:0:0:60:P_G#5.wav
329,192,61260,1,0,0:0:0:60:P_F5.wav
36,192,61376,128,0,61607:0:0:0:0:
475,192,61376,1,0,0:0:0:0:
182,192,61376,1,0,0:0:0:60:P_G6.wav
109,192,61491,1,0,0:0:0:60:P_C6.wav
329,192,61607,1,0,0:0:0:60:P_G#6.wav
182,192,61722,1,0,0:0:0:60:P_C#6.wav
36,192,61837,128,0,62068:0:0:0:0:
109,192,61837,1,0,0:0:0:0:
475,192,61837,1,0,0:0:0:60:P_A#6.wav
329,192,61953,1,0,0:0:0:60:P_D#6.wav
402,192,62068,1,0,0:0:0:60:P_G#6.wav
256,192,62184,1,0,0:0:0:60:P_C#6.wav
182,192,62299,128,0,62760:0:0:0:0:
329,192,62299,128,0,62760:0:0:0:0:
36,192,62299,1,0,0:0:0:0:
475,192,62299,1,0,0:0:0:0:
402,192,62299,1,0,0:0:0:60:P_G6.wav
36,192,62414,1,0,0:0:0:60:P_C6.wav
36,192,62530,1,0,0:0:0:0:
256,192,62530,1,0,0:0:0:60:P_D#6.wav
36,192,62645,1,0,0:0:0:60:P_G#5.wav
475,192,62760,5,0,0:0:0:60:P_D#5.wav
256,192,62760,128,0,65530:0:0:0:0:
402,192,62760,128,0,65530:0:0:0:0:
36,192,62760,128,0,62991:0:0:0:0:
182,192,62876,1,0,0:0:0:60:P_C5.wav
329,192,62991,1,0,0:0:0:60:P_C6.wav
109,192,63107,1,0,0:0:0:60:P_G5.wav
36,192,63222,128,0,63453:0:0:0:0:
475,192,63222,1,0,0:0:0:0:
182,192,63222,1,0,0:0:0:60:P_G6.wav
109,192,63337,1,0,0:0:0:60:P_C6.wav
329,192,63453,1,0,0:0:0:60:P_D#6.wav
182,192,63568,1,0,0:0:0:60:P_G5.wav
36,192,63684,128,0,63914:0:0:0:0:
109,192,63684,1,0,0:0:0:0:
475,192,63684,1,0,0:0:0:60:P_F6.wav
329,192,63799,1,0,0:0:0:60:P_A#5.wav
109,192,63914,1,0,0:0:0:60:P_C6.wav
182,192,64030,1,0,0:0:0:60:P_F5.wav
36,192,64145,128,0,64376:0:0:0:0:
109,192,64145,1,0,0:0:0:0:
475,192,64145,1,0,0:0:0:60:P_G#5.wav
329,192,64260,1,0,0:0:0:60:P_D#5.wav
109,192,64376,1,0,0:0:0:60:P_C6.wav
182,192,64491,1,0,0:0:0:60:P_G#5.wav
36,192,64607,128,0,64837:0:0:0:0:
475,192,64607,1,0,0:0:0:0:
329,192,64607,1,0,0:0:0:60:P_F5.wav
182,192,64722,1,0,0:0:0:60:P_C5.wav
475,192,64837,1,0,0:0:0:60:P_G#5.wav
329,192,64953,1,0,0:0:0:60:P_F5.wav
36,192,65068,128,0,65299:0:0:0:0:
475,192,65068,1,0,0:0:0:0:
182,192,65068,1,0,0:0:0:60:P_G6.wav
109,192,65184,1,0,0:0:0:60:P_C6.wav
329,192,65299,1,0,0:0:0:60:P_G#6.wav
182,192,65414,1,0,0:0:0:60:P_C#6.wav
36,192,65530,128,0,65760:0:0:0:0:
109,192,65530,128,0,65760:0:0:0:0:
475,192,65530,1,0,0:0:0:0:
329,192,65530,1,0,0:0:0:60:P_A#6.wav
256,192,65645,1,0,0:0:0:60:P_D#6.wav
182,192,65760,1,0,0:0:0:0:
402,192,65760,1,0,0:0:0:60:P_G#6.wav
329,192,65876,1,0,0:0:0:60:P_C#6.wav
109,192,65991,1,0,0:0:0:0:
402,192,65991,1,0,0:0:0:0:
256,192,65991,1,0,0:0:0:60:P_G6.wav
109,192,66107,1,0,0:0:0:0:
256,192,66107,1,0,0:0:0:0:
402,192,66107,1,0,0:0:0:60:P_C6.wav
256,192,66222,1,0,0:0:0:0:
402,192,66222,1,0,0:0:0:0:
109,192,66222,1,0,0:0:0:60:P_D#6.wav
109,192,66337,1,0,0:0:0:0:
402,192,66337,1,0,0:0:0:0:
256,192,66337,1,0,0:0:0:60:P_G#5.wav
256,192,66453,1,0,0:0:0:0:
475,192,66453,1,0,0:0:0:0:
402,192,66453,128,0,66684:0:0:0:0:
36,192,66453,128,0,66684:0:0:0:0:
109,192,66453,1,0,0:0:0:60:P_F5.wav
182,192,66568,1,0,0:0:0:60:P_D#5.wav
329,192,66684,128,0,66799:0:0:0:0:
256,192,66684,1,0,0:0:0:60:P_A#5.wav
109,192,66799,1,0,0:0:0:60:P_F#5.wav
475,192,66914,1,0,0:0:0:0:
36,192,66914,128,0,67145:0:0:0:0:
182,192,66914,1,0,0:0:0:0:
402,192,66914,1,0,0:0:0:60:P_G#6.wav
109,192,67030,1,0,0:0:0:60:P_C#6.wav
256,192,67145,128,0,68184:0:0:0:0:
329,192,67145,1,0,0:0:0:60:P_F#6.wav
182,192,67260,1,0,0:0:0:60:P_A#5.wav
36,192,67376,128,0,67607:0:0:0:0:
109,192,67376,1,0,0:0:0:0:
402,192,67376,1,0,0:0:0:60:P_F6.wav
329,192,67491,1,0,0:0:0:60:P_F#5.wav
475,192,67607,1,0,0:0:0:0:
182,192,67607,1,0,0:0:0:60:P_A#5.wav
329,192,67722,1,0,0:0:0:60:P_G#5.wav
402,192,67837,128,0,68068:0:0:0:0:
36,192,67837,128,0,68068:0:0:0:0:
475,192,67837,1,0,0:0:0:0:
109,192,67837,1,0,0:0:0:60:P_A#5.wav
182,192,67953,1,0,0:0:0:60:P_D#5.wav
329,192,68068,128,0,68184:0:0:0:0:
475,192,68068,1,0,0:0:0:60:P_C#6.wav
109,192,68184,1,0,0:0:0:60:P_G#5.wav
475,192,68299,1,0,0:0:0:0:
36,192,68299,128,0,68530:0:0:0:0:
182,192,68299,1,0,0:0:0:0:
329,192,68299,1,0,0:0:0:60:P_F#5.wav
109,192,68414,1,0,0:0:0:60:P_D#5.wav
256,192,68530,128,0,69337:0:0:0:0:
329,192,68530,1,0,0:0:0:60:P_C#6.wav
182,192,68645,1,0,0:0:0:60:P_F#5.wav
36,192,68760,128,0,68991:0:0:0:0:
109,192,68760,1,0,0:0:0:0:
475,192,68760,1,0,0:0:0:0:
329,192,68760,1,0,0:0:0:60:P_D#6.wav
402,192,68876,1,0,0:0:0:60:P_G#5.wav
475,192,68991,1,0,0:0:0:0:
182,192,68991,1,0,0:0:0:60:P_C#6.wav
329,192,69107,1,0,0:0:0:60:P_F#5.wav
36,192,69222,128,0,69453:0:0:0:0:
402,192,69222,1,0,0:0:0:0:
109,192,69222,1,0,0:0:0:60:P_C6.wav
182,192,69337,1,0,0:0:0:60:P_D#5.wav
109,192,69453,1,0,0:0:0:0:
329,192,69453,1,0,0:0:0:60:P_G#5.wav
256,192,69568,1,0,0:0:0:60:P_C#5.wav
329,192,69684,128,0,70145:0:0:0:0:
36,192,69684,1,0,0:0:0:0:
475,192,69684,1,0,0:0:0:0:
182,192,69684,1,0,0:0:0:60:P_F5.wav
36,192,69799,1,0,0:0:0:0:
402,192,69799,1,0,0:0:0:60:P_D#5.wav
36,192,69914,1,0,0:0:0:0:
475,192,69914,1,0,0:0:0:0:
256,192,69914,1,0,0:0:0:60:P_F5.wav
36,192,70030,1,0,0:0:0:0:
182,192,70030,1,0,0:0:0:60:P_D#5.wav
402,192,70145,128,0,70376:0:0:0:0:
109,192,70145,128,0,70376:0:0:0:0:
475,192,70145,1,0,0:0:0:0:
256,192,70145,1,0,0:0:0:60:P_F5.wav
329,192,70260,1,0,0:0:0:60:P_D#5.wav
256,192,70376,128,0,70491:0:0:0:0:
182,192,70376,1,0,0:0:0:60:P_A#5.wav
329,192,70491,1,0,0:0:0:60:P_F#5.wav
256,192,70607,1,0,0:0:0:0:
109,192,70607,128,0,70837:0:0:0:0:
36,192,70607,1,0,0:0:0:0:
475,192,70607,1,0,0:0:0:60:P_G#6.wav
182,192,70722,1,0,0:0:0:60:P_C#6.wav
402,192,70837,128,0,71530:0:0:0:0:
329,192,70837,1,0,0:0:0:60:P_F#6.wav
182,192,70953,1,0,0:0:0:60:P_A#5.wav
109,192,71068,128,0,71299:0:0:0:0:
475,192,71068,1,0,0:0:0:0:
256,192,71068,1,0,0:0:0:60:P_F6.wav
36,192,71184,1,0,0:0:0:60:P_F#5.wav
329,192,71299,1,0,0:0:0:0:
182,192,71299,1,0,0:0:0:60:P_A#5.wav
36,192,71414,1,0,0:0:0:60:P_G#5.wav
109,192,71530,128,0,71760:0:0:0:0:
475,192,71530,1,0,0:0:0:0:
256,192,71530,1,0,0:0:0:60:P_A#5.wav
182,192,71645,1,0,0:0:0:60:P_D#5.wav
329,192,71760,128,0,71876:0:0:0:0:
402,192,71760,1,0,0:0:0:60:P_C#6.wav
256,192,71876,1,0,0:0:0:60:P_G#5.wav
329,192,71991,1,0,0:0:0:0:
182,192,71991,128,0,72222:0:0:0:0:
475,192,71991,1,0,0:0:0:0:
109,192,71991,1,0,0:0:0:60:P_F#5.wav
36,192,72107,1,0,0:0:0:60:P_D#5.wav
475,192,72222,128,0,73145:0:0:0:0:
402,192,72222,1,0,0:0:0:0:
256,192,72222,1,0,0:0:0:60:P_C#6.wav
109,192,72337,1,0,0:0:0:60:P_F#5.wav
182,192,72453,128,0,72684:0:0:0:0:
36,192,72453,1,0,0:0:0:0:
329,192,72453,1,0,0:0:0:60:P_D#6.wav
256,192,72568,1,0,0:0:0:60:P_G#5.wav
402,192,72684,1,0,0:0:0:0:
109,192,72684,1,0,0:0:0:60:P_C#6.wav
182,192,72799,1,0,0:0:0:60:P_F#5.wav
256,192,72914,128,0,73145:0:0:0:0:
36,192,72914,128,0,73145:0:0:0:0:
109,192,72914,128,0,73145:0:0:0:0:
402,192,72914,1,0,0:0:0:0:
329,192,72914,1,0,0:0:0:60:P_C6.wav
182,192,73030,1,0,0:0:0:60:P_D#5.wav
329,192,73145,1,0,0:0:0:60:P_G#5.wav
109,192,73260,1,0,0:0:0:60:P_C#5.wav
475,192,73376,128,0,73607:0:0:0:0:
329,192,73376,128,0,73607:0:0:0:0:
182,192,73376,128,0,73607:0:0:0:0:
402,192,73376,1,0,0:0:0:0:
256,192,73376,1,0,0:0:0:60:P_F5.wav
36,192,73491,1,0,0:0:0:60:P_C5.wav
109,192,73607,1,0,0:0:0:60:P_G#5.wav
36,192,73722,1,0,0:0:0:60:P_C#5.wav
182,192,73837,5,0,0:0:0:60:P_D#5.wav
256,192,73837,128,0,76607:0:0:0:0:
109,192,73837,128,0,75568:0:0:0:0:
475,192,73837,1,0,0:0:0:0:
402,192,73837,128,0,76607:0:0:0:0:
329,192,73953,1,0,0:0:0:60:P_C5.wav
475,192,74068,1,0,0:0:0:0:
36,192,74068,1,0,0:0:0:60:P_C6.wav
475,192,74184,1,0,0:0:0:0:
182,192,74184,1,0,0:0:0:60:P_G5.wav
36,192,74299,1,0,0:0:0:0:
329,192,74299,1,0,0:0:0:60:P_G6.wav
182,192,74414,1,0,0:0:0:60:P_C6.wav
36,192,74530,1,0,0:0:0:0:
475,192,74530,1,0,0:0:0:60:P_D#6.wav
36,192,74645,1,0,0:0:0:0:
329,192,74645,1,0,0:0:0:60:P_G5.wav
475,192,74760,1,0,0:0:0:0:
182,192,74760,1,0,0:0:0:60:P_F6.wav
36,192,74876,1,0,0:0:0:60:P_A#5.wav
475,192,74991,1,0,0:0:0:0:
329,192,74991,1,0,0:0:0:60:P_C6.wav
475,192,75107,1,0,0:0:0:0:
182,192,75107,1,0,0:0:0:60:P_F5.wav
36,192,75222,1,0,0:0:0:0:
329,192,75222,1,0,0:0:0:60:P_G#5.wav
475,192,75337,1,0,0:0:0:60:P_D#5.wav
329,192,75453,1,0,0:0:0:0:
36,192,75453,1,0,0:0:0:60:P_C6.wav
329,192,75568,1,0,0:0:0:0:
182,192,75568,1,0,0:0:0:60:P_G#5.wav
109,192,75684,128,0,77068:0:0:0:0:
36,192,75684,1,0,0:0:0:0:
475,192,75684,1,0,0:0:0:60:P_F5.wav
329,192,75799,1,0,0:0:0:60:P_C5.wav
36,192,75914,1,0,0:0:0:0:
182,192,75914,1,0,0:0:0:60:P_G#5.wav
36,192,76030,1,0,0:0:0:0:
329,192,76030,1,0,0:0:0:60:P_F5.wav
475,192,76145,1,0,0:0:0:0:
182,192,76145,1,0,0:0:0:60:P_G6.wav
329,192,76260,1,0,0:0:0:60:P_C6.wav
475,192,76376,1,0,0:0:0:0:
36,192,76376,1,0,0:0:0:60:P_G#6.wav
475,192,76491,1,0,0:0:0:0:
182,192,76491,1,0,0:0:0:60:P_C#6.wav
36,192,76607,1,0,0:0:0:0:
329,192,76607,1,0,0:0:0:60:P_A#6.wav
475,192,76722,1,0,0:0:0:60:P_D#6.wav
182,192,76837,1,0,0:0:0:0:
256,192,76837,1,0,0:0:0:60:P_G#6.wav
329,192,76953,1,0,0:0:0:0:
402,192,76953,1,0,0:0:0:60:P_C#6.wav
182,192,77068,128,0,77530:0:0:0:0:
329,192,77068,128,0,77530:0:0:0:0:
36,192,77068,128,0,77530:0:0:0:0:
475,192,77068,1,0,0:0:0:0:
256,192,77068,1,0,0:0:0:60:P_G6.wav
109,192,77184,1,0,0:0:0:60:P_C6.wav
475,192,77299,1,0,0:0:0:0:
402,192,77299,1,0,0:0:0:60:P_D#6.wav
256,192,77414,1,0,0:0:0:60:P_G#5.wav
402,192,77530,128,0,78337:0:0:0:0:
256,192,77530,128,0,78337:0:0:0:0:
109,192,77530,128,0,78337:0:0:0:0:
475,192,77530,128,0,77645:0:0:0:60:P_D#5.wav
182,192,77645,128,0,77760:0:0:0:60:P_C5.wav
329,192,77760,128,0,77876:0:0:0:60:P_C6.wav
36,192,77876,128,0,77991:0:0:0:60:P_G5.wav
329,192,77991,1,0,0:0:0:0:
475,192,77991,128,0,78107:0:0:0:60:P_G6.wav
182,192,78107,128,0,78222:0:0:0:60:P_C6.wav
329,192,78222,128,0,78337:0:0:0:60:P_D#6.wav
182,192,78337,128,0,78453:0:0:0:60:P_G5.wav
256,192,78453,128,0,79260:0:0:0:0:
402,192,78453,128,0,79260:0:0:0:0:
109,192,78453,128,0,79260:0:0:0:0:
36,192,78453,128,0,78482:0:0:0:60:P_F5_s.wav
329,192,78568,128,0,78597:0:0:0:60:P_C5_s.wav
182,192,78684,128,0,78712:0:0:0:60:P_C6_s.wav
475,192,78799,128,0,78828:0:0:0:60:P_G5_s.wav
182,192,78914,1,0,0:0:0:0:
36,192,78914,128,0,78943:0:0:0:60:P_G6_s.wav
329,192,79030,128,0,79059:0:0:0:60:P_C6_s.wav
182,192,79145,128,0,79174:0:0:0:60:P_D#6_s.wav
329,192,79260,128,0,79289:0:0:0:60:P_G5_s.wav
256,192,79376,128,0,79722:0:0:0:0:
402,192,79376,128,0,79722:0:0:0:0:
109,192,79376,128,0,79722:0:0:0:0:
475,192,79376,1,0,0:0:0:0:
182,192,79376,128,0,79607:0:0:0:60:P_F5.wav
36,192,79491,128,0,79722:0:0:0:60:P_C5.wav
329,192,79607,128,0,79837:0:0:0:60:P_C6.wav
182,192,79722,128,0,79953:0:0:0:60:P_G5.wav
256,192,79837,128,0,80184:0:0:0:0:
402,192,79837,128,0,80184:0:0:0:0:
36,192,79837,128,0,80068:0:0:0:0:
109,192,79837,1,0,0:0:0:0:
475,192,79837,128,0,80299:0:0:0:60:P_G6.wav
329,192,79953,128,0,80184:0:0:0:60:P_C6.wav
182,192,80068,128,0,80414:0:0:0:60:P_D#6.wav
36,192,80184,128,0,80760:0:0:0:60:P_G5.wav
109,192,80299,128,0,80645:0:0:0:0:
402,192,80299,1,0,0:0:0:0:
256,192,80299,128,0,80760:0:0:0:0:
329,192,80299,128,0,80530:0:0:0:60:P_G6.wav
475,192,80414,128,0,80645:0:0:0:60:P_C6.wav
182,192,80530,128,0,80760:0:0:0:60:P_D#6.wav
329,192,80645,128,0,80760:0:0:0:60:P_G#5.wav
402,192,80760,1,0,0:0:0:0:
109,192,80760,1,0,0:0:0:0:
475,192,80760,1,0,0:0:0:60:P_D#6_s.wav
109,192,80876,1,0,0:0:0:0:
402,192,80876,1,0,0:0:0:0:
475,192,80876,1,0,0:0:0:60:P_D#6_s.wav
109,192,80991,1,0,0:0:0:0:
402,192,80991,1,0,0:0:0:0:
475,192,80991,1,0,0:0:0:60:P_D#6_s.wav
109,192,81107,1,0,0:0:0:0:
402,192,81107,1,0,0:0:0:0:
475,192,81107,1,0,0:0:0:60:P_D#6_s.wav
109,192,81222,1,0,0:0:0:0:
402,192,81222,1,0,0:0:0:0:
475,192,81222,1,0,0:0:0:0:
182,192,81222,128,0,83530:0:0:0:0:
36,192,81222,128,0,84914:0:0:0:0:
329,192,82145,1,0,0:0:0:0:
475,192,83068,1,0,0:0:0:0:
256,192,83530,128,0,83991:0:0:0:0:
329,192,83991,128,0,84453:0:0:0:0:
182,192,83991,1,0,0:0:0:0:
402,192,84453,128,0,84914:0:0:0:0:
475,192,84914,128,0,86760:0:0:0:0:
182,192,84914,128,0,88607:0:0:0:0:
256,192,84914,1,0,0:0:0:0:
36,192,85837,1,0,0:0:0:0:
402,192,86760,128,0,87684:0:0:0:0:
256,192,86760,1,0,0:0:0:0:
329,192,87684,128,0,88607:0:0:0:0:
36,192,87684,1,0,0:0:0:0:
256,192,88607,128,0,91837:0:0:0:0:
36,192,88607,128,0,92299:0:0:0:0:
475,192,88607,1,0,0:0:0:0:
402,192,89530,1,0,0:0:0:0:
475,192,90453,1,0,0:0:0:0:
402,192,91376,1,0,0:0:0:0:
182,192,91837,128,0,92299:0:0:0:0:
256,192,92299,128,0,95991:0:0:0:0:
402,192,92299,128,0,94145:0:0:0:0:
109,192,92299,1,0,0:0:0:0:
36,192,93222,1,0,0:0:0:0:
475,192,94145,128,0,95991:0:0:0:0:
109,192,94145,1,0,0:0:0:0:
36,192,95068,1,0,0:0:0:0:
182,192,95991,128,0,98299:0:0:0:0:
36,192,95991,128,0,99684:0:0:0:0:
109,192,95991,1,0,0:0:0:0:
329,192,95991,1,0,0:0:0:0:
256,192,96453,1,0,0:0:0:0:
475,192,96914,1,0,0:0:0:0:
109,192,96914,1,0,0:0:0:0:
402,192,97376,1,0,0:0:0:0:
329,192,97837,1,0,0:0:0:0:
475,192,97837,1,0,0:0:0:0:
256,192,98299,128,0,98760:0:0:0:0:
109,192,98299,1,0,0:0:0:0:
329,192,98760,128,0,99222:0:0:0:0:
182,192,98760,1,0,0:0:0:0:
475,192,98760,1,0,0:0:0:0:
402,192,99222,128,0,99684:0:0:0:0:
256,192,99222,1,0,0:0:0:0:
475,192,99684,128,0,101530:0:0:0:0:
182,192,99684,128,0,103376:0:0:0:0:
329,192,99684,1,0,0:0:0:0:
109,192,99684,1,0,0:0:0:0:
256,192,100145,1,0,0:0:0:0:
402,192,100607,1,0,0:0:0:0:
109,192,100607,1,0,0:0:0:0:
329,192,101068,1,0,0:0:0:0:
402,192,101530,128,0,102453:0:0:0:0:
256,192,101530,1,0,0:0:0:0:
36,192,101530,1,0,0:0:0:0:
109,192,101991,1,0,0:0:0:0:
329,192,102453,128,0,103376:0:0:0:0:
36,192,102453,1,0,0:0:0:0:
109,192,102914,1,0,0:0:0:0:
256,192,103376,128,0,106607:0:0:0:0:
36,192,103376,128,0,107068:0:0:0:0:
475,192,103376,1,0,0:0:0:0:
402,192,103376,1,0,0:0:0:0:
329,192,103837,1,0,0:0:0:0:
109,192,104299,1,0,0:0:0:0:
402,192,104299,1,0,0:0:0:0:
182,192,104760,1,0,0:0:0:0:
329,192,105222,1,0,0:0:0:0:
475,192,105222,1,0,0:0:0:0:
109,192,105684,1,0,0:0:0:0:
182,192,106145,1,0,0:0:0:0:
329,192,106145,1,0,0:0:0:0:
109,192,106607,128,0,107068:0:0:0:0:
402,192,106607,1,0,0:0:0:0:
182,192,107068,128,0,110645:0:0:0:0:
402,192,107068,128,0,108914:0:0:0:0:
329,192,107068,1,0,0:0:0:0:
475,192,107068,1,0,0:0:0:0:
256,192,107530,1,0,0:0:0:0:
109,192,107991,1,0,0:0:0:0:
36,192,107991,1,0,0:0:0:0:
256,192,108453,1,0,0:0:0:0:
475,192,108914,128,0,110760:0:0:0:0:
329,192,108914,1,0,0:0:0:0:
36,192,108914,1,0,0:0:0:0:
256,192,109376,1,0,0:0:0:0:
109,192,109837,1,0,0:0:0:0:
402,192,109837,1,0,0:0:0:0:
256,192,110299,1,0,0:0:0:0:
109,192,110760,5,0,0:0:0:60:P_F#5.wav
182,192,110760,128,0,113068:0:0:0:0:
36,192,110760,128,0,110991:0:0:0:0:
256,192,110760,1,0,0:0:0:0:
402,192,110760,1,0,0:0:0:0:
329,192,110876,1,0,0:0:0:60:P_D#5.wav
475,192,110991,1,0,0:0:0:0:
256,192,110991,1,0,0:0:0:60:P_A#5.wav
402,192,111107,1,0,0:0:0:60:P_F#5.wav
36,192,111222,128,0,111453:0:0:0:0:
329,192,111222,1,0,0:0:0:0:
475,192,111222,1,0,0:0:0:0:
109,192,111222,1,0,0:0:0:60:P_G#6.wav
402,192,111337,1,0,0:0:0:60:P_C#6.wav
475,192,111453,1,0,0:0:0:0:
256,192,111453,1,0,0:0:0:60:P_F#6.wav
329,192,111568,1,0,0:0:0:60:P_A#5.wav
36,192,111684,128,0,111914:0:0:0:0:
402,192,111684,1,0,0:0:0:0:
109,192,111684,1,0,0:0:0:60:P_F6.wav
256,192,111799,1,0,0:0:0:60:P_F#5.wav
109,192,111914,1,0,0:0:0:0:
329,192,111914,1,0,0:0:0:60:P_C#6.wav
402,192,112030,1,0,0:0:0:60:P_G#5.wav
36,192,112145,128,0,112376:0:0:0:0:
475,192,112145,1,0,0:0:0:0:
109,192,112145,1,0,0:0:0:0:
256,192,112145,1,0,0:0:0:60:P_A#5.wav
329,192,112260,1,0,0:0:0:60:P_D#5.wav
475,192,112376,1,0,0:0:0:0:
402,192,112376,1,0,0:0:0:60:P_C#6.wav
256,192,112491,1,0,0:0:0:60:P_G#5.wav
36,192,112607,128,0,112837:0:0:0:0:
329,192,112607,1,0,0:0:0:0:
109,192,112607,1,0,0:0:0:60:P_F#5.wav
256,192,112722,1,0,0:0:0:60:P_D#5.wav
109,192,112837,1,0,0:0:0:0:
402,192,112837,1,0,0:0:0:60:P_C#6.wav
329,192,112953,1,0,0:0:0:60:P_F#5.wav
256,192,113068,128,0,113530:0:0:0:0:
36,192,113068,128,0,113299:0:0:0:0:
109,192,113068,1,0,0:0:0:0:
475,192,113068,1,0,0:0:0:60:P_D#6.wav
402,192,113184,1,0,0:0:0:60:P_G#5.wav
329,192,113299,1,0,0:0:0:0:
109,192,113299,1,0,0:0:0:60:P_C#6.wav
182,192,113414,1,0,0:0:0:60:P_F#5.wav
329,192,113530,128,0,113991:0:0:0:0:
36,192,113530,128,0,113760:0:0:0:0:
109,192,113530,1,0,0:0:0:0:
475,192,113530,1,0,0:0:0:60:P_C6.wav
402,192,113645,1,0,0:0:0:60:P_D#5.wav
475,192,113760,1,0,0:0:0:0:
182,192,113760,1,0,0:0:0:60:P_G#5.wav
256,192,113876,1,0,0:0:0:60:P_C#5.wav
402,192,113991,128,0,114453:0:0:0:0:
36,192,113991,1,0,0:0:0:0:
475,192,113991,1,0,0:0:0:0:
109,192,113991,1,0,0:0:0:60:P_F5.wav
36,192,114107,1,0,0:0:0:0:
182,192,114107,1,0,0:0:0:60:P_D#5.wav
36,192,114222,1,0,0:0:0:0:
475,192,114222,1,0,0:0:0:0:
329,192,114222,1,0,0:0:0:60:P_C#5.wav
36,192,114337,1,0,0:0:0:0:
256,192,114337,1,0,0:0:0:60:P_D#5.wav
475,192,114453,128,0,116299:0:0:0:0:
182,192,114453,128,0,114684:0:0:0:0:
109,192,114453,1,0,0:0:0:0:
329,192,114453,1,0,0:0:0:60:P_F#5.wav
402,192,114568,1,0,0:0:0:60:P_D#5.wav
36,192,114684,1,0,0:0:0:0:
256,192,114684,1,0,0:0:0:60:P_A#5.wav
329,192,114799,1,0,0:0:0:60:P_F#5.wav
182,192,114914,128,0,115145:0:0:0:0:
256,192,114914,1,0,0:0:0:0:
402,192,114914,1,0,0:0:0:0:
109,192,114914,1,0,0:0:0:60:P_G#6.wav
36,192,115030,1,0,0:0:0:60:P_C#6.wav
329,192,115145,1,0,0:0:0:0:
256,192,115145,1,0,0:0:0:60:P_F#6.wav
109,192,115260,1,0,0:0:0:60:P_A#5.wav
182,192,115376,128,0,115607:0:0:0:0:
402,192,115376,1,0,0:0:0:0:
329,192,115376,1,0,0:0:0:60:P_F6.wav
256,192,115491,1,0,0:0:0:60:P_F#5.wav
36,192,115607,1,0,0:0:0:0:
402,192,115607,1,0,0:0:0:60:P_C#6.wav
329,192,115722,1,0,0:0:0:60:P_G#5.wav
182,192,115837,128,0,116068:0:0:0:0:
256,192,115837,1,0,0:0:0:0:
109,192,115837,1,0,0:0:0:0:
402,192,115837,1,0,0:0:0:60:P_A#5.wav
329,192,115953,1,0,0:0:0:60:P_D#5.wav
36,192,116068,1,0,0:0:0:0:
402,192,116068,1,0,0:0:0:60:P_C#6.wav
256,192,116184,1,0,0:0:0:60:P_G#5.wav
402,192,116299,128,0,117222:0:0:0:0:
182,192,116299,128,0,116530:0:0:0:0:
329,192,116299,1,0,0:0:0:0:
109,192,116299,1,0,0:0:0:60:P_F#5.wav
36,192,116414,1,0,0:0:0:60:P_D#5.wav
475,192,116530,1,0,0:0:0:0:
256,192,116530,1,0,0:0:0:60:P_C#6.wav
109,192,116645,1,0,0:0:0:60:P_F#5.wav
182,192,116760,128,0,116991:0:0:0:0:
36,192,116760,1,0,0:0:0:0:
475,192,116760,1,0,0:0:0:0:
329,192,116760,1,0,0:0:0:60:P_D#6.wav
256,192,116876,1,0,0:0:0:60:P_G#5.wav
475,192,116991,1,0,0:0:0:0:
109,192,116991,1,0,0:0:0:60:P_C#6.wav
256,192,117107,1,0,0:0:0:60:P_F#5.wav
329,192,117222,128,0,118145:0:0:0:0:
182,192,117222,128,0,117453:0:0:0:0:
36,192,117222,1,0,0:0:0:60:P_C6.wav
256,192,117337,1,0,0:0:0:60:P_D#5.wav
402,192,117453,1,0,0:0:0:0:
36,192,117453,1,0,0:0:0:60:P_G#5.wav
109,192,117568,1,0,0:0:0:60:P_C#5.wav
182,192,117684,128,0,117914:0:0:0:0:
36,192,117684,1,0,0:0:0:0:
475,192,117684,1,0,0:0:0:0:
256,192,117684,1,0,0:0:0:60:P_F5.wav
402,192,117799,1,0,0:0:0:60:P_D#5.wav
109,192,117914,1,0,0:0:0:0:
256,192,117914,1,0,0:0:0:60:P_F5.wav
182,192,118030,1,0,0:0:0:60:P_G#5.wav
475,192,118145,5,0,0:0:0:60:P_F5.wav
256,192,118145,128,0,121376:0:0:0:0:
36,192,118145,128,0,118376:0:0:0:0:
109,192,118145,1,0,0:0:0:0:
329,192,118260,1,0,0:0:0:60:P_C5.wav
402,192,118376,1,0,0:0:0:0:
182,192,118376,1,0,0:0:0:60:P_C6.wav
329,192,118491,1,0,0:0:0:60:P_G5.wav
36,192,118607,128,0,118837:0:0:0:0:
475,192,118607,1,0,0:0:0:0:
109,192,118607,1,0,0:0:0:0:
182,192,118607,1,0,0:0:0:60:P_G6.wav
329,192,118722,1,0,0:0:0:60:P_C6.wav
402,192,118837,1,0,0:0:0:0:
109,192,118837,1,0,0:0:0:60:P_D#6.wav
182,192,118953,1,0,0:0:0:60:P_G5.wav
36,192,119068,128,0,119299:0:0:0:0:
475,192,119068,1,0,0:0:0:0:
329,192,119068,1,0,0:0:0:60:P_F6.wav
182,192,119184,1,0,0:0:0:60:P_A#5.wav
475,192,119299,1,0,0:0:0:0:
402,192,119299,1,0,0:0:0:60:P_C6.wav
329,192,119414,1,0,0:0:0:60:P_F5.wav
36,192,119530,128,0,119760:0:0:0:0:
109,192,119530,1,0,0:0:0:0:
182,192,119530,1,0,0:0:0:0:
475,192,119530,1,0,0:0:0:60:P_G#5.wav
402,192,119645,1,0,0:0:0:60:P_D#5.wav
475,192,119760,1,0,0:0:0:0:
109,192,119760,1,0,0:0:0:60:P_C6.wav
182,192,119876,1,0,0:0:0:60:P_G#5.wav
36,192,119991,128,0,120222:0:0:0:0:
402,192,119991,1,0,0:0:0:0:
329,192,119991,1,0,0:0:0:60:P_F5.wav
109,192,120107,1,0,0:0:0:60:P_C5.wav
475,192,120222,1,0,0:0:0:0:
402,192,120222,1,0,0:0:0:60:P_G#5.wav
182,192,120337,1,0,0:0:0:60:P_F5.wav
36,192,120453,128,0,120684:0:0:0:0:
109,192,120453,1,0,0:0:0:0:
402,192,120453,1,0,0:0:0:0:
475,192,120453,1,0,0:0:0:60:P_G6.wav
329,192,120568,1,0,0:0:0:60:P_C6.wav
182,192,120684,1,0,0:0:0:0:
475,192,120684,1,0,0:0:0:60:P_G#6.wav
402,192,120799,1,0,0:0:0:60:P_C#6.wav
36,192,120914,128,0,121145:0:0:0:0:
109,192,120914,1,0,0:0:0:0:
475,192,120914,1,0,0:0:0:60:P_A#6.wav
329,192,121030,1,0,0:0:0:60:P_D#6.wav
182,192,121145,1,0,0:0:0:0:
402,192,121145,1,0,0:0:0:60:P_G#6.wav
329,192,121260,1,0,0:0:0:60:P_C#6.wav
182,192,121376,128,0,121837:0:0:0:0:
36,192,121376,1,0,0:0:0:0:
109,192,121376,1,0,0:0:0:0:
475,192,121376,1,0,0:0:0:60:P_G6.wav
36,192,121491,1,0,0:0:0:0:
329,192,121491,1,0,0:0:0:60:P_C6.wav
36,192,121607,1,0,0:0:0:0:
402,192,121607,1,0,0:0:0:0:
256,192,121607,1,0,0:0:0:60:P_D#6.wav
36,192,121722,1,0,0:0:0:0:
329,192,121722,1,0,0:0:0:60:P_C6.wav
256,192,121837,128,0,125068:0:0:0:0:
109,192,121837,128,0,122068:0:0:0:0:
402,192,121837,1,0,0:0:0:0:
475,192,121837,128,0,121953:0:0:0:60:P_A#5.wav
329,192,121953,128,0,122068:0:0:0:60:P_C#5.wav
475,192,122068,1,0,0:0:0:0:
36,192,122068,128,0,122184:0:0:0:60:P_C#6.wav
182,192,122184,128,0,122299:0:0:0:60:P_A#5.wav
109,192,122299,128,0,122530:0:0:0:0:
36,192,122299,1,0,0:0:0:0:
402,192,122299,1,0,0:0:0:0:
475,192,122299,128,0,122414:0:0:0:60:P_G#6.wav
329,192,122414,128,0,122530:0:0:0:60:P_C#6.wav
475,192,122530,1,0,0:0:0:0:
402,192,122530,128,0,122645:0:0:0:60:P_F#6.wav
182,192,122645,128,0,122760:0:0:0:60:P_F5.wav
109,192,122760,128,0,122991:0:0:0:0:
36,192,122760,1,0,0:0:0:0:
475,192,122760,128,0,122789:0:0:0:60:P_A#5.wav
329,192,122876,128,0,122905:0:0:0:60:P_C#5.wav
475,192,122991,1,0,0:0:0:0:
36,192,122991,128,0,123020:0:0:0:60:P_C#6.wav
182,192,123107,128,0,123135:0:0:0:60:P_A#5.wav
109,192,123222,128,0,123453:0:0:0:0:
36,192,123222,1,0,0:0:0:0:
402,192,123222,1,0,0:0:0:0:
475,192,123222,128,0,123251:0:0:0:60:P_G#6.wav
329,192,123337,128,0,123366:0:0:0:60:P_C#6.wav
475,192,123453,1,0,0:0:0:0:
402,192,123453,128,0,123482:0:0:0:60:P_F#6.wav
182,192,123568,128,0,123597:0:0:0:60:P_A#5.wav
109,192,123684,128,0,123914:0:0:0:0:
402,192,123684,1,0,0:0:0:0:
36,192,123684,128,0,123914:0:0:0:60:P_D#5.wav
182,192,123799,128,0,124030:0:0:0:60:P_C5.wav
329,192,123914,1,0,0:0:0:0:
475,192,123914,128,0,124145:0:0:0:60:P_C6.wav
402,192,124030,128,0,124260:0:0:0:60:P_G#5.wav
36,192,124145,128,0,124376:0:0:0:0:
109,192,124145,1,0,0:0:0:0:
182,192,124145,128,0,124376:0:0:0:60:P_G#6.wav
329,192,124260,128,0,124491:0:0:0:60:P_C6.wav
402,192,124376,1,0,0:0:0:0:
109,192,124376,128,0,124607:0:0:0:60:P_D#6.wav
182,192,124491,128,0,124722:0:0:0:60:P_G#5.wav
36,192,124607,128,0,124837:0:0:0:0:
475,192,124607,1,0,0:0:0:0:
329,192,124607,128,0,124837:0:0:0:60:P_D#5.wav
402,192,124722,128,0,124953:0:0:0:60:P_C5.wav
109,192,124837,1,0,0:0:0:0:
182,192,124837,128,0,125068:0:0:0:60:P_G#5.wav
329,192,124953,128,0,125068:0:0:0:60:P_D#5.wav
109,192,125068,1,0,0:0:0:0:
402,192,125068,1,0,0:0:0:0:
475,192,125068,1,0,0:0:0:60:P_D#6_s.wav
109,192,125184,1,0,0:0:0:0:
402,192,125184,1,0,0:0:0:0:
475,192,125184,1,0,0:0:0:60:P_D#6_s.wav
109,192,125299,1,0,0:0:0:0:
402,192,125299,1,0,0:0:0:0:
475,192,125299,1,0,0:0:0:60:P_D#6_s.wav
109,192,125414,1,0,0:0:0:0:
402,192,125414,1,0,0:0:0:0:
475,192,125414,1,0,0:0:0:60:P_D#6_s.wav
109,192,125530,1,0,0:0:0:0:
256,192,125530,1,0,0:0:0:0:
475,192,125530,1,0,0:0:0:0:
402,192,125530,128,0,125760:0:0:0:0:
36,192,125530,128,0,125760:0:0:0:0:
182,192,125645,1,0,0:0:0:0:
329,192,125760,128,0,125876:0:0:0:0:
109,192,125760,1,0,0:0:0:0:
256,192,125876,1,0,0:0:0:0:
475,192,125991,1,0,0:0:0:0:
36,192,125991,128,0,126222:0:0:0:0:
182,192,125991,1,0,0:0:0:0:
109,192,125991,1,0,0:0:0:0:
329,192,126107,1,0,0:0:0:0:
256,192,126222,128,0,127260:0:0:0:0:
402,192,126222,1,0,0:0:0:0:
182,192,126337,1,0,0:0:0:0:
36,192,126453,128,0,126684:0:0:0:0:
475,192,126453,1,0,0:0:0:0:
329,192,126453,1,0,0:0:0:0:
109,192,126568,1,0,0:0:0:0:
182,192,126684,1,0,0:0:0:0:
402,192,126684,1,0,0:0:0:0:
109,192,126799,1,0,0:0:0:0:
402,192,126914,128,0,127145:0:0:0:0:
36,192,126914,128,0,127145:0:0:0:0:
329,192,126914,1,0,0:0:0:0:
475,192,126914,1,0,0:0:0:0:
182,192,127030,1,0,0:0:0:0:
329,192,127145,128,0,127260:0:0:0:0:
109,192,127145,1,0,0:0:0:0:
182,192,127260,1,0,0:0:0:0:
475,192,127376,1,0,0:0:0:0:
36,192,127376,128,0,127607:0:0:0:0:
256,192,127376,1,0,0:0:0:0:
329,192,127376,1,0,0:0:0:0:
109,192,127491,1,0,0:0:0:0:
256,192,127607,128,0,128414:0:0:0:0:
402,192,127607,1,0,0:0:0:0:
182,192,127722,1,0,0:0:0:0:
36,192,127837,128,0,128068:0:0:0:0:
329,192,127837,1,0,0:0:0:0:
109,192,127837,1,0,0:0:0:0:
475,192,127837,1,0,0:0:0:0:
402,192,127953,1,0,0:0:0:0:
182,192,128068,1,0,0:0:0:0:
475,192,128068,1,0,0:0:0:0:
329,192,128184,1,0,0:0:0:0:
36,192,128299,128,0,128530:0:0:0:0:
109,192,128299,1,0,0:0:0:0:
402,192,128299,1,0,0:0:0:0:
182,192,128414,1,0,0:0:0:0:
109,192,128530,1,0,0:0:0:0:
329,192,128530,1,0,0:0:0:0:
256,192,128645,1,0,0:0:0:0:
329,192,128760,128,0,129222:0:0:0:0:
36,192,128760,1,0,0:0:0:0:
475,192,128760,1,0,0:0:0:0:
182,192,128760,1,0,0:0:0:0:
36,192,128876,1,0,0:0:0:0:
402,192,128876,1,0,0:0:0:0:
36,192,128991,1,0,0:0:0:0:
182,192,128991,1,0,0:0:0:0:
109,192,128991,1,0,0:0:0:0:
36,192,129107,1,0,0:0:0:0:
256,192,129107,1,0,0:0:0:0:
402,192,129222,128,0,129453:0:0:0:0:
109,192,129222,128,0,129453:0:0:0:0:
182,192,129222,1,0,0:0:0:0:
475,192,129222,1,0,0:0:0:0:
329,192,129337,1,0,0:0:0:0:
256,192,129453,128,0,129568:0:0:0:0:
36,192,129453,1,0,0:0:0:0:
182,192,129568,1,0,0:0:0:0:
402,192,129684,1,0,0:0:0:0:
109,192,129684,128,0,129914:0:0:0:0:
256,192,129684,1,0,0:0:0:0:
475,192,129684,1,0,0:0:0:0:
329,192,129799,1,0,0:0:0:0:
402,192,129914,128,0,130607:0:0:0:0:
182,192,129914,1,0,0:0:0:0:
36,192,129914,1,0,0:0:0:0:
256,192,130030,1,0,0:0:0:0:
109,192,130145,128,0,130376:0:0:0:0:
36,192,130145,1,0,0:0:0:0:
329,192,130145,1,0,0:0:0:0:
182,192,130260,1,0,0:0:0:0:
256,192,130376,1,0,0:0:0:0:
475,192,130376,1,0,0:0:0:0:
182,192,130491,1,0,0:0:0:0:
256,192,130607,128,0,130837:0:0:0:0:
109,192,130607,128,0,130837:0:0:0:0:
36,192,130607,1,0,0:0:0:0:
329,192,130607,1,0,0:0:0:0:
182,192,130722,1,0,0:0:0:0:
329,192,130837,128,0,130953:0:0:0:0:
402,192,130837,1,0,0:0:0:0:
256,192,130953,1,0,0:0:0:0:
475,192,131068,1,0,0:0:0:0:
109,192,131068,128,0,131299:0:0:0:0:
182,192,131068,1,0,0:0:0:0:
36,192,131068,1,0,0:0:0:0:
329,192,131184,1,0,0:0:0:0:
475,192,131299,128,0,131991:0:0:0:0:
256,192,131299,1,0,0:0:0:0:
402,192,131299,1,0,0:0:0:0:
329,192,131414,1,0,0:0:0:0:
109,192,131530,128,0,131760:0:0:0:0:
36,192,131530,1,0,0:0:0:0:
182,192,131530,1,0,0:0:0:0:
402,192,131530,1,0,0:0:0:0:
256,192,131645,1,0,0:0:0:0:
36,192,131760,1,0,0:0:0:0:
329,192,131760,1,0,0:0:0:0:
182,192,131876,1,0,0:0:0:0:
329,192,131991,128,0,132222:0:0:0:0:
109,192,131991,128,0,132222:0:0:0:0:
36,192,131991,128,0,132222:0:0:0:0:
256,192,131991,1,0,0:0:0:0:
182,192,132222,1,0,0:0:0:0:
475,192,132453,128,0,132684:0:0:0:0:
256,192,132453,128,0,132684:0:0:0:0:
182,192,132453,128,0,132684:0:0:0:0:
109,192,132453,1,0,0:0:0:0:
402,192,132453,1,0,0:0:0:0:
36,192,132684,1,0,0:0:0:0:
402,192,132914,128,0,136145:0:0:0:0:
329,192,132914,128,0,135684:0:0:0:0:
109,192,132914,128,0,134645:0:0:0:0:
109,192,134760,128,0,138914:0:0:0:0:
256,192,136145,128,0,136607:0:0:0:0:
402,192,136607,128,0,140299:0:0:0:0:
36,192,138914,128,0,139376:0:0:0:0:
109,192,139376,128,0,139837:0:0:0:0:
182,192,139837,128,0,140299:0:0:0:0:
