osu file format v14

[General]
AudioFilename: audio.mp3
AudioLeadIn: 0
PreviewTime: -1
Countdown: 1
SampleSet: Normal
StackLeniency: 0.7
Mode: 0
LetterboxInBreaks: 0
WidescreenStoryboard: 0

[Editor]
DistanceSpacing: 1
BeatDivisor: 2
GridSize: 4
TimelineZoom: 1

[Metadata]
Title:ASGORE
TitleUnicode:Bergentrückung/ASGORE
Artist:Toby Fox
ArtistUnicode:Toby Fox
Creator:AthenaPvP
Version:Hard
Source:Undertale
Tags:Video Game
BeatmapID:1300035
BeatmapSetID:616425

[Difficulty]
HPDrainRate:5
CircleSize:4.5
OverallDifficulty:6
ApproachRate:6
SliderMultiplier:1.4
SliderTickRate:1

[Events]
//Background and Video events
0,0,"Asgorebattle.png",0,0
Video,0,"My_Movie.avi"
//Break Periods
2,16348,32017
2,117638,123963
//Storyboard Layer 0 (Background)
//Storyboard Layer 1 (Fail)
//Storyboard Layer 2 (Pass)
//Storyboard Layer 3 (Foreground)
//Storyboard Sound Samples

[TimingPoints]
219,530.973451327434,4,1,0,45,1,0
2077,-100,4,1,0,5,0,0
2342,-100,4,1,0,45,0,0
4201,-100,4,1,0,5,0,0
4466,-100,4,1,0,45,0,0
6325,-100,4,1,0,5,0,0
6590,-100,4,1,0,45,0,0
8449,-100,4,1,0,5,0,0
8714,-100,4,1,0,45,0,0
10572,-100,4,1,0,5,0,0
10838,-100,4,1,0,45,0,0
12431,-100,4,1,0,5,0,0
12962,-100,4,1,0,45,0,0
33067,261.210274270788,4,1,0,45,1,0
33067,-200,4,1,0,45,0,0

[HitObjects]
36,32,219,5,0,0:0:0:0:
80,164,749,1,0,0:0:0:0:
220,160,1280,2,0,B|224:300|224:300|160:332,1,210
92,312,2342,5,0,0:0:0:0:
92,172,2873,1,0,0:0:0:0:
180,64,3404,2,0,B|320:72|320:72|320:144,1,210
320,212,4466,5,0,0:0:0:0:
184,252,4997,1,0,0:0:0:0:
136,120,5528,2,0,B|276:133|276:133|280:208,1,210
284,272,6590,5,0,0:0:0:0:
360,156,7121,1,0,0:0:0:0:
248,72,7652,2,0,B|112:108|112:108|112:192,1,210
112,248,8714,5,0,0:0:0:0:
244,288,9245,1,0,0:0:0:0:
328,176,9776,2,0,B|264:52|264:52|192:72,1,210
128,80,10838,5,0,0:0:0:0:
96,216,11369,1,0,0:0:0:0:
232,188,11900,2,0,L|272:336,1,140
132,348,12962,6,0,L|56:348,1,70
64,276,13493,2,0,L|64:200,1,70
100,148,14024,2,0,P|168:132|212:196,1,140
308,280,15086,5,0,0:0:0:0:
344,272,15219,1,0,0:0:0:0:
368,244,15351,1,0,0:0:0:0:
392,180,15617,2,0,L|352:116,1,70
312,64,16148,1,0,0:0:0:0:
80,48,33067,6,0,L|156:48,1,70
220,48,33589,2,0,L|264:116,1,70
292,168,34111,5,0,0:0:0:0:
300,204,34242,1,0,0:0:0:0:
308,236,34373,1,0,0:0:0:0:
280,256,34503,1,0,0:0:0:0:
244,256,34634,1,0,0:0:0:0:
192,220,34895,6,0,L|116:232,1,70
60,264,35417,1,0,0:0:0:0:
48,232,35548,1,0,0:0:0:0:
48,196,35679,1,0,0:0:0:0:
100,152,35940,2,0,L|172:112,1,70
196,180,36462,1,0,0:0:0:0:
208,248,36723,2,0,L|284:240,1,70
320,184,37246,5,0,0:0:0:0:
320,184,37507,1,0,0:0:0:0:
316,116,37768,1,0,0:0:0:0:
316,116,38029,1,0,0:0:0:0:
368,68,38291,1,0,0:0:0:0:
396,88,38421,1,0,0:0:0:0:
416,116,38552,1,0,0:0:0:0:
424,152,38683,1,0,0:0:0:0:
416,184,38813,1,0,0:0:0:0:
360,228,39074,6,0,L|280:240,1,70
220,248,39597,1,0,0:0:0:0:
196,224,39727,1,0,0:0:0:0:
200,188,39858,1,0,0:0:0:0:
200,120,40119,2,0,L|272:100,1,70
332,76,40642,1,0,0:0:0:0:
372,136,40903,1,0,0:0:0:0:
400,72,41164,1,0,0:0:0:0:
332,76,41425,5,0,0:0:0:0:
460,312,41948,1,0,0:0:0:0:
324,280,42470,1,0,0:0:0:0:
300,256,42601,1,0,0:0:0:0:
284,224,42731,1,0,0:0:0:0:
272,192,42862,1,0,0:0:0:0:
260,160,42992,1,0,0:0:0:0:
260,88,43254,6,0,L|332:92,1,70
348,160,43776,1,0,0:0:0:0:
348,196,43907,1,0,0:0:0:0:
348,232,44037,1,0,0:0:0:0:
344,304,44299,2,0,L|264:304,1,70
204,308,44821,1,0,0:0:0:0:
144,272,45082,1,0,0:0:0:0:
104,212,45343,2,0,L|68:144,1,70
80,44,45996,5,0,0:0:0:0:
256,192,46388,1,0,0:0:0:0:
256,192,46649,12,0,49262,0:0:0:0:
96,64,49784,5,0,0:0:0:0:
236,64,50306,1,0,0:0:0:0:
140,168,50828,1,0,0:0:0:0:
164,196,50959,1,0,0:0:0:0:
196,212,51090,1,0,0:0:0:0:
228,224,51220,1,0,0:0:0:0:
264,232,51351,1,0,0:0:0:0:
332,220,51612,6,0,L|400:188,1,70
404,120,52135,1,0,0:0:0:0:
388,88,52265,1,0,0:0:0:0:
360,64,52396,1,0,0:0:0:0:
292,64,52657,2,0,L|228:112,1,70
192,160,53179,1,0,0:0:0:0:
172,228,53440,2,0,L|96:224,1,70
64,164,53963,5,0,0:0:0:0:
140,48,54485,1,0,0:0:0:0:
280,40,55008,1,0,0:0:0:0:
308,64,55138,1,0,0:0:0:0:
316,100,55269,1,0,0:0:0:0:
312,136,55400,1,0,0:0:0:0:
288,160,55530,1,0,0:0:0:0:
240,208,55791,6,0,L|160:200,1,70
100,192,56314,1,0,0:0:0:0:
80,164,56444,1,0,0:0:0:0:
84,128,56575,1,0,0:0:0:0:
140,84,56836,2,0,L|212:64,1,70
276,80,57359,1,0,0:0:0:0:
320,136,57620,1,0,0:0:0:0:
268,184,57881,1,0,0:0:0:0:
220,136,58142,5,0,0:0:0:0:
460,312,58665,1,0,0:0:0:0:
416,180,59187,1,0,0:0:0:0:
392,156,59318,1,0,0:0:0:0:
368,132,59448,1,0,0:0:0:0:
336,116,59579,1,0,0:0:0:0:
300,112,59709,1,0,0:0:0:0:
228,116,59971,6,0,L|184:188,1,70
136,220,60493,1,0,0:0:0:0:
112,196,60624,1,0,0:0:0:0:
104,164,60754,1,0,0:0:0:0:
108,92,61016,2,0,L|176:60,1,70
240,44,61538,1,0,0:0:0:0:
300,80,61799,1,0,0:0:0:0:
328,144,62060,2,0,L|364:208,1,70
300,292,62713,5,0,0:0:0:0:
264,192,63105,1,0,0:0:0:0:
256,192,63367,12,0,65979,0:0:0:0:
184,104,66501,5,0,0:0:0:0:
304,176,67024,1,0,0:0:0:0:
168,208,67546,6,0,L|136:236,4,35
240,132,68460,1,0,0:0:0:0:
296,176,68722,2,0,L|332:200,2,35
272,152,69114,1,0,0:0:0:0:
160,236,69636,6,0,L|128:224,4,35
256,280,70550,1,0,0:0:0:0:
212,332,70812,2,0,L|176:364,2,35
236,308,71204,1,0,0:0:0:0:
320,196,71726,6,0,L|340:160,4,35
400,264,72640,1,0,0:0:0:0:
332,276,72902,2,0,L|292:284,2,35
344,244,73294,1,0,0:0:0:0:
284,116,73815,6,0,P|236:92|196:120,1,105
160,216,74599,1,0,0:0:0:0:
136,280,74860,1,0,0:0:0:0:
160,304,74991,1,0,0:0:0:0:
228,320,75252,1,0,0:0:0:0:
316,280,75644,1,0,0:0:0:0:
368,328,75905,6,0,L|396:356,4,35
292,256,76819,1,0,0:0:0:0:
292,184,77081,2,0,L|292:140,2,35
292,184,77473,1,0,0:0:0:0:
292,256,77734,1,0,0:0:0:0:
228,224,77995,6,0,L|196:200,4,35
304,296,78909,1,0,0:0:0:0:
356,248,79171,2,0,L|380:212,2,35
356,248,79563,1,0,0:0:0:0:
300,292,79824,1,0,0:0:0:0:
248,244,80085,6,0,L|220:212,4,35
304,156,80999,1,0,0:0:0:0:
356,204,81261,2,0,L|388:232,2,35
356,204,81653,1,0,0:0:0:0:
304,156,81914,1,0,0:0:0:0:
240,124,82174,6,0,P|192:100|152:128,1,105
116,224,82958,1,0,0:0:0:0:
164,276,83219,1,0,0:0:0:0:
192,256,83350,1,0,0:0:0:0:
240,208,83611,1,0,0:0:0:0:
316,136,84003,1,0,0:0:0:0:
280,76,84264,5,0,0:0:0:0:
248,60,84394,1,0,0:0:0:0:
240,96,84525,1,0,0:0:0:0:
208,80,84656,1,0,0:0:0:0:
200,112,84786,1,0,0:0:0:0:
116,176,85178,6,0,L|168:228,1,70
196,244,85570,1,0,0:0:0:0:
228,256,85700,1,0,0:0:0:0:
260,240,85831,1,0,0:0:0:0:
236,104,86353,5,0,0:0:0:0:
260,80,86483,1,0,0:0:0:0:
280,108,86614,1,0,0:0:0:0:
300,80,86745,1,0,0:0:0:0:
320,108,86875,1,0,0:0:0:0:
420,132,87267,6,0,L|404:208,1,70
376,220,87659,1,0,0:0:0:0:
340,220,87789,1,0,0:0:0:0:
304,220,87920,1,0,0:0:0:0:
164,224,88443,5,0,0:0:0:0:
196,208,88573,1,0,0:0:0:0:
168,188,88704,1,0,0:0:0:0:
200,172,88835,1,0,0:0:0:0:
172,152,88965,1,0,0:0:0:0:
192,48,89357,6,0,L|264:60,1,70
296,68,89749,1,0,0:0:0:0:
328,80,89879,1,0,0:0:0:0:
360,96,90010,1,0,0:0:0:0:
340,236,90533,5,0,0:0:0:0:
244,276,90925,2,0,P|212:304|172:260,1,105
164,200,91578,1,0,0:0:0:0:
176,168,91708,1,0,0:0:0:0:
240,196,91969,1,0,0:0:0:0:
324,136,92361,1,0,0:0:0:0:
280,80,92622,5,0,0:0:0:0:
252,60,92752,1,0,0:0:0:0:
244,92,92883,1,0,0:0:0:0:
220,68,93014,1,0,0:0:0:0:
208,100,93144,1,0,0:0:0:0:
112,144,93536,6,0,L|108:224,1,70
144,224,93928,1,0,0:0:0:0:
180,232,94058,1,0,0:0:0:0:
216,240,94189,1,0,0:0:0:0:
236,100,94711,5,0,0:0:0:0:
260,72,94841,1,0,0:0:0:0:
276,104,94972,1,0,0:0:0:0:
296,76,95103,1,0,0:0:0:0:
308,108,95233,1,0,0:0:0:0:
412,128,95625,6,0,L|408:204,1,70
376,212,96017,1,0,0:0:0:0:
344,224,96147,1,0,0:0:0:0:
308,228,96278,1,0,0:0:0:0:
168,224,96801,5,0,0:0:0:0:
196,204,96931,1,0,0:0:0:0:
164,188,97062,1,0,0:0:0:0:
196,172,97193,1,0,0:0:0:0:
168,152,97323,1,0,0:0:0:0:
176,48,97715,6,0,L|248:48,1,70
280,48,98107,1,0,0:0:0:0:
316,48,98237,1,0,0:0:0:0:
352,52,98368,1,0,0:0:0:0:
344,192,98891,5,0,0:0:0:0:
264,260,99283,2,0,P|220:296|200:264,1,105
164,208,99936,1,0,0:0:0:0:
172,176,100066,1,0,0:0:0:0:
104,184,100327,1,0,0:0:0:0:
136,84,100719,1,0,0:0:0:0:
208,84,100981,6,0,L|248:84,4,35
276,164,101895,1,0,0:0:0:0:
340,136,102157,2,0,L|376:160,2,35
340,136,102549,1,0,0:0:0:0:
232,44,103071,6,0,L|200:28,4,35
240,148,103985,1,0,0:0:0:0:
236,220,104247,2,0,L|236:264,2,35
236,220,104639,1,0,0:0:0:0:
104,272,105161,6,0,L|104:228,4,35
204,300,106075,1,0,0:0:0:0:
272,280,106337,2,0,L|272:320,2,35
272,280,106729,1,0,0:0:0:0:
224,148,107250,6,0,P|176:124|136:152,1,105
136,256,108034,1,0,0:0:0:0:
192,300,108295,1,0,0:0:0:0:
224,284,108426,1,0,0:0:0:0:
276,236,108687,1,0,0:0:0:0:
316,140,109079,1,0,0:0:0:0:
272,88,109340,6,0,L|244:52,4,35
316,184,110254,1,0,0:0:0:0:
368,136,110516,2,0,L|396:108,2,35
340,160,110908,1,0,0:0:0:0:
228,120,111430,6,0,L|232:84,4,35
216,224,112344,1,0,0:0:0:0:
228,296,112606,2,0,L|268:276,2,35
196,312,112998,1,0,0:0:0:0:
56,300,113520,6,0,L|56:352,4,35
80,196,114434,1,0,0:0:0:0:
80,128,114696,2,0,L|40:116,2,35
112,136,115087,1,0,0:0:0:0:
248,112,115609,6,0,P|296:88|336:116,1,105
344,220,116393,1,0,0:0:0:0:
284,252,116654,1,0,0:0:0:0:
248,260,116785,1,0,0:0:0:0:
184,236,117046,1,0,0:0:0:0:
224,140,117438,1,0,0:0:0:0:
40,32,125013,5,0,0:0:0:0:
220,232,125404,1,0,0:0:0:0:
144,36,125796,1,0,0:0:0:0:
264,132,126057,1,0,0:0:0:0:
264,132,126188,6,0,L|228:156,2,35
296,28,126972,1,0,0:0:0:0:
328,128,127233,2,0,L|296:152,2,35
356,108,127625,5,0,0:0:0:0:
416,72,127886,1,0,0:0:0:0:
444,136,128147,1,0,0:0:0:0:
444,136,128278,6,0,L|484:112,2,35
344,172,128931,5,0,0:0:0:0:
280,204,129192,1,0,0:0:0:0:
252,140,129453,1,0,0:0:0:0:
276,112,129584,1,0,0:0:0:0:
172,104,129976,1,0,0:0:0:0:
148,168,130237,1,0,0:0:0:0:
148,168,130367,6,0,L|172:212,2,35
68,96,131151,1,0,0:0:0:0:
120,48,131412,2,0,L|148:16,2,35
120,48,131804,5,0,0:0:0:0:
156,108,132065,1,0,0:0:0:0:
196,168,132326,1,0,0:0:0:0:
372,52,133110,1,0,0:0:0:0:
392,120,133371,1,0,0:0:0:0:
336,160,133632,1,0,0:0:0:0:
304,152,133763,1,0,0:0:0:0:
208,192,134155,1,0,0:0:0:0:
212,124,134416,1,0,0:0:0:0:
212,124,134547,6,0,L|168:124,2,35
284,120,135200,1,0,0:0:0:0:
388,116,135592,2,0,L|428:116,2,35
360,136,135983,5,0,0:0:0:0:
320,192,136245,1,0,0:0:0:0:
196,52,136506,1,0,0:0:0:0:
84,228,137289,1,0,0:0:0:0:
116,292,137551,1,0,0:0:0:0:
160,236,137812,1,0,0:0:0:0:
172,204,137942,1,0,0:0:0:0:
276,220,138334,1,0,0:0:0:0:
284,152,138595,1,0,0:0:0:0:
284,152,138726,6,0,L|304:120,2,35
204,308,139640,2,0,L|248:316,3,35
412,296,140685,2,0,L|436:268,3,35
420,200,141338,2,0,L|368:212,1,35
360,144,141730,2,0,L|400:132,1,35
376,68,142122,1,0,0:0:0:0:
280,116,142514,1,0,0:0:0:0:
256,52,142775,5,0,0:0:0:0:
116,296,143820,1,0,0:0:0:0:
388,240,144864,1,0,0:0:0:0:
280,148,145387,1,0,0:0:0:0:
172,236,145909,1,0,0:0:0:0:
100,124,146954,5,0,0:0:0:0:
360,228,147999,1,0,0:0:0:0:
104,116,149044,1,0,0:0:0:0:
224,188,149566,1,0,0:0:0:0:
92,232,150089,1,0,0:0:0:0:
332,88,151134,6,0,L|304:116,4,35
376,36,151917,1,0,0:0:0:0:
396,104,152178,2,0,L|404:216,1,105
300,200,152962,2,0,L|264:184,2,35
392,252,153615,1,0,0:0:0:0:
328,276,153876,2,0,L|288:272,1,35
224,264,154268,1,0,0:0:0:0:
60,36,155313,6,0,L|24:8,4,35
108,84,156097,1,0,0:0:0:0:
148,144,156358,2,0,L|256:144,1,105
356,136,157141,2,0,L|332:168,2,35
384,72,157794,2,0,L|448:36,1,70
448,40,158186,1,0,0:0:0:0:
448,108,158447,1,0,0:0:0:0:
136,112,159492,6,0,L|116:76,1,35
212,76,159753,2,0,L|192:36,1,35
296,76,160015,2,0,L|300:40,1,35
380,104,160276,2,0,L|396:60,1,35
384,104,160537,1,0,0:0:0:0:
324,188,160929,5,0,0:0:0:0:
228,144,161321,2,0,L|192:120,1,35
180,52,161582,2,0,L|144:28,1,35
132,128,161843,2,0,L|96:112,1,35
132,212,162104,2,0,L|96:228,1,35
188,272,162366,2,0,L|152:304,1,35
264,256,162627,2,0,L|288:332,2,70
252,152,163541,5,0,0:0:0:0:
248,88,163672,2,0,L|208:88,1,35
248,88,163933,2,0,L|296:88,1,35
248,88,164194,2,0,L|248:44,1,35
248,88,164455,2,0,L|248:132,1,35
248,88,164716,1,0,0:0:0:0:
100,188,165108,1,0,0:0:0:0:
80,84,165500,6,0,L|52:52,2,35
180,112,166153,1,0,0:0:0:0:
276,160,166545,1,0,0:0:0:0:
344,180,166806,1,0,0:0:0:0:
300,232,167067,5,0,0:0:0:0:
276,160,167329,1,0,0:0:0:0:
232,212,167590,1,0,0:0:0:0:
232,280,167851,5,0,0:0:0:0:
196,276,167982,1,0,0:0:0:0:
164,268,168112,1,0,0:0:0:0:
132,256,168243,1,0,0:0:0:0:
108,232,168373,1,0,0:0:0:0:
88,204,168504,1,0,0:0:0:0:
72,172,168635,1,0,0:0:0:0:
72,136,168765,1,0,0:0:0:0:
72,100,168896,1,0,0:0:0:0:
172,64,169288,5,0,0:0:0:0:
272,36,169679,2,0,L|304:56,1,35
332,68,169941,5,0,0:0:0:0:
364,84,170071,1,0,0:0:0:0:
396,100,170202,1,0,0:0:0:0:
428,116,170332,1,0,0:0:0:0:
460,132,170463,1,0,0:0:0:0:
492,144,170594,1,0,0:0:0:0:
480,176,170724,5,0,0:0:0:0:
456,200,170855,1,0,0:0:0:0:
428,220,170986,2,0,L|368:264,1,70
304,284,171508,1,0,0:0:0:0:
236,204,171900,5,0,0:0:0:0:
208,224,172030,2,0,L|168:256,1,35
176,152,172292,2,0,L|128:164,1,35
172,72,172553,2,0,L|128:72,1,35
244,72,172814,2,0,L|284:56,1,35
312,56,173075,1,0,0:0:0:0:
380,136,173467,5,0,0:0:0:0:
304,212,173859,6,0,L|288:244,2,35
328,108,174512,2,0,L|424:60,1,105
421,61,175165,1,0,0:0:0:0:
212,60,175949,6,0,L|168:60,2,35
316,52,176602,2,0,L|328:164,1,105
327,156,177255,1,0,0:0:0:0:
148,264,178038,6,0,L|176:300,2,35
124,160,178691,2,0,L|196:80,1,105
194,81,179344,1,0,0:0:0:0:
404,60,180128,6,0,L|432:24,2,35
328,132,180781,2,0,L|272:220,1,105
271,220,181434,1,0,0:0:0:0:
80,308,182218,1,0,0:0:0:0:
72,240,182479,5,0,0:0:0:0:
160,296,182871,1,0,0:0:0:0:
128,196,183262,1,0,0:0:0:0:
108,128,183524,1,0,0:0:0:0:
204,172,183915,1,0,0:0:0:0:
108,128,184307,5,0,0:0:0:0:
128,196,184568,1,0,0:0:0:0:
184,108,184960,1,0,0:0:0:0:
244,196,185352,1,0,0:0:0:0:
260,128,185613,1,0,0:0:0:0:
168,180,186005,1,0,0:0:0:0:
236,260,186397,1,0,0:0:0:0:
168,264,186658,1,0,0:0:0:0:
