osu file format v14

[General]
AudioFilename: audio.mp3
AudioLeadIn: 0
PreviewTime: -1
Countdown: 1
SampleSet: Soft
StackLeniency: 0.7
Mode: 0
LetterboxInBreaks: 0
WidescreenStoryboard: 0

[Editor]
DistanceSpacing: 0.8
BeatDivisor: 4
GridSize: 8
TimelineZoom: 1

[Metadata]
Title:Dating Fight! (Unused Mix)
TitleUnicode:Dating Fight! (Unused Mix)
Artist:Toby Fox (SilvaGunner remix)
ArtistUnicode:Toby Fox (SilvaGunner remix)
Creator:Wilnath
Version:sorry
Source:not undertale
Tags:
BeatmapID:956388
BeatmapSetID:445210

[Difficulty]
HPDrainRate:3
CircleSize:4
OverallDifficulty:7
ApproachRate:9
SliderMultiplier:1.4
SliderTickRate:1

[Events]
//Background and Video events
//Break Periods
2,28125,65387
//Storyboard Layer 0 (Background)
//Storyboard Layer 1 (Fail)
//Storyboard Layer 2 (Pass)
//Storyboard Layer 3 (Foreground)
//Storyboard Sound Samples

[TimingPoints]
250,789.473684210526,4,2,0,100,1,0
5665,461.538461538462,4,2,0,100,1,0
12879,342.857142857143,4,2,0,100,1,0
19841,230.769230769231,4,2,0,100,1,0
23764,116.504854368932,4,2,0,100,1,0
26367,779.173684210526,4,2,0,100,1,0
66587,230.769230769231,4,2,0,100,1,0

[HitObjects]
96,56,1828,5,0,0:0:0:0:
104,64,2026,1,0,0:0:0:0:
288,56,2223,1,0,0:0:0:0:
272,176,2618,1,0,0:0:0:0:
240,256,3210,2,0,L|152:216,2,70
296,296,4394,1,0,0:0:0:0:
376,208,4592,1,0,0:0:0:0:
392,80,4789,1,0,0:0:0:0:
216,232,5665,1,0,0:0:0:0:
288,192,6126,1,0,0:0:0:0:
224,160,6588,1,0,0:0:0:0:
256,224,7049,1,0,0:0:0:0:
296,168,7511,1,0,0:0:0:0:
224,192,7972,1,0,0:0:0:0:
288,232,8434,1,0,0:0:0:0:
256,160,8895,5,0,0:0:0:0:
224,224,9357,1,0,0:0:0:0:
288,224,9818,1,0,0:0:0:0:
224,192,10280,1,0,0:0:0:0:
288,232,10741,1,0,0:0:0:0:
288,160,11203,1,0,0:0:0:0:
256,232,11665,1,0,0:0:0:0:
224,168,12126,1,0,0:0:0:0:
288,168,12588,1,0,0:0:0:0:
176,128,12879,5,0,0:0:0:0:
344,128,13221,1,0,0:0:0:0:
256,256,13564,1,0,0:0:0:0:
256,120,13907,1,0,0:0:0:0:
328,248,14250,1,0,0:0:0:0:
192,248,14593,1,0,0:0:0:0:
320,192,14936,1,0,0:0:0:0:
192,264,15279,1,0,0:0:0:0:
184,112,15621,1,0,0:0:0:0:
248,272,15964,1,0,0:0:0:0:
192,144,16307,1,0,0:0:0:0:
320,144,16650,1,0,0:0:0:0:
184,192,16993,1,0,0:0:0:0:
312,144,17336,1,0,0:0:0:0:
312,248,17679,1,0,0:0:0:0:
248,240,18021,1,0,0:0:0:0:
176,120,18364,1,0,0:0:0:0:
336,136,18707,1,0,0:0:0:0:
256,128,19050,1,0,0:0:0:0:
256,320,19841,5,0,0:0:0:0:
104,80,20071,1,0,0:0:0:0:
400,80,20302,1,0,0:0:0:0:
136,192,20533,1,0,0:0:0:0:
400,312,20764,1,0,0:0:0:0:
416,88,20994,1,0,0:0:0:0:
248,80,21225,1,0,0:0:0:0:
392,288,21456,1,0,0:0:0:0:
152,304,21687,1,0,0:0:0:0:
392,192,21917,5,0,0:0:0:0:
152,304,22148,1,0,0:0:0:0:
152,64,22379,1,0,0:0:0:0:
256,296,22610,1,0,0:0:0:0:
144,80,22841,1,0,0:0:0:0:
400,80,23071,1,0,0:0:0:0:
144,192,23302,1,0,0:0:0:0:
384,80,23533,1,0,0:0:0:0:
216,160,23764,1,0,0:0:0:0:
216,160,23880,1,0,0:0:0:0:
216,160,23997,1,0,0:0:0:0:
208,152,24113,1,0,0:0:0:0:
208,152,24230,1,0,0:0:0:0:
216,160,24346,1,0,0:0:0:0:
208,144,24463,1,0,0:0:0:0:
192,144,24579,1,0,0:0:0:0:
192,136,24696,1,0,0:0:0:0:
208,152,24812,1,0,0:0:0:0:
224,168,24929,1,0,0:0:0:0:
224,168,25045,1,0,0:0:0:0:
224,168,25162,1,0,0:0:0:0:
224,168,25278,1,0,0:0:0:0:
224,168,25395,1,0,0:0:0:0:
224,168,25511,1,0,0:0:0:0:
224,168,25628,1,0,0:0:0:0:
224,168,25744,1,0,0:0:0:0:
256,200,25861,1,0,0:0:0:0:
256,192,25977,12,0,26756,0:0:0:0:
256,192,27146,12,0,27925,0:0:0:0:
256,192,66587,5,0,0:0:0:0:
256,192,66817,1,0,0:0:0:0:
256,192,67048,1,0,0:0:0:0:
256,192,67279,1,0,0:0:0:0:
256,192,67510,1,0,0:0:0:0:
256,192,67740,1,0,0:0:0:0:
256,192,67971,1,0,0:0:0:0:
256,192,68202,1,0,0:0:0:0:
256,192,68433,1,0,0:0:0:0:
256,192,68663,1,0,0:0:0:0:
256,192,68894,1,0,0:0:0:0:
256,192,69125,1,0,0:0:0:0:
256,192,69356,1,0,0:0:0:0:
256,192,69587,1,0,0:0:0:0:
