osu file format v14

[General]
AudioFilename: 652942_Metal-Crusher-RmX-Loop.mp3
AudioLeadIn: 0
PreviewTime: -1
Countdown: 1
SampleSet: Soft
StackLeniency: 0.7
Mode: 1
LetterboxInBreaks: 0
WidescreenStoryboard: 1

[Editor]
DistanceSpacing: 1
BeatDivisor: 2
GridSize: 8
TimelineZoom: 1

[Metadata]
Title:Metal Crusher (Mettaton Show Theme)
TitleUnicode:Metal Crusher (Mettaton Show Theme)
Artist:Toby Fox (Djjaner Remix)
ArtistUnicode:Toby Fox (Djjaner Remix)
Creator:kingdom5500
Version:Muzukashii
Source:Undertale
Tags:undertale mettaton remix metal crusher short
BeatmapID:840946
BeatmapSetID:384628

[Difficulty]
HPDrainRate:5
CircleSize:5
OverallDifficulty:5
ApproachRate:5
SliderMultiplier:1.6
SliderTickRate:1

[Events]
//Background and Video events
0,0,"56010_undertale.jpg",0,0
//Break Periods
//Storyboard Layer 0 (Background)
//Storyboard Layer 1 (Fail)
//Storyboard Layer 2 (Pass)
//Storyboard Layer 3 (Foreground)
//Storyboard Sound Samples

[TimingPoints]
-6,258.620689655172,4,2,0,50,1,0
-6,-200,4,2,0,50,0,0
4000,-113.636363636364,4,2,0,50,0,0
20025,-200,4,2,0,50,0,0
41214,-100,4,2,0,50,0,0
57624,-200,4,2,0,50,0,0

[HitObjects]
256,192,511,1,0,0:0:0:0:
256,192,769,1,0,0:0:0:0:
256,192,1028,1,0,0:0:0:0:
256,192,1545,1,0,0:0:0:0:
256,192,2062,1,0,0:0:0:0:
256,192,2580,1,0,0:0:0:0:
256,192,2838,1,0,0:0:0:0:
256,192,3097,2,0,L|400:304,1,160
256,192,4131,1,0,0:0:0:0:
256,192,4390,1,0,0:0:0:0:
256,192,4649,1,4,0:0:0:0:
256,192,4907,1,2,0:0:0:0:
256,192,5166,1,0,0:0:0:0:
256,192,5425,1,0,0:0:0:0:
256,192,5683,1,4,0:0:0:0:
256,192,5942,1,0,0:0:0:0:
256,192,6200,1,2,0:0:0:0:
256,192,6459,1,2,0:0:0:0:
256,192,6718,1,4,0:0:0:0:
256,192,6976,1,2,0:0:0:0:
256,192,7235,1,2,0:0:0:0:
256,192,7493,1,0,0:0:0:0:
256,192,7752,1,4,0:0:0:0:
256,192,8011,1,0,0:0:0:0:
256,192,8140,1,0,0:0:0:0:
256,192,8269,1,0,0:0:0:0:
256,192,8528,1,2,0:0:0:0:
256,192,8787,1,4,0:0:0:0:
256,192,9045,1,0,0:0:0:0:
256,192,9175,1,0,0:0:0:0:
256,192,9304,1,2,0:0:0:0:
256,192,9562,1,2,0:0:0:0:
256,192,9821,1,4,0:0:0:0:
256,192,10080,1,0,0:0:0:0:
256,192,10338,1,0,0:0:0:0:
256,192,10597,1,2,0:0:0:0:
256,192,10856,1,4,0:0:0:0:
256,192,11114,1,0,0:0:0:0:
256,192,11373,1,0,0:0:0:0:
256,192,11631,1,0,0:0:0:0:
256,192,11890,1,4,0:0:0:0:
256,192,12019,1,0,0:0:0:0:
256,192,12149,1,0,0:0:0:0:
256,192,12407,1,0,0:0:0:0:
256,192,12666,1,0,0:0:0:0:
256,192,12925,1,4,0:0:0:0:
256,192,13183,1,2,0:0:0:0:
256,192,13442,1,0,0:0:0:0:
256,192,13700,1,0,0:0:0:0:
256,192,13959,1,4,0:0:0:0:
256,192,14218,1,0,0:0:0:0:
256,192,14476,1,2,0:0:0:0:
256,192,14735,1,2,0:0:0:0:
256,192,14993,1,4,0:0:0:0:
256,192,15252,1,2,0:0:0:0:
256,192,15511,1,2,0:0:0:0:
256,192,15769,1,0,0:0:0:0:
256,192,16028,1,4,0:0:0:0:
256,192,16287,1,0,0:0:0:0:
256,192,16416,1,0,0:0:0:0:
256,192,16545,1,0,0:0:0:0:
256,192,16804,1,2,0:0:0:0:
256,192,17062,1,4,0:0:0:0:
256,192,17321,1,0,0:0:0:0:
256,192,17450,1,0,0:0:0:0:
256,192,17580,1,2,0:0:0:0:
256,192,17838,1,2,0:0:0:0:
256,192,18097,1,4,0:0:0:0:
256,192,18356,1,0,0:0:0:0:
256,192,18614,1,0,0:0:0:0:
256,192,18873,1,2,0:0:0:0:
256,192,19131,1,4,0:0:0:0:
256,192,19390,1,0,0:0:0:0:
256,192,19649,1,0,0:0:0:0:
256,192,19907,1,0,0:0:0:0:
256,192,20166,12,0,20683,0:0:0:0:
312,80,21459,5,0,0:0:0:0:
120,88,21718,6,0,L|344:224,1,240
256,184,22752,1,0,0:0:0:0:
256,184,23269,1,0,0:0:0:0:
256,184,23787,1,0,0:0:0:0:
256,184,24304,1,0,0:0:0:0:
112,80,24821,2,0,L|344:208,1,240
256,192,25856,1,0,0:0:0:0:
256,192,26631,1,0,0:0:0:0:
256,192,26890,1,0,0:0:0:0:
256,192,27407,1,0,0:0:0:0:
256,192,27925,1,0,0:0:0:0:
256,192,28442,12,0,28959,0:0:0:0:
248,120,29735,5,0,0:0:0:0:
320,208,29993,6,0,L|536:344,1,240
256,192,31028,1,0,0:0:0:0:
256,192,31545,1,0,0:0:0:0:
256,192,32062,1,0,0:0:0:0:
256,192,32580,1,0,0:0:0:0:
256,192,33097,12,0,34649,0:0:0:0:
256,192,35166,12,0,36200,0:0:0:0:
256,192,36330,5,0,0:0:0:0:
256,192,36459,1,0,0:0:0:0:
256,192,36588,1,0,0:0:0:0:
256,192,36718,1,0,0:0:0:0:
256,192,37235,5,0,0:0:0:0:
256,192,37752,1,0,0:0:0:0:
256,192,38011,1,0,0:0:0:0:
256,192,38269,1,0,0:0:0:0:
256,192,38787,1,0,0:0:0:0:
256,192,39304,1,0,0:0:0:0:
256,192,39821,1,0,0:0:0:0:
256,192,40080,1,0,0:0:0:0:
256,192,40338,2,0,L|416:280,1,160
256,192,41373,1,0,0:0:0:0:
256,192,41631,1,0,0:0:0:0:
256,192,41890,1,4,0:0:0:0:
256,192,42149,1,2,0:0:0:0:
256,192,42407,1,0,0:0:0:0:
256,192,42666,1,0,0:0:0:0:
256,192,42925,1,4,0:0:0:0:
256,192,43183,1,0,0:0:0:0:
256,192,43442,1,2,0:0:0:0:
256,192,43700,1,2,0:0:0:0:
256,192,43959,1,4,0:0:0:0:
256,192,44218,1,2,0:0:0:0:
256,192,44476,1,2,0:0:0:0:
256,192,44735,1,0,0:0:0:0:
256,192,44993,1,4,0:0:0:0:
256,192,45252,1,0,0:0:0:0:
256,192,45381,1,0,0:0:0:0:
256,192,45511,1,0,0:0:0:0:
256,192,45769,1,2,0:0:0:0:
256,192,46028,1,4,0:0:0:0:
256,192,46287,1,0,0:0:0:0:
256,192,46416,1,0,0:0:0:0:
256,192,46545,1,2,0:0:0:0:
256,192,46804,1,2,0:0:0:0:
256,192,47062,1,4,0:0:0:0:
256,192,47321,1,0,0:0:0:0:
256,192,47580,1,0,0:0:0:0:
256,192,47838,1,2,0:0:0:0:
256,192,48097,1,4,0:0:0:0:
256,192,48356,1,0,0:0:0:0:
256,192,48614,1,0,0:0:0:0:
256,192,48873,1,0,0:0:0:0:
256,192,49131,1,4,0:0:0:0:
256,192,49261,1,0,0:0:0:0:
256,192,49390,1,0,0:0:0:0:
256,192,49649,1,0,0:0:0:0:
256,192,49907,1,0,0:0:0:0:
256,192,50166,1,4,0:0:0:0:
256,192,50425,1,2,0:0:0:0:
256,192,50683,1,0,0:0:0:0:
256,192,50942,1,0,0:0:0:0:
256,192,51200,1,4,0:0:0:0:
256,192,51459,1,0,0:0:0:0:
256,192,51718,1,2,0:0:0:0:
256,192,51976,1,2,0:0:0:0:
256,192,52235,1,4,0:0:0:0:
256,192,52493,1,2,0:0:0:0:
256,192,52752,1,2,0:0:0:0:
256,192,53011,1,0,0:0:0:0:
256,192,53269,1,4,0:0:0:0:
256,192,53528,1,0,0:0:0:0:
256,192,53657,1,0,0:0:0:0:
256,192,53787,1,0,0:0:0:0:
256,192,54045,1,2,0:0:0:0:
256,192,54304,1,4,0:0:0:0:
256,192,54562,1,0,0:0:0:0:
256,192,54692,1,0,0:0:0:0:
256,192,54821,1,2,0:0:0:0:
256,192,55080,1,2,0:0:0:0:
256,192,55338,1,4,0:0:0:0:
256,192,55597,1,0,0:0:0:0:
256,192,55856,1,0,0:0:0:0:
256,192,56114,1,2,0:0:0:0:
256,192,56373,1,4,0:0:0:0:
256,192,56631,1,0,0:0:0:0:
256,192,56890,1,0,0:0:0:0:
256,192,57149,1,0,0:0:0:0:
256,192,57407,12,0,57925,0:0:0:0:
312,80,58700,5,0,0:0:0:0:
120,88,58959,6,0,L|344:224,1,240
256,184,59993,1,0,0:0:0:0:
256,184,60511,1,0,0:0:0:0:
256,184,61028,1,0,0:0:0:0:
256,184,61545,1,0,0:0:0:0:
112,80,62062,2,0,L|344:208,1,240
256,192,63097,1,0,0:0:0:0:
256,192,63873,1,0,0:0:0:0:
256,192,64131,1,0,0:0:0:0:
256,192,64649,1,0,0:0:0:0:
256,192,65166,1,0,0:0:0:0:
256,192,65683,12,0,66200,0:0:0:0:
248,120,66976,5,0,0:0:0:0:
320,208,67235,6,0,L|536:344,1,240
256,192,68269,1,0,0:0:0:0:
256,192,68787,1,0,0:0:0:0:
256,192,69304,1,0,0:0:0:0:
256,192,69821,1,0,0:0:0:0:
256,192,70338,12,0,71890,0:0:0:0:
256,192,72407,12,0,73442,0:0:0:0:
256,192,73571,5,0,0:0:0:0:
256,192,73700,1,0,0:0:0:0:
256,192,73830,1,0,0:0:0:0:
256,192,73959,1,0,0:0:0:0:
