osu file format v14

[General]
AudioFilename: audio.mp3
AudioLeadIn: 0
PreviewTime: 59986
Countdown: 0
SampleSet: Drum
StackLeniency: 0.7
Mode: 0
LetterboxInBreaks: 0
WidescreenStoryboard: 1

[Editor]
DistanceSpacing: 1.2
BeatDivisor: 8
GridSize: 8
TimelineZoom: 2.2

[Metadata]
Title:Candyland
TitleUnicode:Candyland
Artist:Tobu
ArtistUnicode:Tobu
Creator:- Heatwave -
Version:Normal
Source:
Tags:Dance EDM House NCS Electronic Instrumental 7obu NoCopyrightSounds
BeatmapID:2540957
BeatmapSetID:1221508

[Difficulty]
HPDrainRate:4
CircleSize:4
OverallDifficulty:5
ApproachRate:6
SliderMultiplier:0.999999999999999
SliderTickRate:1

[Events]
//Background and Video events
0,0,"2394472.png",0,0
//Break Periods
2,30304,36554
//Storyboard Layer 0 (Background)
//Storyboard Layer 1 (Fail)
//Storyboard Layer 2 (Pass)
//Storyboard Layer 3 (Foreground)
//Storyboard Layer 4 (Overlay)
//Storyboard Sound Samples

[TimingPoints]
104,468.75,4,2,1,55,1,0
30104,-100,4,2,33,55,0,0
37604,-100,4,2,1,55,0,0
52604,-100,4,2,1,60,0,0
54479,-100,4,2,1,65,0,0
56354,-100,4,2,1,70,0,0
58229,-100,4,2,1,75,0,0
60104,-80,4,2,33,100,0,1
60162,-80,4,3,1,100,0,1
75104,-80,4,3,1,100,0,0
75572,-80,4,3,33,100,0,1
75807,-80,4,3,1,100,0,1
90104,-80,4,3,1,100,0,0
90572,-80,4,3,33,100,0,1
90807,-80,4,3,1,100,0,1
101354,-80,4,2,1,100,0,0
101588,-100,4,2,1,75,0,0
105338,-100,4,2,1,32,0,0
105572,-100,4,2,1,30,0,0
105807,-100,4,2,1,27,0,0
106041,-100,4,2,1,25,0,0
106275,-100,4,2,1,22,0,0
106510,-100,4,2,1,20,0,0
106744,-100,4,2,1,17,0,0
106979,-100,4,2,1,15,0,0
107213,-100,4,2,1,12,0,0
107447,-100,4,2,1,10,0,0
107682,-100,4,2,1,7,0,0

[Colours]
Combo1 : 173,252,248
Combo2 : 255,188,192
Combo3 : 255,196,255
Combo4 : 206,107,167

[HitObjects]
68,61,104,6,0,B|163:50|163:50|171:53|171:53|278:41,1,200,2|0,2:3|2:0,2:0:0:0:
375,141,1744,1,0,2:0:0:0:
330,164,1979,2,0,P|300:209|338:312,1,150,2|2,2:3|2:3,2:0:0:0:
360,327,2916,2,0,B|410:317|410:317|454:343,1,99.9999999999999,0|0,2:0|2:0,2:0:0:0:
487,248,3854,6,0,B|476:154|476:154|480:145|480:145|469:42,1,200,2|0,2:3|2:0,2:0:0:0:
324,13,5494,1,0,2:0:0:0:
308,60,5729,2,0,P|245:105|174:88,1,150,2|2,2:3|2:3,2:0:0:0:
152,48,6666,2,0,L|26:36,1,99.9999999999999,0|0,2:0|2:0,2:0:0:0:
4,126,7604,6,0,B|50:178|50:178|182:166,1,200,2|0,2:3|2:0,2:0:0:0:
229,307,9244,1,0,2:0:0:0:
274,285,9479,2,0,P|314:226|294:145,1,150,2|2,2:3|2:3,2:0:0:0:
258,125,10416,2,0,L|271:22,1,99.9999999999999,0|0,2:0|2:0,2:0:0:0:
370,23,11354,6,0,B|389:118|389:118|387:126|387:126|404:219,1,200,2|0,2:3|2:0,2:0:0:0:
323,352,12994,1,0,2:0:0:0:
300,307,13229,2,0,P|238:275|160:319,1,150,2|2,2:3|2:3,2:0:0:0:
143,347,14166,2,0,P|105:379|56:379,1,99.9999999999999,0|0,2:0|2:0,2:0:0:0:
14,289,15104,6,0,L|6:121,1,150,2|2,2:3|2:3,2:0:0:0:
34,97,16041,2,0,L|153:114,1,99.9999999999999,2|2,2:3|2:3,2:0:0:0:
223,68,16979,2,0,L|215:236,1,150,2|2,2:3|2:3,2:0:0:0:
243,260,17916,2,0,L|362:243,1,99.9999999999999,2|2,2:3|2:3,2:0:0:0:
423,186,18854,6,0,P|458:130|427:44,1,150,2|2,2:3|2:3,2:0:0:0:
397,22,19791,2,0,L|282:38,1,99.9999999999999,2|2,2:3|2:3,2:0:0:0:
241,118,20729,2,0,P|276:174|245:260,1,150,2|2,2:3|2:3,2:0:0:0:
215,282,21666,2,0,L|100:266,1,99.9999999999999,2|2,2:3|2:3,2:0:0:0:
51,191,22604,6,0,L|39:76,1,99.9999999999999,8|8,2:0|2:0,2:0:0:0:
66,50,23307,1,2,2:3:0:0:
66,50,23541,2,0,L|167:62,1,99.9999999999999,8|8,2:0|2:0,2:0:0:0:
159,161,24479,6,0,L|147:276,1,99.9999999999999,8|8,2:0|2:0,2:0:0:0:
174,302,25182,1,2,2:3:0:0:
174,302,25416,2,0,L|275:290,1,99.9999999999999,8|8,2:0|2:0,2:0:0:0:
304,194,26354,6,0,P|339:159|388:158,1,99.9999999999999,8|8,2:0|2:0,2:0:0:0:
433,187,27057,1,2,2:3:0:0:
433,187,27291,2,0,P|417:139|439:95,1,99.9999999999999,8|8,2:0|2:0,2:0:0:0:
467,0,28229,2,0,L|335:14,1,99.9999999999999,8|8,2:0|2:0,2:0:0:0:
290,74,29166,2,0,L|276:206,1,99.9999999999999,8|8,2:0|2:0,2:0:0:0:
267,272,30104,5,4,2:0:0:0:
215,297,37604,6,0,P|144:326|82:260,1,150,2|2,2:3|2:3,2:0:0:0:
70,240,38541,2,0,L|86:109,1,99.9999999999999,0|0,2:0|2:0,2:0:0:0:
146,63,39479,2,0,L|254:52,1,99.9999999999999,2|0,2:3|2:0,2:0:0:0:
286,81,40182,2,0,L|264:217,1,99.9999999999999,2|0,2:3|2:0,2:0:0:0:
303,217,40885,1,0,2:0:0:0:
392,172,41354,6,0,P|438:206|415:321,1,150,2|2,2:3|2:3,2:0:0:0:
407,330,42291,2,0,P|340:314|313:335,1,99.9999999999999,2|2,2:3|2:3,2:0:0:0:
228,374,43229,2,0,L|216:260,1,99.9999999999999,2|2,2:3|2:3,2:0:0:0:
241,230,43932,2,0,L|127:218,1,99.9999999999999,2|0,2:3|2:0,2:0:0:0:
110,180,44635,1,2,2:3:0:0:
193,125,45104,6,0,P|212:61|133:7,1,150,2|2,2:3|2:3,2:0:0:0:
112,29,46041,2,0,B|68:4|68:4|14:28,1,99.9999999999999,2|2,2:3|2:3,2:0:0:0:
63,115,46979,2,0,L|57:232,1,99.9999999999999,2|0,2:3|2:0,2:0:0:0:
102,236,47682,2,0,L|107:335,1,99.9999999999999,2|0,2:3|2:0,2:0:0:0:
88,382,48385,1,2,2:3:0:0:
186,363,48854,6,0,L|180:246,1,99.9999999999999,2|0,2:3|2:0,2:0:0:0:
225,242,49557,2,0,L|230:143,1,99.9999999999999,2|0,2:3|2:0,2:0:0:0:
211,96,50260,1,2,2:3:0:0:
310,100,50729,2,0,L|304:217,1,99.9999999999999,2|0,2:3|2:0,2:0:0:0:
349,221,51432,2,0,L|354:320,1,99.9999999999999,2|0,2:3|2:0,2:0:0:0:
335,367,52135,1,2,2:3:0:0:
433,383,52604,6,0,B|443:314|443:314|440:302|440:302|450:228,1,150,2|2,2:3|2:3,2:0:0:0:
420,193,53541,2,0,L|410:86,1,99.9999999999999,2|2,2:3|2:3,2:0:0:0:
316,61,54479,6,0,L|216:53,1,99.9999999999999,2|2,2:3|2:3,2:0:0:0:
172,29,55182,2,0,B|133:73|133:73|149:162,1,150,2|2,2:3|2:3,2:0:0:0:
117,257,56354,2,0,L|216:249,1,99.9999999999999,2|2,2:3|2:3,2:0:0:0:
261,225,57057,2,0,B|300:269|300:269|283:358,1,150,2|2,2:3|2:3,2:0:0:0:
183,358,58229,6,0,L|73:347,1,99.9999999999999,2|2,2:3|2:3,2:0:0:0:
29,263,59166,2,0,L|40:153,1,99.9999999999999,8|2,2:0|2:3,2:0:0:0:
110,92,60104,6,0,P|161:136|226:117,1,125,4|2,2:0|1:3,0:0:0:0:
263,70,60807,1,2,3:0:0:0:
288,140,61041,2,0,B|340:178|340:178|395:153,1,125,0|2,1:0|1:3,3:0:0:0:
473,282,61979,6,0,B|410:286|410:286|406:289|406:289|349:293,1,125,0|2,1:0|1:3,3:0:0:0:
288,337,62682,1,2,3:0:0:0:
238,280,62916,2,0,P|180:298|130:263,1,125,0|0,1:0|1:0,3:0:0:0:
107,192,63619,1,2,3:0:0:0:
33,205,63854,6,0,B|39:147|39:147|37:143|37:143|47:68,1,125,0|2,1:0|1:3,3:0:0:0:
94,24,64557,1,2,3:0:0:0:
127,90,64791,2,0,P|188:98|236:61,1,125,0|2,1:0|1:3,3:0:0:0:
376,6,65729,6,0,B|349:42|349:42|365:120,1,125,0|2,1:0|1:3,3:0:0:0:
380,193,66432,1,2,3:0:0:0:
305,182,66666,2,0,L|222:172,1,62.4999999999999,0|2,1:0|3:0,3:0:0:0:
189,227,67135,2,0,L|196:289,1,62.4999999999999,0|2,1:0|3:0,3:0:0:0:
241,349,67604,6,0,B|307:358|294:302|357:313,1,125,0|2,1:0|1:3,3:0:0:0:
412,360,68307,1,2,3:0:0:0:
459,301,68541,2,0,B|453:227,2,62.4999999999999,0|0|2,1:0|3:0|1:3,3:0:0:0:
403,161,69479,6,0,L|234:142,1,125,0|2,1:0|1:3,3:0:0:0:
217,103,70182,1,2,3:0:0:0:
168,159,70416,2,0,P|116:184|57:153,1,125,0|0,1:0|1:0,3:0:0:0:
93,302,71354,6,0,L|217:289,1,125,0|2,1:0|1:3,3:0:0:0:
280,329,72057,1,2,3:0:0:0:
324,269,72291,2,0,P|401:303|393:362,1,125,0|2,1:0|1:3,3:0:0:0:
441,188,73229,5,0,1:0:0:0:
504,146,73463,2,0,L|513:74,1,62.4999999999999,2|2,3:0|1:3,3:0:0:0:
454,35,73932,2,0,L|324:52,1,125,2|2,3:0|3:0,3:0:0:0:
284,110,74635,1,0,1:0:0:0:
266,328,75572,5,4,2:0:0:0:
200,364,75807,1,2,3:0:0:0:
158,302,76041,2,0,B|129:291|107:267|107:267|81:281|47:280,1,125,0|2,1:0|1:3,3:0:0:0:
37,155,76979,6,0,B|95:147|95:147|100:149|100:149|162:141,1,125,0|2,1:0|1:3,3:0:0:0:
216,191,77682,1,2,3:0:0:0:
154,234,77916,2,0,P|131:295|167:352,1,125,0|0,1:0|1:0,3:0:0:0:
225,375,78619,1,2,3:0:0:0:
279,323,78854,6,0,L|293:166,1,125,0|2,1:0|1:3,3:0:0:0:
298,123,79557,1,2,3:0:0:0:
357,168,79791,2,0,L|438:161,2,62.4999999999999,0|0|2,1:0|3:0|1:3,3:0:0:0:
441,43,80729,6,0,B|373:39|373:39|368:43|368:43|286:38,1,125,0|2,1:0|1:3,3:0:0:0:
242,36,81432,1,2,3:0:0:0:
188,88,81666,2,0,L|199:165,1,62.4999999999999,0|2,1:0|3:0,3:0:0:0:
152,210,82135,2,0,L|90:201,1,62.4999999999999,0|2,1:0|3:0,3:0:0:0:
41,143,82604,6,0,P|37:67|91:31,1,125,0|2,1:0|1:3,3:0:0:0:
145,26,83307,1,2,3:0:0:0:
188,88,83541,2,0,B|249:82|249:82|255:84|255:84|313:78,1,125,0|2,1:0|1:3,3:0:0:0:
454,124,84479,6,0,P|394:124|367:177,1,125,0|2,1:0|1:3,3:0:0:0:
423,227,85182,1,2,3:0:0:0:
394,296,85416,2,0,L|229:282,1,125,0|0,1:0|1:0,3:0:0:0:
221,343,86119,1,2,3:0:0:0:
164,293,86354,6,0,P|105:336|44:304,1,125,0|2,1:0|1:3,3:0:0:0:
35,250,87057,1,2,3:0:0:0:
71,184,87291,2,0,B|128:189|128:189|133:190|133:190|195:195,1,125,0|2,1:0|1:3,3:0:0:0:
338,154,88229,5,0,1:0:0:0:
383,215,88463,2,0,L|456:221,1,62.4999999999999,2|2,3:0|1:3,3:0:0:0:
509,179,88932,2,0,P|522:129|478:73,1,125
405,78,89635,1,0,1:0:0:0:
492,365,90572,5,4,2:0:0:0:
439,311,90807,1,2,3:0:0:0:
374,348,91041,2,0,P|297:354|263:314,1,125,0|2,1:0|1:3,3:0:0:0:
231,177,91979,6,0,B|286:172|286:172|301:177|301:177|361:172,1,125,0|2,1:0|1:3,3:0:0:0:
429,165,92682,1,2,3:0:0:0:
429,90,92916,2,0,P|394:38|323:35,1,125,0|0,1:0|1:0,3:0:0:0:
271,68,93619,1,2,3:0:0:0:
214,18,93854,6,0,B|189:54|189:54|212:141,1,125,0|2,1:0|1:3,3:0:0:0:
199,207,94557,1,2,3:0:0:0:
124,197,94791,2,0,L|51:184,2,62.4999999999999,0|0|2,1:0|3:0|1:3,3:0:0:0:
191,332,95729,6,0,B|193:276|193:276|196:271|196:271|199:209,1,125,0|2,1:0|1:3,0:0:0:0:
255,158,96432,1,2,3:0:0:0:
327,176,96666,2,0,P|341:202|338:233,1,62.4999999999999,0|2,1:0|3:0,3:0:0:0:
294,294,97135,2,0,P|279:320|282:351,1,62.4999999999999,0|2,1:0|3:0,3:0:0:0:
351,381,97604,6,0,L|481:364,1,125,0|2,1:0|1:3,0:0:0:0:
510,298,98307,1,2,3:0:0:0:
442,262,98541,2,0,P|415:209|440:154,1,125,0|2,1:0|1:3,3:0:0:0:
502,16,99479,6,0,B|439:37|439:37|389:5,1,125,0|2,1:0|1:3,0:0:0:0:
333,55,100182,1,2,3:0:0:0:
260,37,100416,2,0,B|254:101|254:101|251:107|251:107|247:163,1,125,0|0,1:0|1:0,3:0:0:0:
191,211,101119,1,2,3:0:0:0:
72,195,101588,6,0,L|1:186,2,50,2|2|2,3:0|3:0|3:0,3:0:0:0:
102,235,102291,2,0,L|241:220,1,99.9999999999999,0|2,3:0|3:0,3:0:0:0:
303,334,103463,2,0,L|295:272,1,50,2|2,3:0|3:0,3:0:0:0:
328,245,103932,2,0,L|427:257,1,99.9999999999999,2|2,3:0|3:0,3:0:0:0:
463,223,104635,2,0,L|455:161,1,50,0|2,1:0|3:0,3:0:0:0:
256,192,105104,12,0,107916,3:0:0:0:
