osu file format v14

[General]
AudioFilename: audio.mp3
AudioLeadIn: 0
PreviewTime: 59986
Countdown: 0
SampleSet: Soft
StackLeniency: 0.7
Mode: 0
LetterboxInBreaks: 0
WidescreenStoryboard: 0

[Editor]
DistanceSpacing: 1.2
BeatDivisor: 4
GridSize: 8
TimelineZoom: 2.2

[Metadata]
Title:Candyland
TitleUnicode:Candyland
Artist:Tobu
ArtistUnicode:Tobu
Creator:- Heatwave -
Version:Insane
Source:
Tags:Dance EDM House NCS Electronic Instrumental 7obu NoCopyrightSounds
BeatmapID:2542530
BeatmapSetID:1221508

[Difficulty]
HPDrainRate:5.6
CircleSize:4.5
OverallDifficulty:8
ApproachRate:8.6
SliderMultiplier:1.7
SliderTickRate:1

[Events]
//Background and Video events
0,0,"2394472.png",0,0
//Break Periods
//Storyboard Layer 0 (Background)
//Storyboard Layer 1 (Fail)
//Storyboard Layer 2 (Pass)
//Storyboard Layer 3 (Foreground)
//Storyboard Layer 4 (Overlay)
//Storyboard Sound Samples

[TimingPoints]
104,468.75,4,2,1,55,1,0
104,-200,4,2,1,55,0,0
15104,-153.846153846154,4,2,1,55,0,0
22604,-133.333333333333,4,2,1,55,0,0
30104,-117.647058823529,4,2,33,55,0,0
30162,-117.647058823529,4,2,1,55,0,0
45104,-105.263157894737,4,2,1,55,0,0
48854,-86.9565217391304,4,2,1,55,0,0
52604,-76.9230769230769,4,2,1,60,0,0
54479,-76.9230769230769,4,2,1,65,0,0
56354,-76.9230769230769,4,2,1,70,0,0
57057,-100,4,2,1,70,0,0
57291,-133.333333333333,4,2,1,70,0,0
58229,-133.333333333333,4,2,1,75,0,0
58463,-200,4,2,1,75,0,0
58697,-100,4,2,1,75,0,0
58932,-66.6666666666667,4,2,1,75,0,0
59635,-57.1428571428571,4,2,1,75,0,0
60104,-57.1428571428571,4,2,33,100,0,1
60162,-57.1428571428571,4,3,1,100,0,1
60455,-57.1428571428571,4,2,99,5,0,1
60572,-57.1428571428571,4,3,1,100,0,1
60689,-57.1428571428571,4,2,99,5,0,1
60807,-57.1428571428571,4,3,1,100,0,1
60924,-57.1428571428571,4,2,99,5,0,1
61041,-200,4,3,1,100,0,1
61510,-57.1428571428571,4,3,1,100,0,1
62330,-57.1428571428571,4,2,99,5,0,1
62447,-57.1428571428571,4,3,1,100,0,1
62564,-57.1428571428571,4,2,99,5,0,1
62682,-57.1428571428571,4,3,1,100,0,1
64205,-57.1428571428571,4,2,99,5,0,1
64322,-57.1428571428571,4,3,1,100,0,1
64439,-57.1428571428571,4,2,99,5,0,1
64557,-57.1428571428571,4,3,1,100,0,1
64674,-57.1428571428571,4,2,99,5,0,1
64791,-200,4,3,1,100,0,1
65260,-57.1428571428571,4,3,1,100,0,1
66080,-57.1428571428571,4,2,99,5,0,1
66197,-57.1428571428571,4,3,1,100,0,1
66314,-57.1428571428571,4,2,99,5,0,1
66432,-57.1428571428571,4,3,1,100,0,1
67955,-57.1428571428571,4,2,99,5,0,1
68072,-57.1428571428571,4,3,1,100,0,1
68189,-57.1428571428571,4,2,99,5,0,1
68307,-57.1428571428571,4,3,1,100,0,1
68424,-57.1428571428571,4,2,99,5,0,1
68541,-200,4,3,1,100,0,1
69010,-57.1428571428571,4,3,1,100,0,1
69830,-57.1428571428571,4,2,99,5,0,1
69947,-57.1428571428571,4,3,1,100,0,1
70064,-57.1428571428571,4,2,99,5,0,1
70182,-57.1428571428571,4,3,1,100,0,1
71705,-57.1428571428571,4,2,99,5,0,1
71822,-57.1428571428571,4,3,1,100,0,1
71939,-57.1428571428571,4,2,99,5,0,1
72057,-57.1428571428571,4,3,1,100,0,1
72174,-57.1428571428571,4,2,99,5,0,1
72291,-200,4,3,1,100,0,1
72760,-57.1428571428571,4,3,1,100,0,1
73463,-133.333333333333,4,3,1,100,0,1
75104,-133.333333333333,4,3,1,100,0,0
75455,-133.333333333333,4,2,99,5,0,0
75572,-57.1428571428571,4,2,33,100,0,1
75631,-57.1428571428571,4,3,1,100,0,1
75689,-57.1428571428571,4,2,99,5,0,1
75807,-57.1428571428571,4,3,1,100,0,1
75924,-57.1428571428571,4,2,99,5,0,1
76041,-133.333333333333,4,3,1,100,0,1
76510,-57.1428571428571,4,3,1,100,0,1
77330,-57.1428571428571,4,2,99,5,0,1
77447,-57.1428571428571,4,3,1,100,0,1
77564,-57.1428571428571,4,2,99,5,0,1
77682,-57.1428571428571,4,3,1,100,0,1
79205,-57.1428571428571,4,2,99,5,0,1
79322,-57.1428571428571,4,3,1,100,0,1
79439,-57.1428571428571,4,2,99,5,0,1
79557,-57.1428571428571,4,3,1,100,0,1
79674,-57.1428571428571,4,2,99,5,0,1
79791,-133.333333333333,4,3,1,100,0,1
80260,-57.1428571428571,4,3,1,100,0,1
81080,-57.1428571428571,4,2,99,5,0,1
81197,-57.1428571428571,4,3,1,100,0,1
81314,-57.1428571428571,4,2,99,5,0,1
81432,-57.1428571428571,4,3,1,100,0,1
82955,-57.1428571428571,4,2,99,5,0,1
83072,-57.1428571428571,4,3,1,100,0,1
83189,-57.1428571428571,4,2,99,5,0,1
83307,-57.1428571428571,4,3,1,100,0,1
83424,-57.1428571428571,4,2,99,5,0,1
83541,-133.333333333333,4,3,1,100,0,1
84010,-57.1428571428571,4,3,1,100,0,1
84830,-57.1428571428571,4,2,99,5,0,1
84947,-57.1428571428571,4,3,1,100,0,1
85064,-57.1428571428571,4,2,99,5,0,1
85182,-57.1428571428571,4,3,1,100,0,1
86705,-57.1428571428571,4,2,99,5,0,1
86822,-57.1428571428571,4,3,1,100,0,1
86939,-57.1428571428571,4,2,99,5,0,1
87057,-57.1428571428571,4,3,1,100,0,1
87174,-57.1428571428571,4,2,99,5,0,1
87291,-133.333333333333,4,3,1,100,0,1
87760,-57.1428571428571,4,3,1,100,0,1
88463,-133.333333333333,4,3,1,100,0,1
90104,-133.333333333333,4,3,1,100,0,0
90455,-133.333333333333,4,2,99,5,0,0
90572,-57.1428571428571,4,2,33,100,0,1
90631,-57.1428571428571,4,3,1,100,0,1
90689,-57.1428571428571,4,2,99,5,0,1
90807,-57.1428571428571,4,3,1,100,0,1
90924,-57.1428571428571,4,2,99,5,0,1
91041,-133.333333333333,4,3,1,100,0,1
91510,-57.1428571428571,4,3,1,100,0,1
92330,-57.1428571428571,4,2,99,5,0,1
92447,-57.1428571428571,4,3,1,100,0,1
92564,-57.1428571428571,4,2,99,5,0,1
92682,-57.1428571428571,4,3,1,100,0,1
94205,-57.1428571428571,4,2,99,5,0,1
94322,-57.1428571428571,4,3,1,100,0,1
94439,-57.1428571428571,4,2,99,5,0,1
94557,-57.1428571428571,4,3,1,100,0,1
94674,-57.1428571428571,4,2,99,5,0,1
94791,-133.333333333333,4,3,1,100,0,1
95260,-57.1428571428571,4,3,1,100,0,1
96080,-57.1428571428571,4,2,99,5,0,1
96197,-57.1428571428571,4,3,1,100,0,1
96314,-57.1428571428571,4,2,99,5,0,1
96432,-57.1428571428571,4,3,1,100,0,1
97955,-57.1428571428571,4,2,99,5,0,1
98072,-57.1428571428571,4,3,1,100,0,1
98189,-57.1428571428571,4,2,99,5,0,1
98307,-57.1428571428571,4,3,1,100,0,1
98424,-57.1428571428571,4,2,99,5,0,1
98541,-133.333333333333,4,3,1,100,0,1
99010,-57.1428571428571,4,3,1,100,0,1
99830,-57.1428571428571,4,2,99,5,0,1
99947,-57.1428571428571,4,3,1,100,0,1
100064,-57.1428571428571,4,2,99,5,0,1
100182,-57.1428571428571,4,3,1,100,0,1
101588,-133.333333333333,4,3,1,75,0,0
105104,-133.333333333333,4,3,1,35,0,0
105338,-133.333333333333,4,3,2,32,0,0
105572,-133.333333333333,4,3,1,30,0,0
105807,-133.333333333333,4,3,2,27,0,0
106041,-133.333333333333,4,3,1,25,0,0
106275,-133.333333333333,4,3,2,22,0,0
106510,-133.333333333333,4,3,1,20,0,0
106744,-133.333333333333,4,3,2,17,0,0
106979,-133.333333333333,4,3,1,15,0,0
107213,-133.333333333333,4,3,2,12,0,0
107447,-133.333333333333,4,3,1,10,0,0
107682,-133.333333333333,4,3,2,7,0,0
107916,-133.333333333333,4,3,1,5,0,0

[Colours]
Combo1 : 173,252,248
Combo2 : 255,188,192
Combo3 : 255,196,255
Combo4 : 206,107,167

[HitObjects]
52,52,104,6,0,L|49:31,3,21.25,2|0|0|0,0:3|0:0|0:0|0:0,0:0:0:0:
97,115,572,2,0,L|116:122,1,21.25
19,122,807,2,0,L|2:135,1,21.25,2|0,0:3|0:0,0:0:0:0:
26,126,1041,1,0,0:0:0:0:
74,274,1744,5,0,0:0:0:0:
144,259,1979,2,0,L|164:255,3,21.25,2|0|0|0,0:3|0:0|0:0|0:0,0:0:0:0:
50,343,2447,2,0,L|42:362,1,21.25
25,219,2682,2,0,L|11:202,1,21.25,2|0,0:3|0:0,0:0:0:0:
136,345,2916,2,0,L|177:338,1,42.5
187,343,3268,1,0,0:0:0:0:
246,283,3385,2,0,L|287:289,1,42.5
342,182,3854,6,0,L|339:160,3,21.25,2|0|0|0,0:3|0:0|0:0|0:0,0:0:0:0:
410,174,4322,2,0,L|407:152,1,21.25
478,166,4557,2,0,L|475:144,1,21.25,2|0,0:3|0:0,0:0:0:0:
485,171,4791,1,0,0:0:0:0:
267,43,5494,5,0,0:0:0:0:
198,88,5729,2,0,L|202:114,3,21.25,2|0|0|0,0:3|0:0|0:0|0:0,0:0:0:0:
153,23,6197,2,0,L|157:-3,3,21.25,0|0|2|0,0:0|0:0|0:3|0:0,0:0:0:0:
83,70,6666,5,0,0:0:0:0:
267,43,6900,1,0,0:0:0:0:
119,152,7135,1,0,0:0:0:0:
257,131,7369,1,0,0:0:0:0:
237,257,7604,6,0,L|233:278,3,21.25,2|0|0|0,0:3|0:0|0:0|0:0,0:0:0:0:
277,365,8072,2,0,L|260:351,1,21.25
165,347,8307,2,0,L|184:339,1,21.25,2|0,0:3|0:0,0:0:0:0:
192,343,8541,1,0,0:0:0:0:
388,268,9244,5,0,0:0:0:0:
324,219,9479,2,0,L|291:194,3,21.25,2|0|0|0,0:3|0:0|0:0|0:0,0:0:0:0:
398,187,9947,2,0,L|403:145,1,21.25
463,236,10182,2,0,L|501:219,1,21.25,2|0,0:3|0:0,0:0:0:0:
378,349,10416,5,0,0:0:0:0:
398,187,10650,2,0,L|392:228,2,21.25
418,25,11119,1,0,0:0:0:0:
271,127,11354,6,0,L|292:123,3,21.25,2|0|0|0,0:3|0:0|0:0|0:0,0:0:0:0:
165,143,11822,2,0,L|157:162,1,21.25
204,43,12057,2,0,L|190:26,1,21.25,2|0,0:3|0:0,0:0:0:0:
202,51,12291,1,0,0:0:0:0:
230,281,12994,5,0,0:0:0:0:
224,211,13229,2,0,L|221:183,3,21.25,2|0|0|0,0:3|0:0|0:0|0:0,0:0:0:0:
236,351,13697,2,0,L|239:379,3,21.25,0|0|2|0,0:0|0:0|0:3|0:0,0:0:0:0:
334,268,14166,5,0,0:0:0:0:
126,294,14400,1,0,0:0:0:0:
301,193,14635,1,0,0:0:0:0:
144,212,14869,1,0,0:0:0:0:
205,58,15104,6,0,L|208:86,5,27.6249987354279,2|0|0|0|2|0,0:3|0:0|0:0|0:0|0:3|0:0,0:0:0:0:
137,68,15807,2,0,L|140:96,9,27.6249987354279,2|0|2|0|0|0|2|0|0|0,0:3|0:0|0:3|0:0|0:0|0:0|0:3|0:0|0:0|0:0,0:0:0:0:
308,147,16979,6,0,L|305:175,5,27.6249987354279,2|0|0|0|2|0,0:3|0:0|0:0|0:0|0:3|0:0,0:0:0:0:
376,157,17682,2,0,L|373:185,5,27.6249987354279,2|0|2|0|0|0,0:3|0:0|0:3|0:0|0:0|0:0,0:0:0:0:
217,237,18385,6,0,L|220:265,1,27.6249987354279,2|0,0:3|0:0,0:0:0:0:
149,247,18619,2,0,L|152:275,1,27.6249987354279
63,206,18854,6,0,P|55:217|44:225,5,27.6249987354279,2|0|0|0|2|0,0:3|0:0|0:0|0:0|0:3|0:0,0:0:0:0:
43,124,19557,2,0,P|29:122|16:117,9,27.6249987354279,2|0|2|0|0|0|2|0|0|0,0:3|0:0|0:3|0:0|0:0|0:0|0:3|0:0|0:0|0:0,0:0:0:0:
185,88,20729,6,0,P|192:76|203:68,5,27.6249987354279,2|0|0|0|2|0,0:3|0:0|0:0|0:0|0:3|0:0,0:0:0:0:
104,65,21432,2,0,P|98:52|96:38,9,27.6249987354279,2|0|2|0|0|0|2|0|0|0,0:3|0:0|0:3|0:0|0:0|0:0|0:3|0:0|0:0|0:0,0:0:0:0:
206,170,22604,6,0,L|249:166,3,31.8750012159348,8|0|0|0,0:0|0:0|0:0|0:0,0:0:0:0:
284,77,23072,2,0,L|327:81,3,31.8750012159348,8|0|2|0,0:0|0:0|0:3|0:0,0:0:0:0:
329,200,23541,2,0,L|372:196,3,31.8750012159348,8|0|0|0,0:0|0:0|0:0|0:0,0:0:0:0:
411,105,24010,2,0,L|454:109,3,31.8750012159348,8|0|0|0,0:0|0:0|0:0|0:0,0:0:0:0:
480,244,24479,6,0,L|486:280,3,31.8750012159348,8|0|0|0,0:0|0:0|0:0|0:0,0:0:0:0:
411,256,24947,2,0,L|417:292,3,31.8750012159348,8|0|2|0,0:0|0:0|0:3|0:0,0:0:0:0:
291,185,25416,6,0,L|296:153,3,31.8750012159348,8|0|0|0,0:0|0:0|0:0|0:0,0:0:0:0:
360,197,25884,2,0,L|365:165,1,31.8750012159348,8|0,0:0|0:0,0:0:0:0:
238,235,26119,2,0,L|243:266,1,31.8750012159348,2|0,0:3|0:0,0:0:0:0:
328,354,26354,6,0,L|333:322,3,31.8750012159348,8|0|0|0,0:0|0:0|0:0|0:0,0:0:0:0:
254,374,26822,2,0,L|259:342,3,31.8750012159348,8|0|2|0,0:0|0:0|0:3|0:0,0:0:0:0:
121,253,27291,6,0,L|115:221,3,31.8750012159348,8|0|0|0,0:0|0:0|0:0|0:0,0:0:0:0:
195,273,27759,2,0,L|189:241,3,31.8750012159348,8|0|0|0,0:0|0:0|0:0|0:0,0:0:0:0:
365,165,28229,6,0,L|396:170,3,31.8750012159348,8|0|0|0,0:0|0:0|0:0|0:0,0:0:0:0:
345,91,28697,2,0,L|376:96,1,31.8750012159348,8|0,0:0|0:0,0:0:0:0:
325,17,28932,2,0,L|356:22,1,31.8750012159348,2|0,0:3|0:0,0:0:0:0:
219,79,29166,6,0,L|224:110,3,31.8750012159348,8|0|0|0,0:0|0:0|0:0|0:0,0:0:0:0:
149,94,29635,2,0,L|154:125,3,31.8750012159348,8|0|0|0,0:0|0:0|0:0|0:0,0:0:0:0:
79,109,30104,1,4,2:0:0:0:
67,292,30338,6,0,P|86:262|123:250,1,72.2500013780594
236,346,30807,2,0,B|231:280|231:280|228:277|228:277|222:203,1,144.500002756119,2|0,0:3|0:0,0:0:0:0:
131,316,31510,1,0,0:0:0:0:
213,98,31979,5,2,0:3:0:0:
311,215,32213,2,0,L|383:225,1,72.2500013780594
334,41,32682,2,0,B|298:87|298:87|213:97,1,144.500002756119,2|0,0:3|0:0,0:0:0:0:
316,224,33385,2,0,L|352:229,2,36.1250006890297
445,72,33854,5,2,0:3:0:0:
464,179,34088,2,0,L|478:261,1,72.2500013780594
327,312,34557,2,0,B|366:297|396:328|386:340|414:370|451:363,1,144.500002756119,2|0,0:3|0:0,0:0:0:0:
237,360,35260,2,0,L|221:205,1,144.500002756119,0|2,0:0|0:3,0:0:0:0:
69,96,35963,5,0,0:0:0:0:
132,252,36197,1,0,0:0:0:0:
236,120,36432,2,0,B|180:128|180:128|157:148|157:148|99:157,1,144.500002756119,2|0,0:3|0:0,0:0:0:0:
152,18,37135,2,0,L|187:22,2,36.1250006890297
222,216,37604,5,2,0:3:0:0:
321,105,37838,2,0,L|312:176,1,72.2500013780594
381,241,38307,1,2,0:3:0:0:
222,216,38541,6,0,P|206:256|216:285,1,72.2500013780594
401,327,39010,2,0,B|333:331|333:331|321:340|321:340|245:345,1,144.500002756119,0|2,0:0|0:3,0:0:0:0:
155,141,39713,5,0,0:0:0:0:
312,176,39947,1,0,0:0:0:0:
214,282,40182,2,0,B|229:213|229:213|226:201|226:201|241:132,1,144.500002756119,2|0,0:3|0:0,0:0:0:0:
176,61,40885,2,0,L|113:72,2,36.1250006890297
353,39,41354,6,0,P|325:59|323:94,1,72.2500013780594,2|0,0:3|0:0,0:0:0:0:
376,151,41705,2,0,L|461:132,1,72.2500013780594,2|0,0:3|0:0,0:0:0:0:
317,198,42057,1,2,0:3:0:0:
374,309,42291,5,2,0:3:0:0:
374,309,42408,2,0,L|290:297,1,72.2500013780594,2|2,0:3|0:3,0:0:0:0:
224,355,42760,2,0,L|226:373,2,18.0625003445149,2|0|0,0:3|0:0|0:0,0:0:0:0:
119,275,42994,1,0,0:0:0:0:
119,275,43111,1,0,0:0:0:0:
119,275,43229,6,0,L|128:203,1,72.2500013780594,2|0,0:3|0:0,0:0:0:0:
220,103,43580,1,2,0:3:0:0:
220,103,43697,2,0,L|229:174,1,72.2500013780594,2|2,0:3|0:3,0:0:0:0:
33,122,44166,5,2,0:3:0:0:
33,122,44283,2,0,P|68:107|85:69,1,72.2500013780594,2|2,0:3|0:3,0:0:0:0:
158,17,44635,2,0,L|155:-6,2,18.0625003445149,2|0|0,0:3|0:0|0:0,0:0:0:0:
220,100,44869,1,0,0:0:0:0:
220,100,44986,1,0,0:0:0:0:
220,100,45104,6,0,P|255:118|294:112,1,80.7499978437424,2|0,0:3|0:0,0:0:0:0:
410,16,45455,2,0,P|376:37|361:74,1,80.7499978437424,2|0,0:3|0:0,0:0:0:0:
447,159,45807,1,2,0:3:0:0:
253,195,46041,5,2,0:3:0:0:
253,195,46158,2,0,B|237:227|237:227|246:271,1,80.7499978437424,2|2,0:3|0:3,0:0:0:0:
374,320,46510,2,0,L|383:267,1,40.3749989218712,2|0,0:3|0:0,0:0:0:0:
261,337,46744,2,0,L|267:364,2,20.1874994609356
161,265,46979,6,0,B|123:261|123:261|117:264|117:264|81:261,1,80.7499978437424,2|0,0:3|0:0,0:0:0:0:
20,155,47330,2,0,B|56:151|56:151|62:154|62:154|99:151,1,80.7499978437424,2|0,0:3|0:0,0:0:0:0:
136,58,47682,1,2,0:3:0:0:
289,133,47916,5,2,0:3:0:0:
289,132,48033,2,0,P|250:126|226:95,1,80.7499978437424,2|2,0:3|0:3,0:0:0:0:
276,2,48385,2,0,L|306:-2,2,20.1874994609356,2|0|0,0:3|0:0|0:0,0:0:0:0:
382,75,48619,1,0,0:0:0:0:
382,75,48736,1,0,0:0:0:0:
382,75,48854,6,0,B|412:113|412:113|399:160,1,97.7500018644333,2|0,0:3|0:0,0:0:0:0:
223,190,49205,2,0,B|240:145|240:145|288:132,1,97.7500018644333,2|0,0:3|0:0,0:0:0:0:
381,239,49557,1,2,0:3:0:0:
253,340,49791,5,2,0:3:0:0:
253,340,49908,2,0,B|295:338|295:338|304:340|304:340|359:337,1,97.7500018644333,2|2,0:3|0:3,0:0:0:0:
458,253,50260,2,0,L|490:257,2,24.4375004661083,2|0|0,0:3|0:0|0:0,0:0:0:0:
300,229,50494,1,0,0:0:0:0:
300,229,50611,1,0,0:0:0:0:
300,229,50729,6,0,L|288:132,1,97.7500018644333,2|0,0:3|0:0,0:0:0:0:
177,67,51080,2,0,P|223:59|241:16,1,97.7500018644333,2|0,0:3|0:0,0:0:0:0:
186,175,51432,1,2,0:3:0:0:
39,24,51666,5,2,0:3:0:0:
39,24,51783,2,0,B|13:54|13:54|25:110,1,97.7500018644333,2|2,0:3|0:3,0:0:0:0:
113,191,52135,2,0,L|118:155,2,24.4375004661083,2|0|0,0:3|0:0|0:0,0:0:0:0:
59,276,52369,1,2,0:3:0:0:
59,276,52486,1,2,0:3:0:0:
59,276,52604,6,0,L|67:344,1,55.2499974708558,2|0,0:3|0:0,0:0:0:0:
182,374,52838,2,0,P|182:346|196:323,1,55.2499974708558,2|2,0:3|0:3,0:0:0:0:
203,243,53072,2,0,P|227:229|254:230,1,55.2499974708558,2|0,0:3|0:0,0:0:0:0:
326,195,53307,2,0,P|349:209|362:233,1,55.2499974708558,2|2,0:3|0:3,0:0:0:0:
413,316,53541,6,0,L|405:378,3,55.2499974708558,2|0|2|2,0:3|0:0|0:3|0:3,0:0:0:0:
326,195,54010,2,0,L|321:167,2,27.6249987354279,2|0|0,0:3|0:0|0:0,0:0:0:0:
467,146,54244,1,2,0:3:0:0:
467,146,54361,1,2,0:3:0:0:
467,145,54479,6,0,P|414:140|387:94,1,110.499994941712,2|2,0:3|0:3,0:0:0:0:
399,7,54830,1,2,0:3:0:0:
399,7,54947,2,0,L|461:-2,1,55.2499974708558,2|0,0:3|0:0,0:0:0:0:
294,81,55182,2,0,L|239:73,1,55.2499974708558,2|2,0:3|0:3,0:0:0:0:
467,145,55416,6,0,B|473:173|473:173|461:198,3,55.2499974708558,2|0|2|2,0:3|0:0|0:3|0:3,0:0:0:0:
334,249,55885,2,0,L|325:194,1,55.2499974708558,2|0,0:3|0:0,0:0:0:0:
239,73,56119,1,2,0:3:0:0:
239,73,56236,1,2,0:3:0:0:
239,72,56354,6,0,P|214:120|162:128,1,110.499994941712,2|2,0:3|0:3,0:0:0:0:
103,38,56705,1,2,0:3:0:0:
103,38,56822,2,0,L|26:30,1,55.2499974708558,2|0,0:3|0:0,0:0:0:0:
9,130,57057,2,0,L|51:134,1,42.5,2|2,0:3|0:3,0:0:0:0:
87,217,57291,6,0,L|118:210,3,31.8750012159348,2|0|2|2,0:3|0:0|0:3|0:3,0:0:0:0:
52,289,57760,2,0,L|20:282,3,31.8750012159348,2|0|2|2,0:3|0:0|0:3|0:3,0:0:0:0:
97,355,58229,1,2,0:3:0:0:
202,196,58463,6,0,L|205:217,1,21.25,2|2,0:3|0:3,0:0:0:0:
277,226,58697,2,0,L|270:183,1,42.5,2|0,0:3|0:0,0:0:0:0:
341,172,58932,2,0,L|350:235,1,63.7500024318696,2|2,0:3|0:3,0:0:0:0:
431,326,59166,5,8,0:0:0:0:
431,326,59283,1,0,0:0:0:0:
431,326,59400,2,0,L|439:233,1,63.7500024318696,2|0,0:3|0:0,0:0:0:0:
512,116,59635,6,0,B|470:110|453:75|453:75|428:106|387:102,1,148.750001418591,2|2,0:3|0:3,0:0:0:0:
320,47,59986,1,0,0:0:0:0:
259,152,60104,5,4,0:0:0:0:
68,14,60338,2,0,B|51:41|51:41|64:85,1,74.3750007092953,2|0,0:0|0:0,0:0:0:0:
228,27,60572,2,0,L|148:19,1,74.3750007092953,2|0,1:3|0:0,0:0:0:0:
38,173,60807,2,0,L|112:165,1,74.3750007092953,2|0,0:0|0:0,0:0:0:0:
259,152,61041,6,0,L|252:200,1,42.5,0|0,1:0|0:0,0:0:0:0:
44,280,61510,2,0,B|42:271|42:271|77:234|137:244|153:284|149:286|146:289|176:344|250:356|291:308,1,297.500002837181,2|0,1:3|1:0,0:0:0:0:
362,142,62213,6,0,B|347:176|347:176|368:206,1,74.3750007092953,2|0,0:0|0:0,0:0:0:0:
481,198,62447,2,0,B|495:163|495:163|474:133,1,74.3750007092953,2|0,1:3|0:0,0:0:0:0:
435,284,62682,1,2,0:0:0:0:
410,50,62916,6,0,B|336:42|336:42|328:45|328:45|251:36,1,148.750001418591,0|2,1:0|0:0,0:0:0:0:
95,158,63385,1,0,1:0:0:0:
146,102,63502,1,2,0:0:0:0:
208,146,63619,1,2,0:0:0:0:
53,310,63854,5,0,1:0:0:0:
160,195,64088,2,0,B|179:228|179:228|164:263,1,74.3750007092953,2|0,0:0|0:0,0:0:0:0:
37,192,64322,2,0,B|58:160|58:160|95:158,1,74.3750007092953,2|0,1:3|0:0,0:0:0:0:
237,275,64557,2,0,L|137:256,1,74.3750007092953,2|0,0:0|0:0,0:0:0:0:
146,102,64791,6,0,L|188:100,1,42.5,0|0,1:0|0:0,0:0:0:0:
379,150,65260,2,0,B|410:84|316:49|279:104|273:178|335:231|335:231|351:223|367:224,1,297.500002837181,2|0,1:3|1:0,0:0:0:0:
462,30,65963,6,0,B|427:25|427:25|420:28|420:28|387:24,1,74.3750007092953,2|0,0:0|0:0,0:0:0:0:
307,156,66197,2,0,B|342:151|342:151|348:154|348:154|381:150,1,74.3750007092953,2|0,1:3|0:0,0:0:0:0:
498,136,66432,1,2,0:0:0:0:
276,30,66666,6,0,P|243:92|173:86,1,148.750001418591,0|2,1:0|0:0,0:0:0:0:
364,223,67135,1,0,1:0:0:0:
271,244,67252,1,2,0:0:0:0:
336,315,67369,1,2,0:0:0:0:
110,272,67604,5,0,1:0:0:0:
185,152,67838,2,0,P|193:116|173:86,1,74.3750007092953,2|0,0:0|0:0,0:0:0:0:
18,119,68072,2,0,P|44:143|80:141,1,74.3750007092953,2|0,1:3|0:0,0:0:0:0:
141,0,68307,2,0,L|60:10,1,74.3750007092953,2|0,0:0|0:0,0:0:0:0:
270,72,68541,6,0,L|275:29,1,42.5,0|0,1:0|0:0,0:0:0:0:
476,158,69010,2,0,B|480:142|480:142|444:111|385:120|359:170|363:174|366:178|334:233|279:241|222:200,1,297.500002837181,2|0,1:3|1:0,0:0:0:0:
364,384,69713,6,0,L|374:305,1,74.3750007092953,2|0,0:0|0:0,0:0:0:0:
238,210,69947,2,0,L|247:283,1,74.3750007092953,2|0,1:3|0:0,0:0:0:0:
144,337,70182,1,2,0:0:0:0:
26,154,70416,6,0,P|69:210|139:200,1,148.750001418591,0|2,1:0|0:0,0:0:0:0:
296,14,70885,1,0,1:0:0:0:
231,67,71002,1,2,0:0:0:0:
180,6,71119,1,2,0:0:0:0:
320,167,71354,5,0,1:0:0:0:
454,86,71588,2,0,P|426:62|389:65,1,74.3750007092953,2|0,0:0|0:0,0:0:0:0:
344,239,71822,2,0,P|378:226|393:193,1,74.3750007092953,2|0,1:3|0:0,0:0:0:0:
231,67,72057,2,0,L|239:155,1,74.3750007092953,2|0,0:0|0:0,0:0:0:0:
341,282,72291,6,0,L|344:239,1,42.5,0|0,1:0|0:0,0:0:0:0:
231,67,72760,2,0,B|176:44|145:90|147:93|149:96|95:175|18:160|3:42|92:17|128:77,1,297.500002837181,2|0,1:3|1:0,0:0:0:0:
200,215,73463,6,0,B|196:250|196:250|194:255|194:255|192:277,2,63.7500024318696,2|2|2,0:0|1:3|0:0,0:0:0:0:
83,333,74166,2,0,L|76:267,1,63.7500024318696,0|2,1:0|0:0,0:0:0:0:
200,354,74635,1,0,1:0:0:0:
170,358,74752,1,2,0:0:0:0:
187,377,74869,1,2,0:0:0:0:
187,377,75338,6,0,L|226:372,1,31.8750012159348,2|0,0:0|0:0,0:0:0:0:
396,327,75572,2,0,L|322:315,1,74.3750007092953,4|0,2:0|0:0,0:0:0:0:
200,215,75807,2,0,B|233:223|233:223|266:202,1,74.3750007092953,2|0,0:0|0:0,0:0:0:0:
382,152,76041,6,0,L|387:215,1,63.7500024318696,0|0,1:0|0:0,0:0:0:0:
231,70,76510,2,0,B|203:49|195:-3|263:-57|341:-5|316:41|370:83|434:50,1,297.500002837181,2|0,1:3|1:0,0:0:0:0:
216,136,77213,6,0,B|208:100|208:100|231:68,1,74.3750007092953,2|0,0:0|0:0,0:0:0:0:
55,91,77447,2,0,B|84:114|84:114|85:151,1,74.3750007092953,2|0,1:3|0:0,0:0:0:0:
138,7,77682,1,2,0:0:0:0:
62,246,77916,6,0,B|104:281|104:281|199:267,1,148.750001418591,0|2,1:0|0:0,0:0:0:0:
389,141,78385,1,0,1:0:0:0:
356,218,78502,1,2,0:0:0:0:
295,163,78619,1,2,0:0:0:0:
438,305,78854,5,0,1:0:0:0:
197,267,79088,2,0,P|179:234|192:198,1,74.3750007092953,2|0,0:0|0:0,0:0:0:0:
229,87,79322,2,0,P|255:62|294:64,1,74.3750007092953,2|0,1:3|0:0,0:0:0:0:
397,67,79557,2,0,L|387:155,1,74.3750007092953,2|0,0:0|0:0,0:0:0:0:
302,226,79791,6,0,L|294:162,1,63.7500024318696,0|0,1:0|0:0,0:0:0:0:
115,0,80260,2,0,B|126:-6|126:-6|174:47|131:101|128:99|125:97|89:133|89:184|121:216|172:223|198:194,1,297.500002837181,2|0,1:3|1:0,0:0:0:0:
426,1,80963,6,0,B|389:-8|389:-8|356:8,1,74.3750007092953,2|0,0:0|0:0,0:0:0:0:
450,140,81197,2,0,B|476:112|476:112|478:76,1,74.3750007092953,2|0,1:3|0:0,0:0:0:0:
326,124,81432,1,2,0:0:0:0:
313,306,81666,6,0,B|383:298|383:298|389:300|389:300|461:292,1,148.750001418591,0|2,1:0|0:0,0:0:0:0:
190,200,82135,1,0,1:0:0:0:
272,183,82252,1,2,0:0:0:0:
245,259,82369,1,2,0:0:0:0:
119,126,82604,5,0,1:0:0:0:
168,372,82838,2,0,B|186:340|186:340|174:304,1,74.3750007092953,2|0,0:0|0:0,0:0:0:0:
34,290,83072,2,0,B|16:322|16:322|28:358,1,74.3750007092953,2|0,1:3|0:0,0:0:0:0:
190,200,83307,2,0,L|108:216,1,74.3750007092953,2|0,0:0|0:0,0:0:0:0:
258,354,83541,6,0,L|321:366,1,63.7500024318696,0|0,1:0|0:0,0:0:0:0:
420,164,84010,2,0,B|379:125|302:157|310:241|368:267|408:246|408:246|408:246|432:233|460:242|474:263,1,297.500002837181,2|0,1:3|1:0,0:0:0:0:
464,0,84713,6,0,B|482:32|482:32|474:68,1,74.3750007092953,2|0,0:0|0:0,0:0:0:0:
337,87,84947,2,0,B|319:55|319:55|326:18,1,74.3750007092953,2|0,1:3|0:0,0:0:0:0:
420,164,85182,1,2,0:0:0:0:
245,259,85416,6,0,B|253:193|253:193|249:187|249:187|257:112,1,148.750001418591,0|2,1:0|0:0,0:0:0:0:
138,353,85885,1,0,1:0:0:0:
177,288,86003,1,2,0:0:0:0:
239,332,86120,1,2,0:0:0:0:
43,219,86354,5,0,1:0:0:0:
160,157,86588,2,0,P|175:123|167:88,1,74.3750007092953,2|0,0:0|0:0,0:0:0:0:
18,74,86822,2,0,P|2:107|10:142,1,74.3750007092953,2|0,1:3|0:0,0:0:0:0:
191,0,87057,2,0,L|87:13,1,74.3750007092953,2|0,0:0|0:0,0:0:0:0:
10,142,87291,6,0,L|73:149,1,63.7500024318696,0|0,1:0|0:0,0:0:0:0:
245,259,87760,2,0,B|268:183|359:177|387:246|384:249|381:252|406:300|455:304|501:264,1,297.500002837181,2|0,1:3|1:0,0:0:0:0:
413,100,88463,6,0,L|406:168,2,63.7500024318696,2|2|2,0:0|1:3|0:0,0:0:0:0:
258,109,89166,2,0,L|251:45,1,63.7500024318696,0|2,1:0|0:0,0:0:0:0:
434,9,89635,5,0,1:0:0:0:
419,25,89752,1,2,0:0:0:0:
410,4,89869,1,2,0:0:0:0:
410,4,90338,6,0,L|366:7,1,31.8750012159348,2|0,0:0|0:0,0:0:0:0:
258,109,90572,2,0,B|274:75|274:75|263:38,1,74.3750007092953,4|0,2:0|0:0,0:0:0:0:
127,26,90807,2,0,B|111:60|111:60|122:97,1,74.3750007092953,2|0,0:0|0:0,0:0:0:0:
230,185,91041,6,0,L|166:193,1,63.7500024318696,0|0,1:0|0:0,0:0:0:0:
14,378,91510,2,0,B|-10:338|4:279|59:253|59:253|118:266|140:318|130:364,1,297.500002837181,2|0,1:3|1:0,0:0:0:0:
349,233,92213,6,0,P|321:257|285:256,1,74.3750007092953,2|0,0:0|0:0,0:0:0:0:
258,109,92447,2,0,L|355:119,1,74.3750007092953,2|0,1:3|0:0,0:0:0:0:
433,128,92682,1,2,0:0:0:0:
472,384,92916,6,0,P|431:323|360:313,1,148.750001418591,0|2,1:0|0:0,0:0:0:0:
472,182,93385,1,0,1:0:0:0:
445,244,93502,1,2,0:0:0:0:
405,189,93619,1,2,0:0:0:0:
285,256,93854,5,0,1:0:0:0:
363,0,94088,2,0,P|388:25|390:61,1,74.3750007092953,2|0,0:0|0:0,0:0:0:0:
218,163,94322,2,0,P|227:127|257:108,1,74.3750007092953,2|0,1:3|0:0,0:0:0:0:
405,189,94557,2,0,L|312:201,1,74.3750007092953,2|0,0:0|0:0,0:0:0:0:
326,54,94791,6,0,L|389:62,1,63.7500024318696,0|0,1:0|0:0,0:0:0:0:
115,10,95260,2,0,B|85:34|84:69|106:91|109:89|112:87|158:126|148:210|111:234|-2:207|49:112,1,297.500002837181,2|0,1:3|1:0,0:0:0:0:
197,264,95963,6,0,P|211:225|271:208,1,74.3750007092953,2|0,0:0|0:0,0:0:0:0:
53,310,96197,2,0,P|76:338|77:374,1,74.3750007092953,2|0,1:3|0:0,0:0:0:0:
203,377,96432,1,2,0:0:0:0:
190,116,96666,6,0,B|193:181|193:181|191:185|191:185|197:265,1,148.750001418591,0|2,1:0|0:0,0:0:0:0:
358,92,97135,1,0,1:0:0:0:
295,135,97252,1,2,0:0:0:0:
251,71,97369,1,2,0:0:0:0:
282,210,97604,5,0,1:0:0:0:
480,142,97838,2,0,P|448:160|412:154,1,74.3750007092953,2|0,0:0|0:0,0:0:0:0:
397,6,98072,2,0,P|432:-3|465:11,1,74.3750007092953,2|0,1:3|0:0,0:0:0:0:
251,71,98307,2,0,L|241:-8,1,74.3750007092953,2|0,0:0|0:0,0:0:0:0:
402,148,98541,6,0,L|393:211,1,63.7500024318696,0|0,1:0|0:0,0:0:0:0:
208,289,99010,2,0,B|243:249|298:256|332:303|328:306|325:309|339:373|406:400|461:355,1,297.500002837181,2|0,1:3|1:0,0:0:0:0:
218,363,99713,6,0,L|208:289,1,74.3750007092953,2|0,0:0|0:0,0:0:0:0:
63,236,99947,2,0,P|81:267|115:279,1,74.3750007092953,2|0,1:3|0:0,0:0:0:0:
239,197,100182,1,2,0:0:0:0:
132,51,100416,6,0,B|135:123|135:123|132:128|132:128|137:198,1,148.750001418591,0|2,1:0|0:0,0:0:0:0:
30,22,100885,1,0,1:0:0:0:
66,87,101002,1,2,0:0:0:0:
132,51,101119,1,2,0:0:0:0:
322,106,101588,6,0,L|332:40,2,63.7500024318696,2|2|2,0:0|0:0|0:3,0:0:0:0:
405,88,102291,1,0,0:0:0:0:
239,127,102760,2,0,L|260:-11,1,127.500004863739,2|0,0:3|0:0,0:0:0:0:
361,234,103463,6,0,P|379:208|410:202,1,63.7500024318696,2|2,0:3|0:3,0:0:0:0:
310,328,103932,2,0,P|271:279|210:275,1,127.500004863739,2|2,0:3|0:3,0:0:0:0:
432,337,104635,2,0,L|427:378,2,31.8750012159348,0|2|2,1:0|0:0|0:0,0:0:0:0:
256,192,105104,12,0,107916,0:0:0:0:
