osu file format v14

[General]
AudioFilename: audio.mp3
AudioLeadIn: 0
PreviewTime: 59986
Countdown: 0
SampleSet: Soft
StackLeniency: 0.7
Mode: 0
LetterboxInBreaks: 0
WidescreenStoryboard: 1

[Editor]
Bookmarks: 78092
DistanceSpacing: 1.2
BeatDivisor: 8
GridSize: 16
TimelineZoom: 2.2

[Metadata]
Title:Candyland
TitleUnicode:Candyland
Artist:Tobu
ArtistUnicode:Tobu
Creator:- Heatwave -
Version:Euphoria
Source:
Tags:Dance EDM House NCS Electronic Instrumental 7obu NoCopyrightSounds
BeatmapID:2540955
BeatmapSetID:1221508

[Difficulty]
HPDrainRate:6.2
CircleSize:5
OverallDifficulty:8.6
ApproachRate:9.2
SliderMultiplier:1.8
SliderTickRate:1

[Events]
//Background and Video events
0,0,"2394472.png",0,0
//Break Periods
//Storyboard Layer 0 (Background)
//Storyboard Layer 1 (Fail)
//Storyboard Layer 2 (Pass)
//Storyboard Layer 3 (Foreground)
//Storyboard Layer 4 (Overlay)
//Storyboard Sound Samples

[TimingPoints]
104,468.75,4,2,1,55,1,0
104,-200,4,2,1,55,0,0
15104,-153.846153846154,4,2,1,55,0,0
22604,-133.333333333333,4,2,1,55,0,0
30104,-117.647058823529,4,2,33,55,0,0
30162,-117.647058823529,4,2,1,55,0,0
45104,-105.263157894737,4,2,1,55,0,0
48854,-86.9565217391304,4,2,1,55,0,0
52604,-76.9230769230769,4,2,1,60,0,0
54479,-76.9230769230769,4,2,1,65,0,0
56354,-76.9230769230769,4,2,1,70,0,0
57057,-100,4,2,1,70,0,0
57291,-133.333333333333,4,2,1,70,0,0
58229,-133.333333333333,4,2,1,75,0,0
58463,-200,4,2,1,75,0,0
58697,-100,4,2,1,75,0,0
58932,-66.6666666666667,4,2,1,75,0,0
59635,-57.1428571428571,4,2,1,75,0,0
60104,-57.1428571428571,4,2,33,100,0,1
60162,-57.1428571428571,4,3,1,100,0,1
60455,-57.1428571428571,4,2,99,5,0,1
60572,-57.1428571428571,4,3,1,100,0,1
60689,-57.1428571428571,4,2,99,5,0,1
60807,-57.1428571428571,4,3,1,100,0,1
60924,-57.1428571428571,4,2,99,5,0,1
61041,-200,4,3,1,100,0,1
61510,-50,4,3,1,100,0,1
62213,-57.1428571428571,4,3,1,100,0,1
62330,-57.1428571428571,4,2,99,5,0,1
62447,-57.1428571428571,4,3,1,100,0,1
62564,-57.1428571428571,4,2,99,5,0,1
62682,-57.1428571428571,4,3,1,100,0,1
64205,-57.1428571428571,4,2,99,5,0,1
64322,-57.1428571428571,4,3,1,100,0,1
64439,-57.1428571428571,4,2,99,5,0,1
64557,-57.1428571428571,4,3,1,100,0,1
64674,-57.1428571428571,4,2,99,5,0,1
64791,-200,4,3,1,100,0,1
65260,-50,4,3,1,100,0,1
65963,-57.1428571428571,4,3,1,100,0,1
66080,-57.1428571428571,4,2,99,5,0,1
66197,-57.1428571428571,4,3,1,100,0,1
66314,-57.1428571428571,4,2,99,5,0,1
66432,-57.1428571428571,4,3,1,100,0,1
67955,-57.1428571428571,4,2,99,5,0,1
68072,-57.1428571428571,4,3,1,100,0,1
68189,-57.1428571428571,4,2,99,5,0,1
68307,-57.1428571428571,4,3,1,100,0,1
68424,-57.1428571428571,4,2,99,5,0,1
68541,-200,4,3,1,100,0,1
69010,-50,4,3,1,100,0,1
69713,-57.1428571428571,4,3,1,100,0,1
69830,-57.1428571428571,4,2,99,5,0,1
69947,-57.1428571428571,4,3,1,100,0,1
70064,-57.1428571428571,4,2,99,5,0,1
70182,-57.1428571428571,4,3,1,100,0,1
71705,-57.1428571428571,4,2,99,5,0,1
71822,-57.1428571428571,4,3,1,100,0,1
71939,-57.1428571428571,4,2,99,5,0,1
72057,-57.1428571428571,4,3,1,100,0,1
72174,-57.1428571428571,4,2,99,5,0,1
72291,-200,4,3,1,100,0,1
72760,-50,4,3,1,100,0,1
73463,-133.333333333333,4,3,1,100,0,1
75104,-133.333333333333,4,3,1,100,0,0
75455,-133.333333333333,4,2,99,5,0,0
75572,-57.1428571428571,4,2,33,100,0,1
75631,-57.1428571428571,4,3,1,100,0,1
75689,-57.1428571428571,4,2,99,5,0,1
75807,-57.1428571428571,4,3,1,100,0,1
75924,-57.1428571428571,4,2,99,5,0,1
76041,-133.333333333333,4,3,1,100,0,1
76510,-50,4,3,1,100,0,1
77213,-57.1428571428571,4,3,1,100,0,1
77330,-57.1428571428571,4,2,99,5,0,1
77447,-57.1428571428571,4,3,1,100,0,1
77564,-57.1428571428571,4,2,99,5,0,1
77682,-57.1428571428571,4,3,1,100,0,1
79205,-57.1428571428571,4,2,99,5,0,1
79322,-57.1428571428571,4,3,1,100,0,1
79439,-57.1428571428571,4,2,99,5,0,1
79557,-57.1428571428571,4,3,1,100,0,1
79674,-57.1428571428571,4,2,99,5,0,1
79791,-133.333333333333,4,3,1,100,0,1
80260,-50,4,3,1,100,0,1
80963,-57.1428571428571,4,3,1,100,0,1
81080,-57.1428571428571,4,2,99,5,0,1
81197,-57.1428571428571,4,3,1,100,0,1
81314,-57.1428571428571,4,2,99,5,0,1
81432,-57.1428571428571,4,3,1,100,0,1
82955,-57.1428571428571,4,2,99,5,0,1
83072,-57.1428571428571,4,3,1,100,0,1
83189,-57.1428571428571,4,2,99,5,0,1
83307,-57.1428571428571,4,3,1,100,0,1
83424,-57.1428571428571,4,2,99,5,0,1
83541,-133.333333333333,4,3,1,100,0,1
84010,-50,4,3,1,100,0,1
84713,-57.1428571428571,4,3,1,100,0,1
84830,-57.1428571428571,4,2,99,5,0,1
84947,-57.1428571428571,4,3,1,100,0,1
85064,-57.1428571428571,4,2,99,5,0,1
85182,-57.1428571428571,4,3,1,100,0,1
86705,-57.1428571428571,4,2,99,5,0,1
86822,-57.1428571428571,4,3,1,100,0,1
86939,-57.1428571428571,4,2,99,5,0,1
87057,-57.1428571428571,4,3,1,100,0,1
87174,-57.1428571428571,4,2,99,5,0,1
87291,-133.333333333333,4,3,1,100,0,1
87760,-50,4,3,1,100,0,1
88463,-133.333333333333,4,3,1,100,0,1
90104,-133.333333333333,4,3,1,100,0,0
90455,-133.333333333333,4,2,99,5,0,0
90572,-57.1428571428571,4,2,33,100,0,1
90631,-57.1428571428571,4,3,1,100,0,1
90689,-57.1428571428571,4,2,99,5,0,1
90807,-57.1428571428571,4,3,1,100,0,1
90924,-57.1428571428571,4,2,99,5,0,1
91041,-133.333333333333,4,3,1,100,0,1
91510,-50,4,3,1,100,0,1
92213,-57.1428571428571,4,3,1,100,0,1
92330,-57.1428571428571,4,2,99,5,0,1
92447,-57.1428571428571,4,3,1,100,0,1
92564,-57.1428571428571,4,2,99,5,0,1
92682,-57.1428571428571,4,3,1,100,0,1
94205,-57.1428571428571,4,2,99,5,0,1
94322,-57.1428571428571,4,3,1,100,0,1
94439,-57.1428571428571,4,2,99,5,0,1
94557,-57.1428571428571,4,3,1,100,0,1
94674,-57.1428571428571,4,2,99,5,0,1
94791,-133.333333333333,4,3,1,100,0,1
95260,-50,4,3,1,100,0,1
95963,-57.1428571428571,4,3,1,100,0,1
96080,-57.1428571428571,4,2,99,5,0,1
96197,-57.1428571428571,4,3,1,100,0,1
96314,-57.1428571428571,4,2,99,5,0,1
96432,-57.1428571428571,4,3,1,100,0,1
97955,-57.1428571428571,4,2,99,5,0,1
98072,-57.1428571428571,4,3,1,100,0,1
98189,-57.1428571428571,4,2,99,5,0,1
98307,-57.1428571428571,4,3,1,100,0,1
98424,-57.1428571428571,4,2,99,5,0,1
98541,-133.333333333333,4,3,1,100,0,1
99010,-50,4,3,1,100,0,1
99713,-57.1428571428571,4,3,1,100,0,1
99830,-57.1428571428571,4,2,99,5,0,1
99947,-57.1428571428571,4,3,1,100,0,1
100064,-57.1428571428571,4,2,99,5,0,1
100182,-57.1428571428571,4,3,1,100,0,1
101588,-66.6666666666667,4,3,1,75,0,0
105104,-166.666666666667,4,3,1,35,0,0
105338,-166.666666666667,4,3,2,32,0,0
105572,-166.666666666667,4,3,1,30,0,0
105807,-166.666666666667,4,3,2,27,0,0
106041,-166.666666666667,4,3,1,25,0,0
106275,-166.666666666667,4,3,2,22,0,0
106510,-166.666666666667,4,3,1,20,0,0
106744,-166.666666666667,4,3,2,17,0,0
106979,-166.666666666667,4,3,1,15,0,0
107213,-166.666666666667,4,3,2,12,0,0
107447,-166.666666666667,4,3,1,10,0,0
107682,-166.666666666667,4,3,2,7,0,0
107916,-166.666666666667,4,3,1,5,0,0

[Colours]
Combo1 : 173,252,248
Combo2 : 255,188,192
Combo3 : 255,196,255
Combo4 : 206,107,167

[HitObjects]
78,93,104,6,0,L|54:75,3,22.5,2|0|0|0,0:3|0:0|0:0|0:0,0:0:0:0:
147,65,572,2,0,L|150:36,1,22.5
206,112,807,2,0,L|232:101,1,22.5,2|0,0:3|0:0,0:0:0:0:
136,139,1041,1,0,0:0:0:0:
136,139,1744,1,0,0:0:0:0:
206,249,1979,6,0,L|236:243,3,22.5,2|0|0|0,0:3|0:0|0:0|0:0,0:0:0:0:
337,128,2447,2,0,L|327:156,1,22.5
376,301,2682,2,0,L|355:278,1,22.5,2|0,0:3|0:0,0:0:0:0:
306,226,2916,5,0,0:0:0:0:
437,122,3150,1,0,0:0:0:0:
417,196,3268,1,0,0:0:0:0:
491,176,3385,1,0,0:0:0:0:
356,41,3619,1,0,0:0:0:0:
306,226,3854,6,0,L|296:254,3,22.5,2|0|0|0,0:3|0:0|0:0|0:0,0:0:0:0:
268,347,4322,2,0,L|247:324,1,22.5
183,253,4557,2,0,L|213:247,1,22.5,2|0,0:3|0:0,0:0:0:0:
306,226,4791,1,0,0:0:0:0:
306,226,5494,1,0,0:0:0:0:
114,143,5729,6,0,L|109:112,3,22.5,2|0|0|0,0:3|0:0|0:0|0:0,0:0:0:0:
187,131,6197,2,0,L|182:100,3,22.5,0|0|2|0,0:0|0:0|0:3|0:0,0:0:0:0:
339,54,6666,5,0,0:0:0:0:
92,35,6900,1,0,0:0:0:0:
311,158,7135,1,0,0:0:0:0:
114,143,7369,1,0,0:0:0:0:
295,250,7604,6,0,L|290:281,3,22.5,2|0|0|0,0:3|0:0|0:0|0:0,0:0:0:0:
375,306,8072,2,0,L|349:324,1,22.5
201,277,8307,2,0,L|219:302,1,22.5,2|0,0:3|0:0,0:0:0:0:
272,363,8541,1,0,0:0:0:0:
272,363,9244,1,0,0:0:0:0:
125,335,9479,6,0,L|102:330,3,22.5,2|0|0|0,0:3|0:0|0:0|0:0,0:0:0:0:
96,234,9947,2,0,L|77:246,1,22.5
4,183,10182,2,0,L|0:205,1,22.5,2|0,0:3|0:0,0:0:0:0:
156,183,10416,1,0,0:0:0:0:
134,77,10650,5,0,0:0:0:0:
126,100,10768,1,0,0:0:0:0:
150,95,10885,1,0,0:0:0:0:
28,55,11119,1,0,0:0:0:0:
217,22,11354,6,0,L|221:-6,3,22.5,2|0|0|0,0:3|0:0|0:0|0:0,0:0:0:0:
296,29,11822,2,0,L|322:18,1,22.5
349,89,12057,2,0,L|371:106,1,22.5,2|0,0:3|0:0,0:0:0:0:
335,171,12291,1,0,0:0:0:0:
335,171,12994,1,0,0:0:0:0:
394,229,13229,6,0,L|421:226,3,22.5,2|0|0|0,0:3|0:0|0:0|0:0,0:0:0:0:
298,240,13697,2,0,L|271:243,3,22.5,0|0|2|0,0:0|0:0|0:3|0:0,0:0:0:0:
400,355,14166,5,0,0:0:0:0:
429,150,14401,1,0,0:0:0:0:
316,313,14634,1,0,0:0:0:0:
337,171,14869,1,0,0:0:0:0:
171,257,15104,6,0,L|210:252,3,29.2499986610413,2|0|0|0,0:3|0:0|0:0|0:0,0:0:0:0:
160,187,15572,2,0,L|199:182,3,29.2499986610413,2|0|2|0,0:3|0:0|0:3|0:0,0:0:0:0:
277,128,16041,2,0,L|238:123,3,29.2499986610413,2|0|0|0,0:3|0:0|0:0|0:0,0:0:0:0:
288,58,16510,2,0,L|249:53,3,29.2499986610413,2|0|0|0,0:3|0:0|0:0|0:0,0:0:0:0:
90,0,16979,6,0,P|75:0|61:3,3,29.2499986610413,2|0|0|0,0:3|0:0|0:0|0:0,0:0:0:0:
56,71,17447,2,0,P|45:81|38:93,3,29.2499986610413,2|0|2|0,0:3|0:0|0:3|0:0,0:0:0:0:
84,146,17916,2,0,P|83:160|87:174,3,29.2499986610413,2|0|0|0,0:3|0:0|0:0|0:0,0:0:0:0:
176,235,18385,2,0,P|163:227|149:223,1,29.2499986610413,2|0,0:3|0:0,0:0:0:0:
52,270,18619,2,0,P|64:263|74:252,1,29.2499986610413
179,353,18854,6,0,L|177:323,3,29.2499986610413,2|0|0|0,0:3|0:0|0:0|0:0,0:0:0:0:
253,349,19322,2,0,L|251:319,3,29.2499986610413,2|0|2|0,0:3|0:0|0:3|0:0,0:0:0:0:
323,237,19791,2,0,L|321:266,3,29.2499986610413,2|0|0|0,0:3|0:0|0:0|0:0,0:0:0:0:
397,241,20260,2,0,L|395:270,3,29.2499986610413,2|0|0|0,0:3|0:0|0:0|0:0,0:0:0:0:
318,137,20729,6,0,P|306:145|292:150,3,29.2499986610413,2|0|0|0,0:3|0:0|0:0|0:0,0:0:0:0:
374,87,21197,2,0,P|360:80|349:71,3,29.2499986610413,2|0|2|0,0:3|0:0|0:3|0:0,0:0:0:0:
445,110,21666,2,0,P|443:95|446:81,3,29.2499986610413,2|0|0|0,0:3|0:0|0:0|0:0,0:0:0:0:
460,182,22135,2,0,P|471:173|485:168,3,29.2499986610413,2|0|0|0,0:3|0:0|0:0|0:0,0:0:0:0:
399,274,22604,6,0,L|397:241,3,33.7500012874604,8|0|0|0,0:0|0:0|0:0|0:0,0:0:0:0:
443,333,23072,2,0,L|472:347,1,33.7500012874604,8|0,0:0|0:0,0:0:0:0:
366,338,23307,2,0,L|338:356,1,33.7500012874604,2|0,0:3|0:0,0:0:0:0:
231,247,23541,6,0,L|264:249,3,33.7500012874604,8|0|0|0,0:0|0:0|0:0|0:0,0:0:0:0:
261,350,24010,2,0,L|227:347,3,33.7500012874604,8|0|0|0,0:0|0:0|0:0|0:0,0:0:0:0:
85,344,24479,6,0,P|74:332|69:316,3,33.7500012874604,8|0|0|0,0:0|0:0|0:0|0:0,0:0:0:0:
5,290,24947,2,0,P|10:274|21:261,1,33.7500012874604,8|0,0:0|0:0,0:0:0:0:
12,192,25182,2,0,P|28:188|44:192,1,33.7500012874604,2|0,0:3|0:0,0:0:0:0:
143,207,25416,6,0,L|138:250,3,33.7500012874604,8|0|0|0,0:0|0:0|0:0|0:0,0:0:0:0:
233,155,25885,2,0,L|228:112,1,33.7500012874604,8|0,0:0|0:0,0:0:0:0:
114,78,26119,2,0,L|109:121,1,33.7500012874604,2|0,0:3|0:0,0:0:0:0:
251,20,26354,6,0,P|265:36|286:43,3,33.7500012874604,8|0|0|0,0:0|0:0|0:0|0:0,0:0:0:0:
323,104,26822,2,0,P|344:105|364:95,1,33.7500012874604,8|0,0:0|0:0,0:0:0:0:
433,112,27057,2,0,P|448:97|456:76,1,33.7500012874604,2|0,0:3|0:0,0:0:0:0:
504,175,27291,6,0,P|483:179|466:193,3,33.7500012874604,8|0|0|0,0:0|0:0|0:0|0:0,0:0:0:0:
395,195,27759,2,0,P|383:212|381:234,3,33.7500012874604,8|0|0|0,0:0|0:0|0:0|0:0,0:0:0:0:
380,364,28229,6,0,L|385:318,3,33.7500012874604,8|0|0|0,0:0|0:0|0:0|0:0,0:0:0:0:
304,353,28697,2,0,L|309:307,1,33.7500012874604,8|0,0:0|0:0,0:0:0:0:
228,342,28932,2,0,L|233:296,1,33.7500012874604,2|0,0:3|0:0,0:0:0:0:
160,219,29166,6,0,L|165:265,3,33.7500012874604,8|0|0|0,0:0|0:0|0:0|0:0,0:0:0:0:
84,230,29635,2,0,L|89:276,3,33.7500012874604,8|0|0|0,0:0|0:0|0:0|0:0,0:0:0:0:
8,241,30104,1,4,2:0:0:0:
84,95,30338,6,0,P|121:87|155:104,1,76.5000014591217
240,32,30807,2,0,B|245:100|245:100|243:110|243:110|250:184,1,153.000002918243,2|0,0:3|0:0,0:0:0:0:
408,193,31510,2,0,P|357:195|329:280,1,153.000002918243,0|2,0:0|0:3,0:0:0:0:
424,288,32213,5,0,0:0:0:0:
325,366,32447,1,0,0:0:0:0:
236,261,32682,2,0,B|162:250|162:250|153:253|153:253|74:242,1,153.000002918243,2|0,0:3|0:0,0:0:0:0:
149,174,33385,1,0,0:0:0:0:
149,174,33502,1,0,0:0:0:0:
149,174,33619,1,0,0:0:0:0:
236,261,33854,5,2,0:3:0:0:
283,148,34088,2,0,L|275:69,1,76.5000014591217
167,36,34557,2,0,B|130:79|130:79|153:173,1,153.000002918243,2|0,0:3|0:0,0:0:0:0:
78,263,35260,2,0,P|149:271|167:341,1,153.000002918243,0|2,0:0|0:3,0:0:0:0:
313,247,35963,5,0,0:0:0:0:
266,360,36197,1,0,0:0:0:0:
387,345,36432,2,0,B|391:276|391:276|397:267|397:267|401:183,1,153.000002918243,2|0,0:3|0:0,0:0:0:0:
482,264,37135,1,0,0:0:0:0:
482,264,37252,1,0,0:0:0:0:
482,264,37369,1,0,0:0:0:0:
313,247,37604,5,2,0:3:0:0:
336,130,37838,2,0,L|251:141,1,76.5000014591217
353,16,38307,2,0,B|389:-13|389:-13|494:5,1,153.000002918243,2|0,0:3|0:0,0:0:0:0:
411,120,39010,2,0,L|336:130,1,76.5000014591217
179,30,39479,6,0,P|162:65|182:111,1,76.5000014591217,2|0,0:3|0:0,0:0:0:0:
267,73,39947,1,0,0:0:0:0:
56,1,40182,2,0,B|63:70|63:70|62:78|62:78|72:157,1,153.000002918243,2|0,0:3|0:0,0:0:0:0:
171,215,40885,1,0,0:0:0:0:
171,215,41002,1,0,0:0:0:0:
171,215,41119,1,0,0:0:0:0:
205,294,41354,6,0,P|169:306|134:293,1,76.5000014591217,2|0,0:3|0:0,0:0:0:0:
286,307,41705,2,0,P|314:331|320:368,1,76.5000014591217,2|0,0:3|0:0,0:0:0:0:
258,229,42057,1,2,0:3:0:0:
375,179,42291,1,2,0:3:0:0:
433,223,42408,2,0,L|423:313,1,76.5000014591217,2|2,0:3|0:3,0:0:0:0:
367,171,42760,2,0,L|363:137,3,19.1250003647804,2|0|0|0,0:3|0:0|0:0|0:0,0:0:0:0:
438,87,42994,1,0,0:0:0:0:
438,87,43111,1,0,0:0:0:0:
438,87,43229,6,0,L|356:79,1,76.5000014591217,2|0,0:3|0:0,0:0:0:0:
250,23,43580,1,2,0:3:0:0:
251,9,43697,2,0,L|339:0,1,76.5000014591217,2|2,0:3|0:3,0:0:0:0:
109,141,44166,1,2,0:3:0:0:
181,123,44283,2,0,P|167:88|121:71,1,76.5000014591217,2|2,0:3|0:3,0:0:0:0:
238,180,44635,2,0,L|234:205,3,19.1250003647804,2|0|0|0,0:3|0:0|0:0|0:0,0:0:0:0:
165,243,44870,1,0,0:0:0:0:
165,243,44987,1,0,0:0:0:0:
165,243,45104,6,0,L|74:230,1,85.4999977169037,2|0,0:3|0:0,0:0:0:0:
61,315,45455,2,0,L|145:327,1,85.4999977169037,2|0,0:3|0:0,0:0:0:0:
157,323,45807,1,2,0:3:0:0:
331,222,46041,1,2,0:3:0:0:
260,271,46158,2,0,L|278:361,1,85.4999977169037,2|2,0:3|0:3,0:0:0:0:
365,325,46510,2,0,L|402:331,3,21.3749994292259,2|0|0|0,0:3|0:0|0:0|0:0,0:0:0:0:
440,268,46744,1,0,0:0:0:0:
440,268,46862,1,0,0:0:0:0:
440,268,46979,6,0,L|432:171,1,85.4999977169037,2|0,0:3|0:0,0:0:0:0:
338,136,47330,2,0,L|330:233,1,85.4999977169037,2|0,0:3|0:0,0:0:0:0:
246,162,47682,1,2,0:3:0:0:
307,5,47916,1,2,0:3:0:0:
275,71,48033,6,0,L|180:80,1,85.4999977169037,2|2,0:3|0:3,0:0:0:0:
128,27,48385,2,0,L|133:-7,3,21.3749994292259,2|0|0|0,0:3|0:0|0:0|0:0,0:0:0:0:
61,102,48619,1,0,0:0:0:0:
61,102,48736,1,0,0:0:0:0:
61,102,48854,6,0,P|37:141|68:204,1,103.500001974106,2|0,0:3|0:0,0:0:0:0:
208,199,49205,2,0,P|232:160|201:97,1,103.500001974106,2|0,0:3|0:0,0:0:0:0:
135,145,49557,1,2,0:3:0:0:
112,336,49791,1,2,0:3:0:0:
153,275,49908,2,0,L|257:288,1,103.500001974106,2|2,0:3|0:3,0:0:0:0:
327,254,50260,2,0,L|331:224,3,25.8750004935265,2|0|0|0,0:3|0:0|0:0|0:0,0:0:0:0:
400,306,50494,1,0,0:0:0:0:
400,306,50611,1,0,0:0:0:0:
400,306,50729,6,0,L|416:185,1,103.500001974106,2|0,0:3|0:0,0:0:0:0:
272,74,51080,2,0,B|254:123|254:123|282:167,1,103.500001974106,2|0,0:3|0:0,0:0:0:0:
421,114,51432,1,2,0:3:0:0:
297,3,51666,1,2,0:3:0:0:
272,74,51783,2,0,L|154:84,1,103.500001974106,2|2,0:3|0:3,0:0:0:0:
55,34,52135,2,0,L|63:64,3,25.8750004935265,2|0|0|0,0:3|0:0|0:0|0:0,0:0:0:0:
89,157,52369,1,2,0:3:0:0:
89,157,52486,1,2,0:3:0:0:
89,157,52604,6,0,L|15:149,1,58.4999973220826,2|0,0:3|0:0,0:0:0:0:
97,232,52838,2,0,L|23:224,1,58.4999973220826,2|2,0:3|0:3,0:0:0:0:
188,288,53072,2,0,L|262:280,1,58.4999973220826,2|0,0:3|0:0,0:0:0:0:
180,363,53307,2,0,L|254:355,1,58.4999973220826,2|2,0:3|0:3,0:0:0:0:
320,212,53541,6,0,P|291:211|267:194,1,58.4999973220826,2|0,0:3|0:0,0:0:0:0:
396,286,53775,2,0,P|368:294|350:316,1,58.4999973220826,2|2,0:3|0:3,0:0:0:0:
429,184,54010,2,0,L|435:144,3,29.2499986610413,2|0|0|0,0:3|0:0|0:0|0:0,0:0:0:0:
383,85,54244,1,2,0:3:0:0:
383,85,54361,1,2,0:3:0:0:
383,85,54479,6,0,L|304:90,1,58.4999973220826,2|0,0:3|0:0,0:0:0:0:
351,3,54713,2,0,L|272:8,1,58.4999973220826,2|2,0:3|0:3,0:0:0:0:
227,114,54947,2,0,L|148:109,1,58.4999973220826,2|0,0:3|0:0,0:0:0:0:
195,196,55181,2,0,L|116:191,1,58.4999973220826,2|2,0:3|0:3,0:0:0:0:
54,12,55416,6,0,P|62:39|53:66,1,58.4999973220826,2|0,0:3|0:0,0:0:0:0:
74,143,55650,2,0,P|54:164|26:169,1,58.4999973220826,2|2,0:3|0:3,0:0:0:0:
9,277,55885,2,0,L|75:269,1,58.4999973220826,2|0,0:3|0:0,0:0:0:0:
168,378,56119,1,2,0:3:0:0:
168,378,56236,1,2,0:3:0:0:
168,378,56354,6,0,L|190:250,1,116.999994644165,2|2,0:3|0:3,0:0:0:0:
274,225,56705,1,2,0:3:0:0:
261,301,56822,2,0,L|251:358,1,58.4999973220826,2|0,0:3|0:0,0:0:0:0:
337,325,57057,2,0,L|329:369,1,45,2|2,0:3|0:3,0:0:0:0:
413,347,57291,6,0,L|407:380,3,33.7500012874604,2|0|2|2,0:3|0:0|0:3|0:3,0:0:0:0:
491,319,57760,2,0,L|485:285,3,33.7500012874604,2|0|2|2,0:3|0:0|0:3|0:3,0:0:0:0:
421,248,58229,2,0,L|426:214,1,33.7500012874604,2|0,0:3|0:0,0:0:0:0:
471,103,58463,6,0,L|473:125,1,22.5,2|2,0:3|0:3,0:0:0:0:
385,137,58697,2,0,L|390:92,1,45,2|0,0:3|0:0,0:0:0:0:
299,82,58932,2,0,L|307:148,1,67.5000025749208,2|2,0:3|0:3,0:0:0:0:
175,306,59166,6,0,B|241:298|241:298|249:300|249:300|322:291,1,135.000005149842,8|2,0:0|0:3,0:0:0:0:
118,216,59635,1,2,0:3:0:0:
69,325,59752,1,2,0:3:0:0:
0,227,59869,1,2,0:3:0:0:
273,199,60104,5,4,0:0:0:0:
183,15,60338,2,0,B|143:6|143:6|108:20,1,78.7500007510185,2|0,0:0|0:0,0:0:0:0:
119,216,60572,2,0,B|159:225|159:225|193:210,1,78.7500007510185,2|0,1:3|0:0,0:0:0:0:
279,80,60807,2,0,B|276:112|276:112|279:115|279:115|276:158,1,78.7500007510185,2|0,0:0|0:0,0:0:0:0:
152,138,61041,6,0,L|149:94,1,45,0|0,1:0|0:0,0:0:0:0:
451,75,61510,2,0,B|479:-15|365:-30|323:26|336:115|427:159|371:258,1,360,2|0,1:3|1:0,0:0:0:0:
155,337,62213,6,0,P|187:357|231:344,1,78.7500007510185,2|0,0:0|0:0,0:0:0:0:
249,165,62447,2,0,P|217:145|173:158,1,78.7500007510185,2|0,1:3|0:0,0:0:0:0:
119,255,62682,2,0,B|195:249|195:249|201:254|201:254|277:248,1,157.500001502037,2|0,0:0|1:0,0:0:0:0:
104,101,63150,5,2,0:0:0:0:
360,149,63385,1,0,1:0:0:0:
288,35,63502,1,2,0:0:0:0:
249,165,63619,1,2,0:0:0:0:
482,126,63854,5,0,1:0:0:0:
360,149,64088,2,0,P|356:187|381:215,1,78.7500007510185,2|0,0:0|0:0,0:0:0:0:
502,309,64322,2,0,P|471:286|433:294,1,78.7500007510185,2|0,1:3|0:0,0:0:0:0:
318,369,64557,2,0,B|313:333|313:333|316:326|316:326|309:287,1,78.7500007510185,2|0,0:0|0:0,0:0:0:0:
249,165,64791,6,0,L|243:215,1,45,0|0,1:0|0:0,0:0:0:0:
30,307,65260,2,0,B|51:396|179:393|225:269|130:224|127:225|123:227|92:216|76:165|114:128,1,360,2|0,1:3|1:0,0:0:0:0:
287,23,65963,6,0,B|248:26|248:26|243:30|243:30|208:32,1,78.7500007510185,2|0,0:0|0:0,0:0:0:0:
105,138,66197,2,0,B|138:140|138:140|143:144|143:144|182:147,1,78.7500007510185,2|0,1:3|0:0,0:0:0:0:
345,213,66432,2,0,P|326:171|400:99,1,157.500001502037,2|0,0:0|1:0,0:0:0:0:
209,32,66900,5,2,0:0:0:0:
268,316,67135,1,0,1:0:0:0:
345,213,67252,1,2,0:0:0:0:
447,289,67369,1,2,0:0:0:0:
263,156,67604,5,0,1:0:0:0:
79,313,67838,2,0,P|70:350|89:384,1,78.7500007510185,2|0,0:0|0:0,0:0:0:0:
156,128,68072,2,0,P|127:101|89:101,1,78.7500007510185,2|0,1:3|0:0,0:0:0:0:
277,287,68307,2,0,P|313:275|333:242,1,78.7500007510185,2|0,0:0|0:0,0:0:0:0:
171,243,68541,6,0,L|178:294,1,45,0|0,1:0|0:0,0:0:0:0:
294,83,69010,2,0,B|367:66|382:-39|276:-84|176:8|256:147|328:185,1,360,2|0,1:3|1:0,0:0:0:0:
487,15,69713,6,0,B|447:6|447:6|410:28,1,78.7500007510185,2|0,0:0|0:0,0:0:0:0:
300,164,69947,2,0,B|340:173|340:173|377:151,1,78.7500007510185,2|0,1:3|0:0,0:0:0:0:
512,103,70182,2,0,B|505:181|505:181|498:189|498:189|491:267,1,157.500001502037,2|0,0:0|1:0,0:0:0:0:
286,300,70650,5,2,0:0:0:0:
439,356,70885,1,0,1:0:0:0:
348,247,71002,1,2,0:0:0:0:
300,380,71119,1,2,0:0:0:0:
133,244,71354,5,0,1:0:0:0:
258,104,71588,2,0,P|265:141|245:174,1,78.7500007510185,2|0,0:0|0:0,0:0:0:0:
50,149,71822,2,0,P|32:114|44:77,1,78.7500007510185,2|0,1:3|0:0,0:0:0:0:
171,1,72057,2,0,L|160:79,1,78.7500007510185,2|0,0:0|0:0,0:0:0:0:
133,244,72291,6,0,L|127:199,1,45,0|0,1:0|0:0,0:0:0:0:
247,32,72760,2,0,B|246:21|246:21|281:-8|340:1|358:49|354:52|351:55|368:125|449:140|497:93|497:93|486:66|505:29,1,360,2|0,1:3|1:0,0:0:0:0:
290,357,73463,5,2,0:0:0:0:
278,264,73697,1,2,1:3:0:0:
266,171,73932,2,0,L|257:97,1,67.5000025749208,2|0,0:0|1:0,0:0:0:0:
185,228,74400,5,2,0:0:0:0:
360,208,74635,1,0,1:0:0:0:
376,278,74752,1,2,0:0:0:0:
432,233,74869,1,2,0:0:0:0:
376,278,75338,6,0,L|384:323,1,33.7500012874604,2|0,0:0|0:0,0:0:0:0:
266,171,75572,2,0,B|269:138|269:138|273:130|273:130|277:92,1,78.7500007510185,4|0,2:0|0:0,0:0:0:0:
140,293,75807,2,0,P|175:308|187:344,1,78.7500007510185,2|0,0:0|0:0,0:0:0:0:
376,278,76041,6,0,L|306:268,1,67.5000025749208,0|0,1:0|0:0,0:0:0:0:
45,156,76510,2,0,B|41:172|41:172|115:199|179:142|145:107|199:42|294:48|330:125,1,360,2|0,1:3|1:0,0:0:0:0:
54,0,77213,6,0,P|86:21|95:58,1,78.7500007510185,2|0,0:0|0:0,0:0:0:0:
210,216,77447,2,0,P|229:182|266:170,1,78.7500007510185,2|0,1:3|0:0,0:0:0:0:
391,11,77682,2,0,B|321:4|321:4|298:14|298:14|234:8,1,157.500001502037,2|0,0:0|1:0,0:0:0:0:
407,150,78150,5,2,0:0:0:0:
210,216,78385,1,0,1:0:0:0:
306,103,78502,1,2,0:0:0:0:
355,243,78619,1,2,0:0:0:0:
192,85,78854,5,0,1:0:0:0:
5,212,79088,2,0,P|34:237|72:238,1,78.7500007510185,2|0,0:0|0:0,0:0:0:0:
222,287,79322,2,0,P|228:248|209:215,1,78.7500007510185,2|0,1:3|0:0,0:0:0:0:
192,85,79557,2,0,B|156:87|156:87|152:89|152:89|114:93,1,78.7500007510185,2|0,0:0|0:0,0:0:0:0:
355,243,79791,6,0,L|346:167,1,67.5000025749208,0|0,1:0|0:0,0:0:0:0:
438,27,80260,2,0,B|484:-10|551:27|554:105|494:182|384:138|412:48|352:39|290:68,1,360,2|0,1:3|1:0,0:0:0:0:
442,326,80963,6,0,B|458:290|458:290|448:253,1,78.7500007510185,2|0,0:0|0:0,0:0:0:0:
210,216,81197,2,0,B|193:251|193:251|203:288,1,78.7500007510185,2|0,1:3|0:0,0:0:0:0:
368,361,81432,2,0,P|300:330|247:381,1,157.500001502037,2|0,0:0|1:0,0:0:0:0:
386,212,81900,5,2,0:0:0:0:
149,162,82135,1,0,1:0:0:0:
194,294,82252,1,2,0:0:0:0:
286,190,82369,1,2,0:0:0:0:
78,256,82604,5,0,1:0:0:0:
112,14,82838,2,0,P|149:6|181:27,1,78.7500007510185,2|0,0:0|0:0,0:0:0:0:
45,175,83072,2,0,P|19:146|21:107,1,78.7500007510185,2|0,1:3|0:0,0:0:0:0:
217,132,83307,2,0,B|220:169|220:169|217:179|217:179|220:211,1,78.7500007510185,2|0,0:0|0:0,0:0:0:0:
70,323,83541,6,0,L|78:256,1,67.5000025749208,0|0,1:0|0:0,0:0:0:0:
368,361,84010,2,0,B|449:371|455:278|413:235|339:231|293:276|297:349|188:316,1,360,2|0,1:3|1:0,0:0:0:0:
402,116,84713,6,0,B|421:154|421:154|411:188,1,78.7500007510185,2|0,0:0|0:0,0:0:0:0:
219,210,84947,2,0,B|200:178|200:178|209:137,1,78.7500007510185,2|0,1:3|0:0,0:0:0:0:
414,34,85182,2,0,B|333:23|333:23|326:25|326:25|234:13,1,157.500001502037,2|0,0:0|1:0,0:0:0:0:
310,164,85650,5,2,0:0:0:0:
56,154,85885,1,0,1:0:0:0:
118,13,86002,1,2,0:0:0:0:
209,137,86119,1,2,0:0:0:0:
14,257,86354,5,0,1:0:0:0:
173,346,86588,2,0,P|197:315|195:277,1,78.7500007510185,2|0,0:0|0:0,0:0:0:0:
56,154,86822,2,0,P|69:189|104:207,1,78.7500007510185,2|0,1:3|0:0,0:0:0:0:
287,124,87057,2,0,B|249:129|249:129|242:132|242:132|210:137,1,78.7500007510185,2|0,0:0|0:0,0:0:0:0:
329,236,87291,6,0,L|402:243,1,67.5000025749208,0|0,1:0|0:0,0:0:0:0:
348,64,87760,2,0,B|356:37|356:37|332:-17|247:-29|195:17|219:55|179:95|113:103|71:56,1,360,2|0,1:3|1:0,0:0:0:0:
83,267,88463,5,2,0:0:0:0:
172,255,88697,1,2,1:3:0:0:
262,244,88932,2,0,L|328:235,1,67.5000025749208,2|0,0:0|1:0,0:0:0:0:
210,175,89400,5,2,0:0:0:0:
136,337,89635,1,0,1:0:0:0:
226,327,89752,1,2,0:0:0:0:
172,255,89869,1,2,0:0:0:0:
136,337,90338,6,0,L|144:377,1,33.7500012874604,2|0,0:0|0:0,0:0:0:0:
262,244,90572,2,0,P|285:213|323:207,1,78.7500007510185,4|0,2:0|0:0,0:0:0:0:
113,184,90807,2,0,P|89:154|51:148,1,78.7500007510185,2|0,0:0|0:0,0:0:0:0:
226,31,91041,6,0,L|218:98,1,67.5000025749208,0|0,1:0|0:0,0:0:0:0:
458,237,91510,2,0,B|480:137|361:125|329:191|339:286|402:328|402:328|424:314|447:319,1,360,2|0,1:3|1:0,0:0:0:0:
272,172,92213,6,0,B|251:206|251:206|261:243,1,78.7500007510185,2|0,0:0|0:0,0:0:0:0:
401,87,92447,2,0,B|411:49|411:49|390:15,1,78.7500007510185,2|0,1:3|0:0,0:0:0:0:
136,148,92682,2,0,P|197:192|271:173,1,157.500001502037,2|0,0:0|1:0,0:0:0:0:
116,271,93150,5,2,0:0:0:0:
39,69,93385,1,0,1:0:0:0:
136,148,93502,1,2,0:0:0:0:
253,104,93619,1,2,0:0:0:0:
19,192,93854,5,0,1:0:0:0:
152,10,94088,2,0,P|177:38|178:77,1,78.7500007510185,2|0,0:0|0:0,0:0:0:0:
19,192,94322,2,0,P|31:155|64:135,1,78.7500007510185,2|0,1:3|0:0,0:0:0:0:
193,282,94557,2,0,L|103:269,1,78.7500007510185,2|0,0:0|0:0,0:0:0:0:
253,104,94791,6,0,L|319:94,1,67.5000025749208,0|0,1:0|0:0,0:0:0:0:
433,260,95260,2,0,B|508:249|521:168|438:101|322:183|440:357,1,360,2|0,1:3|1:0,0:0:0:0:
245,35,95963,6,0,B|267:67|267:67|253:104,1,78.7500007510185,2|0,0:0|0:0,0:0:0:0:
484,83,96197,2,0,B|462:51|462:51|476:14,1,78.7500007510185,2|0,1:3|0:0,0:0:0:0:
353,157,96432,2,0,L|366:-12,1,157.500001502037,2|0,0:0|1:0,0:0:0:0:
166,78,96900,5,2,0:0:0:0:
261,292,97135,1,0,1:0:0:0:
208,172,97252,1,2,0:0:0:0:
112,261,97369,1,2,0:0:0:0:
304,384,97604,5,0,1:0:0:0:
43,341,97838,2,0,P|22:302|41:253,1,78.7500007510185,2|0,0:0|0:0,0:0:0:0:
129,161,98072,2,0,L|208:172,1,78.7500007510185,2|0,1:3|0:0,0:0:0:0:
261,292,98307,2,0,L|182:302,1,78.7500007510185,2|0,0:0|0:0,0:0:0:0:
46,149,98541,6,0,L|41:81,1,67.5000025749208,0|0,1:0|0:0,0:0:0:0:
311,204,99010,2,0,B|363:225|409:159|377:91|291:95|281:158|281:158|259:297,1,360,2|0,1:3|1:0,0:0:0:0:
376,37,99713,6,0,P|411:52|450:45,1,78.7500007510185,2|0,0:0|0:0,0:0:0:0:
311,204,99947,2,0,P|272:197|236:212,1,78.7500007510185,2|0,1:3|0:0,0:0:0:0:
462,339,100182,2,0,B|454:269|454:269|458:259|458:259|449:174,1,157.500001502037,2|0,0:0|1:0,0:0:0:0:
351,381,100650,1,2,0:0:0:0:
152,180,100885,5,0,1:0:0:0:
311,204,101002,1,2,0:0:0:0:
216,327,101119,1,2,0:0:0:0:
0,61,101588,5,2,0:0:0:0:
186,85,101822,1,2,0:0:0:0:
17,166,102057,1,2,0:3:0:0:
152,180,102291,2,0,L|17:166,1,135.000005149842
97,332,102760,6,0,B|171:362|229:314|204:270|265:222|333:258,1,270.000010299683,2|0,0:3|0:0,0:0:0:0:
388,23,103463,5,2,0:3:0:0:
262,156,103697,1,2,0:3:0:0:
452,198,103932,2,0,L|474:52,1,135.000005149842,2|0,0:3|0:0,0:0:0:0:
369,117,104400,1,2,0:3:0:0:
435,274,104635,5,0,1:0:0:0:
421,288,104752,1,2,0:0:0:0:
438,294,104869,1,2,0:0:0:0:
235,360,105104,6,0,B|215:302|184:277|144:310|72:238|86:152|164:119|215:156|215:156|252:113|340:116|363:200|323:294|267:267|249:295|247:332,1,647.99998022461
