osu file format v14

[General]
AudioFilename: audio.mp3
AudioLeadIn: 0
PreviewTime: 52160
Countdown: 0
SampleSet: Soft
StackLeniency: 0.7
Mode: 3
LetterboxInBreaks: 0
SpecialStyle: 0
WidescreenStoryboard: 1

[Editor]
Bookmarks: 37629,45129,127629,142629,155754,165129,170754,204504
DistanceSpacing: 0.8
BeatDivisor: 4
GridSize: 32
TimelineZoom: 1.8

[Metadata]
Title:Dusk (Radio Edit)
TitleUnicode:Dusk (Radio Edit)
Artist:Tobu & Syndec
ArtistUnicode:Tobu & Syndec
Creator:Maxim-Miau
Version:Another
Source:
Tags:Instrumental Electronic progressive house 7obu 7óbu Toms Burkovskis chordjack jack NoCopyrightSounds No Copyright Sounds NCS release FAMoss
BeatmapID:3686435
BeatmapSetID:1798162

[Difficulty]
HPDrainRate:8
CircleSize:4
OverallDifficulty:8.5
ApproachRate:5
SliderMultiplier:1.4
SliderTickRate:1

[Events]
//Background and Video events
0,0,"Dusk.jpg",0,0
//Break Periods
//Storyboard Layer 0 (Background)
//Storyboard Layer 1 (Fail)
//Storyboard Layer 2 (Pass)
//Storyboard Layer 3 (Foreground)
//Storyboard Layer 4 (Overlay)
//Storyboard Sound Samples
Sample,51217,0,"VEC3 Snares 021.wav",50
Sample,171217,0,"VEC3 Snares 021.wav",50

[TimingPoints]
7624,468.75,4,2,1,70,1,0
31999,-100,4,2,1,60,0,0
33874,-100,4,2,1,50,0,0
35749,-100,4,2,1,40,0,0
37624,-100,4,2,1,70,0,0
52624,-100,4,2,1,70,0,1
67155,-100,4,2,1,70,0,0
67624,-100,4,2,1,70,0,1
82155,-100,4,2,1,70,0,0
82624,-100,4,2,1,70,0,1
97624,-100,4,2,1,50,0,0
112624,-100,4,2,1,60,0,0
127624,-100,4,2,1,70,0,0
172624,-100,4,2,1,70,0,1
187155,-100,4,2,1,70,0,0
187624,-100,4,2,1,70,0,1
202624,-100,4,2,1,70,0,0
203092,-100,4,2,1,70,0,1
217624,-100,4,2,1,70,0,0

[HitObjects]
64,192,7624,5,2,0:0:0:0:
448,192,7624,1,0,0:0:0:0:
320,192,7741,1,0,0:0:0:0:
192,192,7858,1,0,0:0:0:0:
320,192,7975,1,0,0:0:0:0:
448,192,7975,1,0,0:0:0:0:
64,192,8092,1,0,0:0:0:0:
320,192,8209,1,0,0:0:0:0:
64,192,8327,1,0,0:0:0:0:
192,192,8327,1,0,0:0:0:0:
320,192,8444,1,0,0:0:0:0:
448,192,8561,1,0,0:0:0:0:
64,192,8678,1,0,0:0:0:0:
192,192,8795,1,0,0:0:0:0:
320,192,8913,1,0,0:0:0:0:
64,192,9030,1,0,0:0:0:0:
448,192,9147,1,0,0:0:0:0:
320,192,9264,1,0,0:0:0:0:
192,192,9381,1,0,0:0:0:0:
64,192,9499,1,0,0:0:0:0:
448,192,9499,1,0,0:0:0:0:
320,192,9616,1,0,0:0:0:0:
192,192,9733,1,0,0:0:0:0:
320,192,9850,1,0,0:0:0:0:
448,192,9850,1,0,0:0:0:0:
64,192,9967,1,0,0:0:0:0:
192,192,10084,1,0,0:0:0:0:
64,192,10202,1,0,0:0:0:0:
320,192,10202,1,0,0:0:0:0:
192,192,10319,1,0,0:0:0:0:
448,192,10436,1,0,0:0:0:0:
320,192,10553,1,0,0:0:0:0:
192,192,10670,1,0,0:0:0:0:
448,192,10788,1,0,0:0:0:0:
64,192,10905,1,0,0:0:0:0:
320,192,11022,1,0,0:0:0:0:
192,192,11139,1,0,0:0:0:0:
64,192,11256,1,0,0:0:0:0:
320,192,11374,1,0,0:0:0:0:
448,192,11374,1,0,0:0:0:0:
192,192,11491,1,0,0:0:0:0:
448,192,11608,1,0,0:0:0:0:
64,192,11725,1,0,0:0:0:0:
320,192,11725,1,0,0:0:0:0:
192,192,11842,1,0,0:0:0:0:
320,192,11959,1,0,0:0:0:0:
64,192,12077,1,0,0:0:0:0:
448,192,12077,1,0,0:0:0:0:
192,192,12194,1,0,0:0:0:0:
320,192,12311,1,0,0:0:0:0:
64,192,12428,1,0,0:0:0:0:
192,192,12545,1,0,0:0:0:0:
448,192,12663,1,0,0:0:0:0:
64,192,12780,1,0,0:0:0:0:
192,192,12897,1,0,0:0:0:0:
320,192,13014,1,0,0:0:0:0:
448,192,13131,1,0,0:0:0:0:
64,192,13249,1,0,0:0:0:0:
192,192,13249,1,0,0:0:0:0:
320,192,13366,1,0,0:0:0:0:
448,192,13483,1,0,0:0:0:0:
192,192,13600,1,0,0:0:0:0:
320,192,13600,1,0,0:0:0:0:
64,192,13717,1,0,0:0:0:0:
448,192,13834,1,0,0:0:0:0:
64,192,13952,1,0,0:0:0:0:
320,192,13952,1,0,0:0:0:0:
192,192,14069,1,0,0:0:0:0:
320,192,14186,1,0,0:0:0:0:
448,192,14303,1,0,0:0:0:0:
192,192,14420,1,0,0:0:0:0:
320,192,14538,1,0,0:0:0:0:
64,192,14655,1,0,0:0:0:0:
320,192,14772,1,0,0:0:0:0:
64,192,14889,1,0,0:0:0:0:
448,192,14889,1,0,0:0:0:0:
192,192,15006,1,0,0:0:0:0:
320,192,15124,1,0,0:0:0:0:
448,192,15124,1,0,0:0:0:0:
64,192,15241,1,0,0:0:0:0:
192,192,15358,1,0,0:0:0:0:
64,192,15475,1,0,0:0:0:0:
448,192,15475,1,0,0:0:0:0:
320,192,15592,1,0,0:0:0:0:
192,192,15709,1,0,0:0:0:0:
64,192,15827,1,0,0:0:0:0:
320,192,15827,1,0,0:0:0:0:
448,192,15944,1,0,0:0:0:0:
192,192,16061,1,0,0:0:0:0:
320,192,16178,1,0,0:0:0:0:
64,192,16295,1,0,0:0:0:0:
192,192,16413,1,0,0:0:0:0:
448,192,16530,1,0,0:0:0:0:
320,192,16647,1,0,0:0:0:0:
192,192,16764,1,0,0:0:0:0:
448,192,16881,1,0,0:0:0:0:
64,192,16999,1,0,0:0:0:0:
320,192,16999,1,0,0:0:0:0:
192,192,17116,1,0,0:0:0:0:
320,192,17233,1,0,0:0:0:0:
64,192,17350,1,0,0:0:0:0:
448,192,17350,1,0,0:0:0:0:
320,192,17467,1,0,0:0:0:0:
192,192,17584,1,0,0:0:0:0:
320,192,17702,1,0,0:0:0:0:
448,192,17702,1,0,0:0:0:0:
64,192,17819,1,0,0:0:0:0:
192,192,17936,1,0,0:0:0:0:
320,192,18053,1,0,0:0:0:0:
448,192,18170,1,0,0:0:0:0:
192,192,18288,1,0,0:0:0:0:
320,192,18405,1,0,0:0:0:0:
448,192,18522,1,0,0:0:0:0:
64,192,18639,1,0,0:0:0:0:
192,192,18756,1,0,0:0:0:0:
320,192,18874,1,0,0:0:0:0:
448,192,18874,1,0,0:0:0:0:
192,192,18991,1,0,0:0:0:0:
64,192,19108,1,0,0:0:0:0:
192,192,19225,1,0,0:0:0:0:
320,192,19225,1,0,0:0:0:0:
448,192,19342,1,0,0:0:0:0:
192,192,19459,1,0,0:0:0:0:
64,192,19577,1,0,0:0:0:0:
320,192,19577,1,0,0:0:0:0:
192,192,19694,1,0,0:0:0:0:
448,192,19811,1,0,0:0:0:0:
320,192,19928,1,0,0:0:0:0:
192,192,20045,1,0,0:0:0:0:
320,192,20163,1,0,0:0:0:0:
64,192,20280,1,0,0:0:0:0:
192,192,20397,1,0,0:0:0:0:
320,192,20514,1,0,0:0:0:0:
448,192,20631,1,0,0:0:0:0:
64,192,20749,1,0,0:0:0:0:
192,192,20749,1,0,0:0:0:0:
320,192,20866,1,0,0:0:0:0:
448,192,20983,1,0,0:0:0:0:
64,192,21100,1,0,0:0:0:0:
320,192,21100,1,0,0:0:0:0:
192,192,21217,1,0,0:0:0:0:
320,192,21334,1,0,0:0:0:0:
64,192,21452,1,0,0:0:0:0:
448,192,21452,1,0,0:0:0:0:
192,192,21569,1,0,0:0:0:0:
320,192,21686,1,0,0:0:0:0:
320,192,21803,1,0,0:0:0:0:
64,192,21920,1,0,0:0:0:0:
64,192,22038,1,0,0:0:0:0:
448,192,22155,1,0,0:0:0:0:
448,192,22272,1,0,0:0:0:0:
192,192,22389,1,0,0:0:0:0:
448,192,22506,1,0,0:0:0:0:
320,192,22565,1,0,0:0:0:0:
64,192,22624,1,8,0:0:0:0:
192,192,22624,1,0,0:0:0:0:
448,192,22741,1,0,0:0:0:0:
64,192,22858,1,0,0:0:0:0:
192,192,22975,1,0,0:0:0:0:
320,192,22975,1,0,0:0:0:0:
64,192,23092,1,8,0:0:0:0:
448,192,23092,1,0,0:0:0:0:
320,192,23209,1,0,0:0:0:0:
64,192,23327,1,0,0:0:0:0:
192,192,23327,1,0,0:0:0:0:
320,192,23444,1,0,0:0:0:0:
192,192,23561,1,8,0:0:0:0:
448,192,23561,1,0,0:0:0:0:
64,192,23678,1,0,0:0:0:0:
192,192,23795,1,0,0:0:0:0:
448,192,23913,1,0,0:0:0:0:
64,192,24030,1,8,0:0:0:0:
320,192,24030,1,0,0:0:0:0:
192,192,24147,1,0,0:0:0:0:
320,192,24264,1,0,0:0:0:0:
448,192,24381,1,0,0:0:0:0:
64,192,24499,1,8,0:0:0:0:
192,192,24499,1,0,0:0:0:0:
320,192,24616,1,0,0:0:0:0:
448,192,24733,1,0,0:0:0:0:
64,192,24850,1,0,0:0:0:0:
192,192,24850,1,0,0:0:0:0:
320,192,24967,1,8,0:0:0:0:
448,192,24967,1,0,0:0:0:0:
192,192,25084,1,0,0:0:0:0:
64,192,25202,1,0,0:0:0:0:
320,192,25202,1,0,0:0:0:0:
448,192,25319,1,0,0:0:0:0:
192,192,25436,1,8,0:0:0:0:
320,192,25436,1,0,0:0:0:0:
64,192,25553,1,0,0:0:0:0:
448,192,25670,1,0,0:0:0:0:
320,192,25788,1,0,0:0:0:0:
64,192,25905,1,8,0:0:0:0:
192,192,25905,1,0,0:0:0:0:
320,192,26022,1,0,0:0:0:0:
448,192,26139,1,0,0:0:0:0:
64,192,26256,1,0,0:0:0:0:
192,192,26374,1,8,0:0:0:0:
448,192,26374,1,0,0:0:0:0:
320,192,26491,1,0,0:0:0:0:
192,192,26608,1,0,0:0:0:0:
64,192,26725,1,0,0:0:0:0:
448,192,26725,1,0,0:0:0:0:
192,192,26842,1,8,0:0:0:0:
320,192,26842,1,0,0:0:0:0:
448,192,26959,1,0,0:0:0:0:
64,192,27077,1,0,0:0:0:0:
192,192,27077,1,0,0:0:0:0:
320,192,27194,1,0,0:0:0:0:
64,192,27311,1,8,0:0:0:0:
448,192,27311,1,0,0:0:0:0:
192,192,27428,1,0,0:0:0:0:
320,192,27545,1,0,0:0:0:0:
64,192,27663,1,0,0:0:0:0:
192,192,27780,1,8,0:0:0:0:
448,192,27780,1,0,0:0:0:0:
320,192,27897,1,0,0:0:0:0:
192,192,28014,1,0,0:0:0:0:
64,192,28131,1,0,0:0:0:0:
320,192,28249,1,8,0:0:0:0:
448,192,28249,1,0,0:0:0:0:
192,192,28366,1,0,0:0:0:0:
448,192,28483,1,0,0:0:0:0:
64,192,28600,1,0,0:0:0:0:
320,192,28600,1,0,0:0:0:0:
192,192,28717,1,8,0:0:0:0:
448,192,28717,1,0,0:0:0:0:
320,192,28834,1,0,0:0:0:0:
64,192,28952,1,0,0:0:0:0:
192,192,28952,1,0,0:0:0:0:
448,192,29069,1,0,0:0:0:0:
64,192,29186,1,8,0:0:0:0:
320,192,29186,1,0,0:0:0:0:
192,192,29303,1,0,0:0:0:0:
448,192,29420,1,0,0:0:0:0:
320,192,29538,1,0,0:0:0:0:
64,192,29655,1,8,0:0:0:0:
192,192,29655,1,0,0:0:0:0:
448,192,29772,1,0,0:0:0:0:
192,192,29889,1,0,0:0:0:0:
320,192,29889,1,0,0:0:0:0:
64,192,30006,1,0,0:0:0:0:
320,192,30124,1,8,0:0:0:0:
448,192,30124,1,0,0:0:0:0:
192,192,30241,1,0,0:0:0:0:
64,192,30358,1,0,0:0:0:0:
320,192,30475,1,0,0:0:0:0:
448,192,30475,1,0,0:0:0:0:
64,192,30592,1,8,0:0:0:0:
192,192,30592,1,0,0:0:0:0:
320,192,30709,1,0,0:0:0:0:
64,192,30827,1,0,0:0:0:0:
448,192,30827,1,0,0:0:0:0:
192,192,30944,1,0,0:0:0:0:
320,192,31061,1,8,0:0:0:0:
448,192,31061,1,0,0:0:0:0:
64,192,31178,1,0,0:0:0:0:
192,192,31295,1,0,0:0:0:0:
320,192,31413,1,0,0:0:0:0:
64,192,31530,1,8,0:0:0:0:
192,192,31530,1,0,0:0:0:0:
448,192,31647,1,0,0:0:0:0:
320,192,31764,1,0,0:0:0:0:
192,192,31881,1,0,0:0:0:0:
320,192,31999,1,8,0:0:0:0:
448,192,31999,1,0,0:0:0:0:
192,192,32233,1,0,0:0:0:0:
64,192,32350,1,0,0:0:0:0:
320,192,32350,1,0,0:0:0:0:
192,192,32467,1,8,0:0:0:0:
448,192,32467,1,0,0:0:0:0:
320,192,32702,1,0,0:0:0:0:
448,192,32702,1,0,0:0:0:0:
192,192,32819,1,0,0:0:0:0:
64,192,32936,1,8,0:0:0:0:
320,192,32936,1,0,0:0:0:0:
448,192,33170,1,0,0:0:0:0:
64,192,33405,1,8,0:0:0:0:
192,192,33405,1,0,0:0:0:0:
320,192,33639,1,0,0:0:0:0:
192,192,33756,1,0,0:0:0:0:
320,192,33874,1,8,0:0:0:0:
448,192,33874,1,0,0:0:0:0:
64,192,34108,1,0,0:0:0:0:
192,192,34225,1,0,0:0:0:0:
320,192,34225,1,0,0:0:0:0:
64,192,34342,1,8,0:0:0:0:
448,192,34342,1,0,0:0:0:0:
192,192,34577,1,0,0:0:0:0:
320,192,34577,1,0,0:0:0:0:
448,192,34694,1,0,0:0:0:0:
64,192,34811,1,8,0:0:0:0:
320,192,34811,1,0,0:0:0:0:
192,192,35045,1,0,0:0:0:0:
448,192,35163,1,0,0:0:0:0:
64,192,35280,1,8,0:0:0:0:
192,192,35280,1,0,0:0:0:0:
320,192,35514,1,0,0:0:0:0:
192,192,35631,1,0,0:0:0:0:
64,192,35749,1,8,0:0:0:0:
448,192,35749,1,0,0:0:0:0:
192,192,36100,1,0,0:0:0:0:
320,192,36217,1,8,0:0:0:0:
64,192,36452,1,0,0:0:0:0:
448,192,36686,1,8,0:0:0:0:
320,192,36803,1,0,0:0:0:0:
64,192,37038,1,0,0:0:0:0:
192,192,37155,1,8,0:0:0:0:
320,192,37389,1,0,0:0:0:0:
64,192,37624,1,14,0:0:0:0:
192,192,37624,1,0,0:0:0:70:VEC3 Snares 021.wav
192,192,37741,1,0,0:0:0:70:VEC3 Snares 021.wav
320,192,37741,1,0,0:0:0:0:
320,192,37858,1,0,0:0:0:70:VEC3 Snares 021.wav
448,192,37858,1,0,0:0:0:0:
64,192,37975,1,0,0:0:0:70:VEC3 Snares 021.wav
448,192,37975,1,0,0:0:0:0:
64,192,38092,1,8,0:0:0:0:
192,192,38092,1,0,0:0:0:70:VEC3 Snares 021.wav
320,192,38209,1,0,0:0:0:70:VEC3 Snares 021.wav
448,192,38209,1,0,0:0:0:0:
192,192,38327,1,0,0:0:0:70:VEC3 Snares 021.wav
320,192,38327,1,0,0:0:0:0:
64,192,38444,1,0,0:0:0:70:VEC3 Snares 021.wav
192,192,38444,1,0,0:0:0:0:
64,192,38561,1,8,0:0:0:0:
448,192,38561,1,0,0:0:0:70:VEC3 Snares 021.wav
192,192,38678,1,0,0:0:0:70:VEC3 Snares 021.wav
320,192,38678,1,0,0:0:0:0:
64,192,38795,1,0,0:0:0:70:VEC3 Snares 021.wav
448,192,38795,1,0,0:0:0:0:
64,192,38913,1,0,0:0:0:70:VEC3 Snares 021.wav
192,192,38913,1,0,0:0:0:0:
320,192,39030,1,8,0:0:0:0:
448,192,39030,1,0,0:0:0:70:VEC3 Snares 021.wav
192,192,39147,1,0,0:0:0:70:VEC3 Snares 021.wav
320,192,39147,1,0,0:0:0:0:
64,192,39264,1,0,0:0:0:70:VEC3 Snares 021.wav
448,192,39264,1,0,0:0:0:0:
192,192,39323,1,0,0:0:0:70:VEC3 Snares 021.wav
320,192,39381,1,0,0:0:0:70:VEC3 Snares 021.wav
448,192,39440,1,0,0:0:0:70:VEC3 Snares 021.wav
64,192,39499,1,8,0:0:0:0:
192,192,39499,1,0,0:0:0:70:VEC3 Snares 021.wav
192,192,39616,1,0,0:0:0:70:VEC3 Snares 021.wav
320,192,39616,1,0,0:0:0:0:
320,192,39733,1,0,0:0:0:70:VEC3 Snares 021.wav
448,192,39733,1,0,0:0:0:0:
64,192,39850,1,0,0:0:0:70:VEC3 Snares 021.wav
448,192,39850,1,0,0:0:0:0:
192,192,39967,1,8,0:0:0:0:
320,192,39967,1,0,0:0:0:70:VEC3 Snares 021.wav
64,192,40084,1,0,0:0:0:70:VEC3 Snares 021.wav
192,192,40084,1,0,0:0:0:0:
320,192,40202,1,0,0:0:0:70:VEC3 Snares 021.wav
448,192,40202,1,0,0:0:0:0:
192,192,40319,1,0,0:0:0:70:VEC3 Snares 021.wav
320,192,40319,1,0,0:0:0:0:
64,192,40436,1,8,0:0:0:0:
448,192,40436,1,0,0:0:0:70:VEC3 Snares 021.wav
192,192,40553,1,0,0:0:0:70:VEC3 Snares 021.wav
448,192,40553,1,0,0:0:0:0:
320,192,40670,1,0,0:0:0:70:VEC3 Snares 021.wav
448,192,40670,1,0,0:0:0:0:
64,192,40788,1,0,0:0:0:70:VEC3 Snares 021.wav
192,192,40788,1,0,0:0:0:0:
64,192,40905,1,8,0:0:0:0:
448,192,40905,1,0,0:0:0:70:VEC3 Snares 021.wav
192,192,41022,1,0,0:0:0:70:VEC3 Snares 021.wav
320,192,41022,1,0,0:0:0:0:
64,192,41139,1,0,0:0:0:70:VEC3 Snares 021.wav
448,192,41139,1,0,0:0:0:0:
320,192,41198,1,0,0:0:0:70:VEC3 Snares 021.wav
192,192,41256,1,0,0:0:0:70:VEC3 Snares 021.wav
64,192,41315,1,0,0:0:0:70:VEC3 Snares 021.wav
320,192,41374,1,8,0:0:0:0:
448,192,41374,1,0,0:0:0:70:VEC3 Snares 021.wav
192,192,41491,1,0,0:0:0:70:VEC3 Snares 021.wav
448,192,41491,1,0,0:0:0:0:
64,192,41608,1,0,0:0:0:70:VEC3 Snares 021.wav
192,192,41608,1,0,0:0:0:0:
192,192,41725,1,0,0:0:0:70:VEC3 Snares 021.wav
320,192,41725,1,0,0:0:0:0:
64,192,41842,1,8,0:0:0:0:
448,192,41842,1,0,0:0:0:70:VEC3 Snares 021.wav
320,192,41959,1,0,0:0:0:70:VEC3 Snares 021.wav
448,192,41959,1,0,0:0:0:0:
64,192,42077,1,0,0:0:0:70:VEC3 Snares 021.wav
320,192,42077,1,0,0:0:0:0:
192,192,42194,1,0,0:0:0:70:VEC3 Snares 021.wav
448,192,42194,1,0,0:0:0:0:
64,192,42311,1,8,0:0:0:0:
192,192,42311,1,0,0:0:0:70:VEC3 Snares 021.wav
320,192,42428,1,0,0:0:0:70:VEC3 Snares 021.wav
448,192,42428,1,0,0:0:0:0:
192,192,42545,1,0,0:0:0:70:VEC3 Snares 021.wav
448,192,42545,1,0,0:0:0:0:
64,192,42663,1,0,0:0:0:70:VEC3 Snares 021.wav
320,192,42663,1,0,0:0:0:0:
64,192,42780,1,8,0:0:0:0:
192,192,42780,1,0,0:0:0:70:VEC3 Snares 021.wav
320,192,42897,1,0,0:0:0:70:VEC3 Snares 021.wav
448,192,42897,1,0,0:0:0:0:
64,192,43014,1,0,0:0:0:70:VEC3 Snares 021.wav
448,192,43014,1,0,0:0:0:0:
192,192,43073,1,0,0:0:0:70:VEC3 Snares 021.wav
320,192,43131,1,0,0:0:0:70:VEC3 Snares 021.wav
448,192,43190,1,0,0:0:0:70:VEC3 Snares 021.wav
64,192,43249,1,8,0:0:0:0:
192,192,43249,1,0,0:0:0:70:VEC3 Snares 021.wav
64,192,43366,1,0,0:0:0:70:VEC3 Snares 021.wav
320,192,43366,1,0,0:0:0:0:
192,192,43483,1,0,0:0:0:70:VEC3 Snares 021.wav
448,192,43483,1,0,0:0:0:0:
320,192,43600,1,0,0:0:0:70:VEC3 Snares 021.wav
448,192,43600,1,0,0:0:0:0:
64,192,43717,1,8,0:0:0:0:
192,192,43717,1,0,0:0:0:70:VEC3 Snares 021.wav
64,192,43834,1,0,0:0:0:70:VEC3 Snares 021.wav
320,192,43834,1,0,0:0:0:0:
192,192,43952,1,0,0:0:0:70:VEC3 Snares 021.wav
448,192,43952,1,0,0:0:0:0:
320,192,44069,1,0,0:0:0:70:VEC3 Snares 021.wav
64,192,44186,1,8,0:0:0:0:
448,192,44186,1,0,0:0:0:70:VEC3 Snares 021.wav
64,192,44303,1,0,0:0:0:70:VEC3 Snares 021.wav
192,192,44303,1,0,0:0:0:0:
320,192,44420,1,0,0:0:0:70:VEC3 Snares 021.wav
448,192,44420,1,0,0:0:0:0:
64,192,44538,1,0,0:0:0:70:VEC3 Snares 021.wav
320,192,44655,1,8,0:0:0:0:
448,192,44655,1,0,0:0:0:70:VEC3 Snares 021.wav
64,192,44772,1,0,0:0:0:70:VEC3 Snares 021.wav
448,192,44772,1,0,0:0:0:0:
64,192,44889,1,0,0:0:0:70:VEC3 Snares 021.wav
192,192,44889,1,0,0:0:0:0:
192,192,45006,1,0,0:0:0:70:VEC3 Snares 021.wav
320,192,45006,1,0,0:0:0:0:
320,192,45124,1,8,0:0:0:0:
448,192,45124,1,0,0:0:0:70:VEC3 Snares 021.wav
192,192,45241,1,0,0:0:0:70:VEC3 Snares 021.wav
448,192,45241,1,0,0:0:0:0:
64,192,45358,1,0,0:0:0:70:VEC3 Snares 021.wav
320,192,45358,1,0,0:0:0:0:
192,192,45475,1,0,0:0:0:70:VEC3 Snares 021.wav
320,192,45475,1,0,0:0:0:0:
64,192,45592,1,8,0:0:0:0:
448,192,45592,1,0,0:0:0:70:VEC3 Snares 021.wav
64,192,45709,1,0,0:0:0:70:VEC3 Snares 021.wav
320,192,45709,1,0,0:0:0:0:
192,192,45827,1,0,0:0:0:70:VEC3 Snares 021.wav
448,192,45827,1,0,0:0:0:0:
64,192,45944,1,0,0:0:0:70:VEC3 Snares 021.wav
192,192,45944,1,0,0:0:0:0:
320,192,46061,1,8,0:0:0:0:
448,192,46061,1,0,0:0:0:70:VEC3 Snares 021.wav
192,192,46178,1,0,0:0:0:70:VEC3 Snares 021.wav
320,192,46178,1,0,0:0:0:0:
64,192,46295,1,0,0:0:0:70:VEC3 Snares 021.wav
192,192,46295,1,0,0:0:0:0:
320,192,46413,1,0,0:0:0:70:VEC3 Snares 021.wav
448,192,46413,1,0,0:0:0:0:
64,192,46530,1,8,0:0:0:0:
192,192,46530,1,0,0:0:0:70:VEC3 Snares 021.wav
192,192,46647,1,0,0:0:0:70:VEC3 Snares 021.wav
320,192,46647,1,0,0:0:0:0:
64,192,46764,1,0,0:0:0:70:VEC3 Snares 021.wav
448,192,46764,1,0,0:0:0:0:
320,192,46823,1,0,0:0:0:70:VEC3 Snares 021.wav
192,192,46881,1,0,0:0:0:70:VEC3 Snares 021.wav
64,192,46940,1,0,0:0:0:70:VEC3 Snares 021.wav
320,192,46999,1,8,0:0:0:0:
448,192,46999,1,0,0:0:0:70:VEC3 Snares 021.wav
192,192,47116,1,0,0:0:0:70:VEC3 Snares 021.wav
448,192,47116,1,0,0:0:0:0:
64,192,47233,1,0,0:0:0:70:VEC3 Snares 021.wav
320,192,47233,1,0,0:0:0:0:
192,192,47350,1,0,0:0:0:70:VEC3 Snares 021.wav
320,192,47350,1,0,0:0:0:0:
192,192,47467,1,8,0:0:0:0:
448,192,47467,1,0,0:0:0:70:VEC3 Snares 021.wav
320,192,47584,1,0,0:0:0:70:VEC3 Snares 021.wav
448,192,47584,1,0,0:0:0:0:
64,192,47702,1,0,0:0:0:70:VEC3 Snares 021.wav
192,192,47702,1,0,0:0:0:0:
64,192,47819,1,0,0:0:0:70:VEC3 Snares 021.wav
448,192,47819,1,0,0:0:0:0:
192,192,47936,1,8,0:0:0:0:
448,192,47936,1,0,0:0:0:70:VEC3 Snares 021.wav
320,192,48053,1,0,0:0:0:70:VEC3 Snares 021.wav
448,192,48053,1,0,0:0:0:0:
192,192,48170,1,0,0:0:0:70:VEC3 Snares 021.wav
320,192,48170,1,0,0:0:0:0:
64,192,48288,1,0,0:0:0:70:VEC3 Snares 021.wav
192,192,48288,1,0,0:0:0:0:
320,192,48405,1,8,0:0:0:0:
448,192,48405,1,0,0:0:0:70:VEC3 Snares 021.wav
192,192,48522,1,0,0:0:0:70:VEC3 Snares 021.wav
320,192,48522,1,0,0:0:0:0:
64,192,48639,1,0,0:0:0:70:VEC3 Snares 021.wav
448,192,48639,1,0,0:0:0:0:
192,192,48698,1,0,0:0:0:70:VEC3 Snares 021.wav
320,192,48756,1,0,0:0:0:70:VEC3 Snares 021.wav
448,192,48815,1,0,0:0:0:70:VEC3 Snares 021.wav
64,192,48874,1,8,0:0:0:0:
192,192,48874,1,0,0:0:0:60:VEC3 Snares 021.wav
320,192,48991,1,0,0:0:0:60:VEC3 Snares 021.wav
448,192,48991,1,0,0:0:0:0:
64,192,49108,1,0,0:0:0:60:VEC3 Snares 021.wav
448,192,49108,1,0,0:0:0:0:
192,192,49225,1,0,0:0:0:60:VEC3 Snares 021.wav
320,192,49225,1,0,0:0:0:0:
64,192,49342,1,8,0:0:0:0:
320,192,49342,1,0,0:0:0:60:VEC3 Snares 021.wav
192,192,49459,1,0,0:0:0:60:VEC3 Snares 021.wav
448,192,49459,1,0,0:0:0:0:
320,192,49577,1,0,0:0:0:60:VEC3 Snares 021.wav
448,192,49577,1,0,0:0:0:0:
64,192,49694,1,0,0:0:0:60:VEC3 Snares 021.wav
192,192,49694,1,0,0:0:0:0:
192,192,49811,1,8,0:0:0:0:
320,192,49811,1,0,0:0:0:60:VEC3 Snares 021.wav
64,192,49928,1,0,0:0:0:60:VEC3 Snares 021.wav
448,192,49928,1,0,0:0:0:0:
192,192,50045,1,0,0:0:0:60:VEC3 Snares 021.wav
448,192,50045,1,0,0:0:0:0:
64,192,50163,1,0,0:0:0:60:VEC3 Snares 021.wav
320,192,50163,1,0,0:0:0:0:
64,192,50280,1,8,0:0:0:0:
192,192,50280,1,0,0:0:0:60:VEC3 Snares 021.wav
192,192,50397,1,0,0:0:0:60:VEC3 Snares 021.wav
320,192,50397,1,0,0:0:0:0:
64,192,50514,1,0,0:0:0:60:VEC3 Snares 021.wav
448,192,50514,1,0,0:0:0:0:
320,192,50573,1,0,0:0:0:60:VEC3 Snares 021.wav
192,192,50631,1,0,0:0:0:60:VEC3 Snares 021.wav
64,192,50690,1,0,0:0:0:60:VEC3 Snares 021.wav
320,192,50749,1,8,0:0:0:0:
448,192,50749,1,0,0:0:0:50:VEC3 Snares 021.wav
192,192,50866,1,0,0:0:0:50:VEC3 Snares 021.wav
320,192,50983,1,0,0:0:0:50:VEC3 Snares 021.wav
64,192,51100,1,0,0:0:0:50:VEC3 Snares 021.wav
448,192,51217,1,8,0:0:0:0:
192,192,51334,1,0,0:0:0:50:VEC3 Snares 021.wav
320,192,51452,1,0,0:0:0:50:VEC3 Snares 021.wav
64,192,51569,1,0,0:0:0:50:VEC3 Snares 021.wav
192,192,51627,1,0,0:0:0:0:
320,192,51686,1,8,0:0:0:0:
448,192,51686,1,0,0:0:0:50:VEC3 Snares 021.wav
64,192,51803,1,0,0:0:0:50:VEC3 Snares 021.wav
192,192,51803,1,0,0:0:0:0:
320,192,51920,1,0,0:0:0:50:VEC3 Snares 021.wav
448,192,51920,1,0,0:0:0:0:
64,192,52038,1,0,0:0:0:50:VEC3 Snares 021.wav
192,192,52096,1,0,0:0:0:0:
64,192,52155,1,0,0:0:0:100:LR3_Snare DSW.wav
320,192,52155,1,0,0:0:0:0:
448,192,52155,1,0,0:0:0:0:
192,192,52389,1,0,0:0:0:0:
448,192,52389,1,0,0:0:0:0:
64,192,52624,1,4,0:0:0:0:
320,192,52624,1,2,0:0:0:0:
448,192,52624,1,8,0:0:0:0:
320,192,52741,1,0,0:0:0:0:
448,192,52741,1,0,0:0:0:0:
64,192,52858,1,0,0:0:0:0:
192,192,52858,1,0,0:0:0:0:
192,192,52975,1,0,0:0:0:0:
448,192,52975,1,0,0:0:0:0:
64,192,53092,1,2,0:0:0:0:
192,192,53092,1,8,0:0:0:0:
320,192,53092,1,0,0:0:0:0:
320,192,53209,1,0,0:0:0:0:
448,192,53209,1,0,0:0:0:0:
192,192,53327,1,0,0:0:0:0:
320,192,53327,1,0,0:0:0:0:
64,192,53444,1,0,0:0:0:0:
192,192,53444,1,0,0:0:0:0:
64,192,53561,1,2,0:0:0:0:
320,192,53561,1,8,0:0:0:0:
448,192,53561,1,0,0:0:0:0:
320,192,53678,1,0,0:0:0:0:
448,192,53678,1,0,0:0:0:0:
64,192,53795,1,0,0:0:0:0:
192,192,53795,1,0,0:0:0:0:
64,192,53913,1,0,0:0:0:0:
192,192,53913,1,0,0:0:0:0:
192,192,54030,1,2,0:0:0:0:
320,192,54030,1,8,0:0:0:0:
448,192,54030,1,0,0:0:0:0:
320,192,54147,1,0,0:0:0:0:
448,192,54147,1,0,0:0:0:0:
64,192,54264,1,0,0:0:0:0:
448,192,54264,1,0,0:0:0:0:
64,192,54381,1,0,0:0:0:0:
192,192,54381,1,0,0:0:0:0:
64,192,54499,1,2,0:0:0:0:
192,192,54499,1,8,0:0:0:0:
448,192,54499,1,0,0:0:0:0:
320,192,54616,1,0,0:0:0:0:
448,192,54616,1,0,0:0:0:0:
320,192,54733,1,0,0:0:0:0:
448,192,54733,1,0,0:0:0:0:
320,192,54850,1,0,0:0:0:0:
448,192,54850,1,0,0:0:0:0:
64,192,54967,1,2,0:0:0:0:
192,192,54967,1,8,0:0:0:0:
448,192,54967,1,0,0:0:0:0:
64,192,55084,1,0,0:0:0:0:
192,192,55084,1,0,0:0:0:0:
64,192,55202,1,0,0:0:0:0:
192,192,55202,1,0,0:0:0:0:
64,192,55319,1,0,0:0:0:0:
192,192,55319,1,0,0:0:0:0:
64,192,55436,1,2,0:0:0:0:
320,192,55436,1,8,0:0:0:0:
448,192,55436,1,0,0:0:0:0:
320,192,55553,1,0,0:0:0:0:
448,192,55553,1,0,0:0:0:0:
320,192,55670,1,0,0:0:0:0:
448,192,55670,1,0,0:0:0:0:
320,192,55788,1,0,0:0:0:0:
448,192,55788,1,0,0:0:0:0:
64,192,55905,1,2,0:0:0:0:
320,192,55905,1,8,0:0:0:0:
448,192,55905,1,0,0:0:0:0:
64,192,56022,1,0,0:0:0:0:
192,192,56022,1,0,0:0:0:0:
64,192,56139,1,0,0:0:0:0:
192,192,56139,1,0,0:0:0:0:
64,192,56256,1,0,0:0:0:0:
192,192,56256,1,0,0:0:0:0:
64,192,56374,1,8,0:0:0:0:
192,192,56374,1,2,0:0:0:0:
448,192,56374,1,0,0:0:0:0:
320,192,56491,1,0,0:0:0:0:
448,192,56491,1,0,0:0:0:0:
64,192,56608,1,0,0:0:0:0:
192,192,56608,1,0,0:0:0:0:
192,192,56725,1,0,0:0:0:0:
320,192,56725,1,0,0:0:0:0:
64,192,56842,1,8,0:0:0:0:
192,192,56842,1,2,0:0:0:0:
448,192,56842,1,0,0:0:0:0:
320,192,56959,1,0,0:0:0:0:
448,192,56959,1,0,0:0:0:0:
64,192,57077,1,0,0:0:0:0:
192,192,57077,1,0,0:0:0:0:
192,192,57194,1,0,0:0:0:0:
448,192,57194,1,0,0:0:0:0:
64,192,57311,1,8,0:0:0:0:
192,192,57311,1,2,0:0:0:0:
448,192,57311,1,0,0:0:0:0:
64,192,57428,1,0,0:0:0:0:
192,192,57428,1,0,0:0:0:0:
320,192,57545,1,0,0:0:0:0:
448,192,57545,1,0,0:0:0:0:
320,192,57663,1,0,0:0:0:0:
448,192,57663,1,0,0:0:0:0:
64,192,57780,1,8,0:0:0:0:
192,192,57780,1,2,0:0:0:0:
320,192,57780,1,0,0:0:0:0:
64,192,57897,1,0,0:0:0:0:
192,192,57897,1,0,0:0:0:0:
320,192,58014,1,0,0:0:0:0:
448,192,58014,1,0,0:0:0:0:
192,192,58131,1,0,0:0:0:0:
320,192,58131,1,0,0:0:0:0:
64,192,58249,1,2,0:0:0:0:
320,192,58249,1,8,0:0:0:0:
448,192,58249,1,0,0:0:0:0:
64,192,58366,1,0,0:0:0:0:
448,192,58366,1,0,0:0:0:0:
320,192,58483,1,0,0:0:0:0:
448,192,58483,1,0,0:0:0:0:
192,192,58600,1,0,0:0:0:0:
320,192,58600,1,0,0:0:0:0:
64,192,58717,1,2,0:0:0:0:
192,192,58717,1,8,0:0:0:0:
320,192,58717,1,0,0:0:0:0:
320,192,58834,1,0,0:0:0:0:
448,192,58834,1,0,0:0:0:0:
64,192,58952,1,0,0:0:0:0:
448,192,58952,1,0,0:0:0:0:
64,192,59069,1,0,0:0:0:0:
192,192,59069,1,0,0:0:0:0:
192,192,59186,1,2,0:0:0:0:
320,192,59186,1,8,0:0:0:0:
448,192,59186,1,0,0:0:0:0:
64,192,59303,1,0,0:0:0:0:
448,192,59303,1,0,0:0:0:0:
192,192,59420,1,0,0:0:0:0:
320,192,59420,1,0,0:0:0:0:
64,192,59538,1,0,0:0:0:0:
448,192,59538,1,0,0:0:0:0:
64,192,59655,1,2,0:0:0:0:
320,192,59655,1,8,0:0:0:0:
448,192,59655,1,0,0:0:0:0:
192,192,59772,1,0,0:0:0:0:
320,192,59772,1,0,0:0:0:0:
64,192,59889,1,0,0:0:0:0:
448,192,59889,1,0,0:0:0:0:
192,192,60006,1,0,0:0:0:0:
320,192,60006,1,0,0:0:0:0:
64,192,60124,1,8,0:0:0:0:
192,192,60124,1,2,0:0:0:0:
320,192,60124,1,0,0:0:0:0:
320,192,60241,1,0,0:0:0:0:
448,192,60241,1,0,0:0:0:0:
64,192,60358,1,0,0:0:0:0:
192,192,60358,1,0,0:0:0:0:
64,192,60475,1,0,0:0:0:0:
320,192,60475,1,0,0:0:0:0:
64,192,60592,1,8,0:0:0:0:
192,192,60592,1,2,0:0:0:0:
448,192,60592,1,0,0:0:0:0:
320,192,60709,1,0,0:0:0:0:
448,192,60709,1,0,0:0:0:0:
64,192,60827,1,0,0:0:0:0:
192,192,60827,1,0,0:0:0:0:
192,192,60944,1,0,0:0:0:0:
448,192,60944,1,0,0:0:0:0:
64,192,61061,1,8,0:0:0:0:
320,192,61061,1,2,0:0:0:0:
448,192,61061,1,0,0:0:0:0:
320,192,61178,1,0,0:0:0:0:
448,192,61178,1,0,0:0:0:0:
64,192,61295,1,0,0:0:0:0:
192,192,61295,1,0,0:0:0:0:
64,192,61413,1,0,0:0:0:0:
192,192,61413,1,0,0:0:0:0:
192,192,61530,1,8,0:0:0:0:
320,192,61530,1,2,0:0:0:0:
448,192,61530,1,0,0:0:0:0:
64,192,61647,1,0,0:0:0:0:
192,192,61647,1,0,0:0:0:0:
320,192,61764,1,0,0:0:0:0:
448,192,61764,1,0,0:0:0:0:
64,192,61881,1,0,0:0:0:0:
448,192,61881,1,0,0:0:0:0:
64,192,61999,1,2,0:0:0:0:
192,192,61999,1,8,0:0:0:0:
320,192,61999,1,0,0:0:0:0:
192,192,62116,1,0,0:0:0:0:
320,192,62116,1,0,0:0:0:0:
192,192,62233,1,0,0:0:0:0:
320,192,62233,1,0,0:0:0:0:
192,192,62350,1,0,0:0:0:0:
320,192,62350,1,0,0:0:0:0:
64,192,62467,1,2,0:0:0:0:
192,192,62467,1,8,0:0:0:0:
320,192,62467,1,0,0:0:0:0:
64,192,62584,1,0,0:0:0:0:
448,192,62584,1,0,0:0:0:0:
64,192,62702,1,0,0:0:0:0:
448,192,62702,1,0,0:0:0:0:
64,192,62819,1,0,0:0:0:0:
448,192,62819,1,0,0:0:0:0:
192,192,62936,1,2,0:0:0:0:
320,192,62936,1,8,0:0:0:0:
448,192,62936,1,0,0:0:0:0:
192,192,63053,1,0,0:0:0:0:
320,192,63053,1,0,0:0:0:0:
192,192,63170,1,0,0:0:0:0:
320,192,63170,1,0,0:0:0:0:
192,192,63288,1,0,0:0:0:0:
320,192,63288,1,0,0:0:0:0:
192,192,63405,1,2,0:0:0:0:
320,192,63405,1,8,0:0:0:0:
448,192,63405,1,0,0:0:0:0:
64,192,63522,1,0,0:0:0:0:
448,192,63522,1,0,0:0:0:0:
64,192,63639,1,0,0:0:0:0:
448,192,63639,1,0,0:0:0:0:
64,192,63756,1,0,0:0:0:0:
448,192,63756,1,0,0:0:0:0:
64,192,63874,1,2,0:0:0:0:
192,192,63874,1,8,0:0:0:0:
320,192,63874,1,0,0:0:0:0:
192,192,63991,1,0,0:0:0:0:
320,192,63991,1,0,0:0:0:0:
320,192,64108,1,0,0:0:0:0:
448,192,64108,1,0,0:0:0:0:
64,192,64225,1,0,0:0:0:0:
192,192,64225,1,0,0:0:0:0:
64,192,64342,1,2,0:0:0:0:
320,192,64342,1,8,0:0:0:0:
448,192,64342,1,0,0:0:0:0:
192,192,64459,1,0,0:0:0:0:
448,192,64459,1,0,0:0:0:0:
64,192,64577,1,0,0:0:0:0:
320,192,64577,1,0,0:0:0:0:
192,192,64694,1,0,0:0:0:0:
320,192,64694,1,0,0:0:0:0:
64,192,64811,1,2,0:0:0:0:
192,192,64811,1,8,0:0:0:0:
448,192,64811,1,0,0:0:0:0:
64,192,64928,1,0,0:0:0:0:
192,192,64928,1,0,0:0:0:0:
320,192,65045,1,0,0:0:0:0:
448,192,65045,1,0,0:0:0:0:
320,192,65163,1,0,0:0:0:0:
448,192,65163,1,0,0:0:0:0:
64,192,65280,1,2,0:0:0:0:
192,192,65280,1,8,0:0:0:0:
320,192,65280,1,0,0:0:0:0:
192,192,65397,1,0,0:0:0:0:
448,192,65397,1,0,0:0:0:0:
64,192,65514,1,0,0:0:0:0:
320,192,65514,1,0,0:0:0:0:
64,192,65631,1,0,0:0:0:0:
192,192,65631,1,0,0:0:0:0:
64,192,65749,1,8,0:0:0:0:
448,192,65749,1,0,0:0:0:0:
320,192,65866,1,0,0:0:0:0:
192,192,65983,1,0,0:0:0:0:
64,192,66100,1,0,0:0:0:0:
192,192,66217,1,8,0:0:0:0:
320,192,66217,1,0,0:0:0:0:
448,192,66334,1,0,0:0:0:0:
64,192,66452,1,0,0:0:0:0:
192,192,66569,1,0,0:0:0:0:
64,192,66686,1,8,0:0:0:0:
448,192,66686,1,0,0:0:0:0:
320,192,66803,1,0,0:0:0:0:
192,192,66920,1,0,0:0:0:0:
448,192,66920,1,0,0:0:0:0:
64,192,67038,1,0,0:0:0:0:
64,192,67155,1,0,0:0:0:100:LR3_Snare DSW.wav
192,192,67155,1,0,0:0:0:0:
320,192,67155,1,0,0:0:0:0:
448,192,67155,1,0,0:0:0:0:
64,192,67389,1,0,0:0:0:100:LR3_Snare DSW.wav
192,192,67389,1,0,0:0:0:0:
320,192,67389,1,0,0:0:0:0:
448,192,67389,1,0,0:0:0:0:
64,192,67624,1,8,0:0:0:0:
192,192,67624,1,2,0:0:0:0:
448,192,67624,1,4,0:0:0:0:
192,192,67741,1,0,0:0:0:0:
448,192,67741,1,0,0:0:0:0:
64,192,67858,1,0,0:0:0:0:
320,192,67858,1,0,0:0:0:0:
64,192,67975,1,0,0:0:0:0:
192,192,67975,1,0,0:0:0:0:
64,192,68092,1,8,0:0:0:0:
192,192,68092,1,2,0:0:0:0:
320,192,68092,1,0,0:0:0:0:
320,192,68209,1,0,0:0:0:0:
448,192,68209,1,0,0:0:0:0:
192,192,68327,1,0,0:0:0:0:
448,192,68327,1,0,0:0:0:0:
64,192,68444,1,0,0:0:0:0:
320,192,68444,1,0,0:0:0:0:
64,192,68561,1,8,0:0:0:0:
192,192,68561,1,2,0:0:0:0:
448,192,68561,1,0,0:0:0:0:
64,192,68678,1,0,0:0:0:0:
192,192,68678,1,0,0:0:0:0:
320,192,68795,1,0,0:0:0:0:
448,192,68795,1,0,0:0:0:0:
320,192,68913,1,0,0:0:0:0:
448,192,68913,1,0,0:0:0:0:
64,192,69030,1,8,0:0:0:0:
192,192,69030,1,2,0:0:0:0:
448,192,69030,1,0,0:0:0:0:
192,192,69147,1,0,0:0:0:0:
320,192,69147,1,0,0:0:0:0:
64,192,69264,1,0,0:0:0:0:
448,192,69264,1,0,0:0:0:0:
320,192,69381,1,0,0:0:0:0:
448,192,69381,1,0,0:0:0:0:
64,192,69499,1,8,0:0:0:0:
320,192,69499,1,2,0:0:0:0:
448,192,69499,1,0,0:0:0:0:
64,192,69616,1,0,0:0:0:0:
192,192,69616,1,0,0:0:0:0:
64,192,69733,1,0,0:0:0:0:
192,192,69733,1,0,0:0:0:0:
64,192,69850,1,0,0:0:0:0:
192,192,69850,1,0,0:0:0:0:
64,192,69967,1,8,0:0:0:0:
320,192,69967,1,2,0:0:0:0:
448,192,69967,1,0,0:0:0:0:
320,192,70084,1,0,0:0:0:0:
448,192,70084,1,0,0:0:0:0:
320,192,70202,1,0,0:0:0:0:
448,192,70202,1,0,0:0:0:0:
320,192,70319,1,0,0:0:0:0:
448,192,70319,1,0,0:0:0:0:
64,192,70436,1,8,0:0:0:0:
192,192,70436,1,2,0:0:0:0:
448,192,70436,1,0,0:0:0:0:
64,192,70553,1,0,0:0:0:0:
192,192,70553,1,0,0:0:0:0:
64,192,70670,1,0,0:0:0:0:
192,192,70670,1,0,0:0:0:0:
64,192,70788,1,0,0:0:0:0:
192,192,70788,1,0,0:0:0:0:
64,192,70905,1,8,0:0:0:0:
192,192,70905,1,2,0:0:0:0:
448,192,70905,1,0,0:0:0:0:
320,192,71022,1,0,0:0:0:0:
448,192,71022,1,0,0:0:0:0:
320,192,71139,1,0,0:0:0:0:
448,192,71139,1,0,0:0:0:0:
320,192,71256,1,0,0:0:0:0:
448,192,71256,1,0,0:0:0:0:
64,192,71374,1,2,0:0:0:0:
320,192,71374,1,8,0:0:0:0:
448,192,71374,1,0,0:0:0:0:
64,192,71491,1,0,0:0:0:0:
192,192,71491,1,0,0:0:0:0:
192,192,71608,1,0,0:0:0:0:
448,192,71608,1,0,0:0:0:0:
64,192,71725,1,0,0:0:0:0:
320,192,71725,1,0,0:0:0:0:
64,192,71842,1,2,0:0:0:0:
192,192,71842,1,8,0:0:0:0:
448,192,71842,1,0,0:0:0:0:
320,192,71959,1,0,0:0:0:0:
448,192,71959,1,0,0:0:0:0:
192,192,72077,1,0,0:0:0:0:
320,192,72077,1,0,0:0:0:0:
64,192,72194,1,0,0:0:0:0:
192,192,72194,1,0,0:0:0:0:
64,192,72311,1,2,0:0:0:0:
320,192,72311,1,8,0:0:0:0:
448,192,72311,1,0,0:0:0:0:
320,192,72428,1,0,0:0:0:0:
448,192,72428,1,0,0:0:0:0:
64,192,72545,1,0,0:0:0:0:
192,192,72545,1,0,0:0:0:0:
64,192,72663,1,0,0:0:0:0:
192,192,72663,1,0,0:0:0:0:
64,192,72780,1,2,0:0:0:0:
320,192,72780,1,8,0:0:0:0:
448,192,72780,1,0,0:0:0:0:
192,192,72897,1,0,0:0:0:0:
320,192,72897,1,0,0:0:0:0:
64,192,73014,1,0,0:0:0:0:
448,192,73014,1,0,0:0:0:0:
320,192,73131,1,0,0:0:0:0:
448,192,73131,1,0,0:0:0:0:
64,192,73249,1,8,0:0:0:0:
192,192,73249,1,2,0:0:0:0:
448,192,73249,1,0,0:0:0:0:
64,192,73366,1,0,0:0:0:0:
192,192,73366,1,0,0:0:0:0:
320,192,73483,1,0,0:0:0:0:
448,192,73483,1,0,0:0:0:0:
192,192,73600,1,0,0:0:0:0:
320,192,73600,1,0,0:0:0:0:
64,192,73717,1,8,0:0:0:0:
192,192,73717,1,2,0:0:0:0:
320,192,73717,1,0,0:0:0:0:
320,192,73834,1,0,0:0:0:0:
448,192,73834,1,0,0:0:0:0:
64,192,73952,1,0,0:0:0:0:
192,192,73952,1,0,0:0:0:0:
64,192,74069,1,0,0:0:0:0:
320,192,74069,1,0,0:0:0:0:
192,192,74186,1,8,0:0:0:0:
320,192,74186,1,2,0:0:0:0:
448,192,74186,1,0,0:0:0:0:
64,192,74303,1,0,0:0:0:0:
448,192,74303,1,0,0:0:0:0:
192,192,74420,1,0,0:0:0:0:
320,192,74420,1,0,0:0:0:0:
64,192,74538,1,0,0:0:0:0:
448,192,74538,1,0,0:0:0:0:
64,192,74655,1,8,0:0:0:0:
320,192,74655,1,2,0:0:0:0:
448,192,74655,1,0,0:0:0:0:
192,192,74772,1,0,0:0:0:0:
320,192,74772,1,0,0:0:0:0:
64,192,74889,1,0,0:0:0:0:
448,192,74889,1,0,0:0:0:0:
192,192,75006,1,0,0:0:0:0:
320,192,75006,1,0,0:0:0:0:
64,192,75124,1,2,0:0:0:0:
192,192,75124,1,8,0:0:0:0:
448,192,75124,1,0,0:0:0:0:
320,192,75241,1,0,0:0:0:0:
448,192,75241,1,0,0:0:0:0:
64,192,75358,1,0,0:0:0:0:
192,192,75358,1,0,0:0:0:0:
192,192,75475,1,0,0:0:0:0:
320,192,75475,1,0,0:0:0:0:
64,192,75592,1,2,0:0:0:0:
192,192,75592,1,8,0:0:0:0:
448,192,75592,1,0,0:0:0:0:
320,192,75709,1,0,0:0:0:0:
448,192,75709,1,0,0:0:0:0:
64,192,75827,1,0,0:0:0:0:
448,192,75827,1,0,0:0:0:0:
192,192,75944,1,0,0:0:0:0:
320,192,75944,1,0,0:0:0:0:
64,192,76061,1,2,0:0:0:0:
192,192,76061,1,8,0:0:0:0:
448,192,76061,1,0,0:0:0:0:
64,192,76178,1,0,0:0:0:0:
192,192,76178,1,0,0:0:0:0:
320,192,76295,1,0,0:0:0:0:
448,192,76295,1,0,0:0:0:0:
320,192,76413,1,0,0:0:0:0:
448,192,76413,1,0,0:0:0:0:
64,192,76530,1,2,0:0:0:0:
192,192,76530,1,8,0:0:0:0:
320,192,76530,1,0,0:0:0:0:
64,192,76647,1,0,0:0:0:0:
192,192,76647,1,0,0:0:0:0:
320,192,76764,1,0,0:0:0:0:
448,192,76764,1,0,0:0:0:0:
192,192,76881,1,0,0:0:0:0:
448,192,76881,1,0,0:0:0:0:
64,192,76999,1,8,0:0:0:0:
192,192,76999,1,2,0:0:0:0:
320,192,76999,1,0,0:0:0:0:
64,192,77116,1,0,0:0:0:0:
320,192,77116,1,0,0:0:0:0:
64,192,77233,1,0,0:0:0:0:
320,192,77233,1,0,0:0:0:0:
64,192,77350,1,0,0:0:0:0:
320,192,77350,1,0,0:0:0:0:
64,192,77467,1,8,0:0:0:0:
192,192,77467,1,2,0:0:0:0:
320,192,77467,1,0,0:0:0:0:
192,192,77584,1,0,0:0:0:0:
448,192,77584,1,0,0:0:0:0:
192,192,77702,1,0,0:0:0:0:
448,192,77702,1,0,0:0:0:0:
192,192,77819,1,0,0:0:0:0:
448,192,77819,1,0,0:0:0:0:
192,192,77936,1,8,0:0:0:0:
320,192,77936,1,2,0:0:0:0:
448,192,77936,1,0,0:0:0:0:
64,192,78053,1,0,0:0:0:0:
320,192,78053,1,0,0:0:0:0:
64,192,78170,1,0,0:0:0:0:
320,192,78170,1,0,0:0:0:0:
64,192,78288,1,0,0:0:0:0:
320,192,78288,1,0,0:0:0:0:
192,192,78405,1,8,0:0:0:0:
320,192,78405,1,2,0:0:0:0:
448,192,78405,1,0,0:0:0:0:
192,192,78522,1,0,0:0:0:0:
448,192,78522,1,0,0:0:0:0:
192,192,78639,1,0,0:0:0:0:
448,192,78639,1,0,0:0:0:0:
192,192,78756,1,0,0:0:0:0:
448,192,78756,1,0,0:0:0:0:
64,192,78874,1,8,0:0:0:0:
192,192,78874,1,2,0:0:0:0:
320,192,78874,1,0,0:0:0:0:
192,192,78991,1,0,0:0:0:0:
320,192,78991,1,0,0:0:0:0:
320,192,79108,1,0,0:0:0:0:
448,192,79108,1,0,0:0:0:0:
64,192,79225,1,0,0:0:0:0:
192,192,79225,1,0,0:0:0:0:
64,192,79342,1,8,0:0:0:0:
320,192,79342,1,2,0:0:0:0:
448,192,79342,1,0,0:0:0:0:
192,192,79459,1,0,0:0:0:0:
448,192,79459,1,0,0:0:0:0:
320,192,79577,1,0,0:0:0:0:
448,192,79577,1,0,0:0:0:0:
64,192,79694,1,0,0:0:0:0:
192,192,79694,1,0,0:0:0:0:
64,192,79811,1,8,0:0:0:0:
320,192,79811,1,2,0:0:0:0:
448,192,79811,1,0,0:0:0:0:
320,192,79928,1,0,0:0:0:0:
448,192,79928,1,0,0:0:0:0:
64,192,80045,1,0,0:0:0:0:
192,192,80045,1,0,0:0:0:0:
64,192,80163,1,0,0:0:0:0:
192,192,80163,1,0,0:0:0:0:
64,192,80280,1,8,0:0:0:0:
320,192,80280,1,2,0:0:0:0:
448,192,80280,1,0,0:0:0:0:
192,192,80397,1,0,0:0:0:0:
448,192,80397,1,0,0:0:0:0:
64,192,80514,1,0,0:0:0:0:
320,192,80514,1,0,0:0:0:0:
64,192,80631,1,0,0:0:0:0:
192,192,80631,1,0,0:0:0:0:
64,192,80749,1,8,0:0:0:0:
448,192,80749,1,0,0:0:0:0:
192,192,80866,1,0,0:0:0:0:
320,192,80866,1,0,0:0:0:0:
64,192,80983,1,0,0:0:0:0:
448,192,80983,1,0,0:0:0:0:
192,192,81100,1,0,0:0:0:0:
320,192,81100,1,0,0:0:0:0:
64,192,81217,1,8,0:0:0:0:
448,192,81217,1,0,0:0:0:0:
192,192,81334,1,0,0:0:0:0:
320,192,81452,1,0,0:0:0:0:
448,192,81452,1,0,0:0:0:0:
64,192,81569,1,0,0:0:0:0:
192,192,81569,1,0,0:0:0:0:
320,192,81686,1,8,0:0:0:0:
448,192,81686,1,0,0:0:0:0:
192,192,81803,1,0,0:0:0:0:
64,192,81920,1,0,0:0:0:0:
448,192,81920,1,0,0:0:0:0:
320,192,82038,1,0,0:0:0:0:
64,192,82155,1,0,0:0:0:100:LR3_Snare DSW.wav
192,192,82155,1,0,0:0:0:0:
320,192,82155,1,0,0:0:0:0:
448,192,82155,1,0,0:0:0:0:
64,192,82389,1,0,0:0:0:100:LR3_Snare DSW.wav
192,192,82389,1,0,0:0:0:0:
320,192,82389,1,0,0:0:0:0:
448,192,82389,1,0,0:0:0:0:
64,192,82624,1,4,0:0:0:0:
320,192,82624,1,2,0:0:0:0:
448,192,82624,1,8,0:0:0:0:
64,192,82741,1,0,0:0:0:0:
192,192,82741,1,0,0:0:0:0:
320,192,82858,1,0,0:0:0:0:
448,192,82858,1,0,0:0:0:0:
64,192,82975,1,0,0:0:0:70:VEC3 Snares 021.wav
192,192,82975,1,0,0:0:0:0:
320,192,82975,1,0,0:0:0:0:
192,192,83092,1,2,0:0:0:0:
320,192,83092,1,8,0:0:0:0:
448,192,83092,1,0,0:0:0:0:
64,192,83209,1,0,0:0:0:0:
192,192,83209,1,0,0:0:0:0:
192,192,83327,1,0,0:0:0:70:VEC3 Snares 021.wav
320,192,83327,1,0,0:0:0:0:
448,192,83327,1,0,0:0:0:0:
320,192,83444,1,0,0:0:0:0:
448,192,83444,1,0,0:0:0:0:
64,192,83561,1,2,0:0:0:0:
192,192,83561,1,8,0:0:0:0:
448,192,83561,1,0,0:0:0:0:
64,192,83678,1,0,0:0:0:0:
192,192,83678,1,0,0:0:0:0:
64,192,83795,1,0,0:0:0:70:VEC3 Snares 021.wav
320,192,83795,1,0,0:0:0:0:
448,192,83795,1,0,0:0:0:0:
320,192,83913,1,0,0:0:0:0:
448,192,83913,1,0,0:0:0:0:
64,192,84030,1,2,0:0:0:0:
192,192,84030,1,8,0:0:0:0:
320,192,84030,1,0,0:0:0:0:
64,192,84147,1,0,0:0:0:0:
192,192,84147,1,0,0:0:0:0:
320,192,84264,1,0,0:0:0:70:VEC3 Snares 021.wav
448,192,84264,1,0,0:0:0:0:
192,192,84381,1,0,0:0:0:70:VEC3 Snares 021.wav
320,192,84381,1,0,0:0:0:0:
448,192,84381,1,0,0:0:0:0:
64,192,84499,1,2,0:0:0:0:
320,192,84499,1,8,0:0:0:0:
448,192,84499,1,0,0:0:0:0:
64,192,84616,1,0,0:0:0:0:
192,192,84616,1,0,0:0:0:0:
64,192,84733,1,0,0:0:0:0:
192,192,84733,1,0,0:0:0:0:
192,192,84850,1,0,0:0:0:70:VEC3 Snares 021.wav
320,192,84850,1,0,0:0:0:0:
64,192,84967,1,2,0:0:0:0:
320,192,84967,1,8,0:0:0:0:
448,192,84967,1,0,0:0:0:0:
320,192,85084,1,0,0:0:0:0:
448,192,85084,1,0,0:0:0:0:
192,192,85202,1,0,0:0:0:70:VEC3 Snares 021.wav
448,192,85202,1,0,0:0:0:0:
192,192,85319,1,0,0:0:0:0:
320,192,85319,1,0,0:0:0:0:
64,192,85436,1,2,0:0:0:0:
192,192,85436,1,8,0:0:0:0:
448,192,85436,1,0,0:0:0:0:
64,192,85553,1,0,0:0:0:0:
448,192,85553,1,0,0:0:0:0:
64,192,85670,1,0,0:0:0:70:VEC3 Snares 021.wav
192,192,85670,1,0,0:0:0:0:
192,192,85788,1,0,0:0:0:0:
320,192,85788,1,0,0:0:0:0:
64,192,85905,1,2,0:0:0:0:
192,192,85905,1,8,0:0:0:0:
448,192,85905,1,0,0:0:0:0:
64,192,86022,1,0,0:0:0:0:
448,192,86022,1,0,0:0:0:0:
192,192,86139,1,0,0:0:0:70:VEC3 Snares 021.wav
320,192,86139,1,0,0:0:0:0:
192,192,86256,1,0,0:0:0:70:VEC3 Snares 021.wav
320,192,86256,1,0,0:0:0:0:
64,192,86374,1,8,0:0:0:0:
320,192,86374,1,2,0:0:0:0:
448,192,86374,1,0,0:0:0:0:
64,192,86491,1,0,0:0:0:0:
192,192,86491,1,0,0:0:0:0:
320,192,86608,1,0,0:0:0:0:
448,192,86608,1,0,0:0:0:0:
64,192,86725,1,0,0:0:0:70:VEC3 Snares 021.wav
192,192,86725,1,0,0:0:0:0:
320,192,86725,1,0,0:0:0:0:
64,192,86842,1,8,0:0:0:0:
320,192,86842,1,2,0:0:0:0:
448,192,86842,1,0,0:0:0:0:
64,192,86959,1,0,0:0:0:0:
192,192,86959,1,0,0:0:0:0:
192,192,87077,1,0,0:0:0:70:VEC3 Snares 021.wav
320,192,87077,1,0,0:0:0:0:
448,192,87077,1,0,0:0:0:0:
64,192,87194,1,0,0:0:0:0:
320,192,87194,1,0,0:0:0:0:
64,192,87311,1,8,0:0:0:0:
320,192,87311,1,2,0:0:0:0:
448,192,87311,1,0,0:0:0:0:
320,192,87428,1,0,0:0:0:0:
448,192,87428,1,0,0:0:0:0:
64,192,87545,1,0,0:0:0:70:VEC3 Snares 021.wav
192,192,87545,1,0,0:0:0:0:
448,192,87545,1,0,0:0:0:0:
64,192,87663,1,0,0:0:0:0:
192,192,87663,1,0,0:0:0:0:
192,192,87780,1,8,0:0:0:0:
320,192,87780,1,2,0:0:0:0:
448,192,87780,1,0,0:0:0:0:
320,192,87897,1,0,0:0:0:0:
448,192,87897,1,0,0:0:0:0:
64,192,88014,1,0,0:0:0:70:VEC3 Snares 021.wav
192,192,88014,1,0,0:0:0:0:
192,192,88131,1,0,0:0:0:70:VEC3 Snares 021.wav
320,192,88131,1,0,0:0:0:0:
448,192,88131,1,0,0:0:0:0:
64,192,88249,1,2,0:0:0:0:
192,192,88249,1,8,0:0:0:0:
448,192,88249,1,0,0:0:0:0:
64,192,88366,1,0,0:0:0:0:
448,192,88366,1,0,0:0:0:0:
64,192,88483,1,0,0:0:0:0:
192,192,88483,1,0,0:0:0:0:
64,192,88600,1,0,0:0:0:70:VEC3 Snares 021.wav
320,192,88600,1,0,0:0:0:0:
448,192,88600,1,0,0:0:0:0:
192,192,88717,1,2,0:0:0:0:
320,192,88717,1,8,0:0:0:0:
448,192,88717,1,0,0:0:0:0:
64,192,88834,1,0,0:0:0:0:
192,192,88834,1,0,0:0:0:0:
64,192,88952,1,0,0:0:0:70:VEC3 Snares 021.wav
320,192,88952,1,0,0:0:0:0:
448,192,88952,1,0,0:0:0:0:
320,192,89069,1,0,0:0:0:0:
448,192,89069,1,0,0:0:0:0:
64,192,89186,1,2,0:0:0:0:
192,192,89186,1,8,0:0:0:0:
320,192,89186,1,0,0:0:0:0:
64,192,89303,1,0,0:0:0:0:
448,192,89303,1,0,0:0:0:0:
192,192,89420,1,0,0:0:0:70:VEC3 Snares 021.wav
320,192,89420,1,0,0:0:0:0:
448,192,89420,1,0,0:0:0:0:
64,192,89538,1,0,0:0:0:0:
448,192,89538,1,0,0:0:0:0:
64,192,89655,1,2,0:0:0:0:
192,192,89655,1,8,0:0:0:0:
448,192,89655,1,0,0:0:0:0:
192,192,89772,1,0,0:0:0:0:
320,192,89772,1,0,0:0:0:0:
64,192,89889,1,0,0:0:0:70:VEC3 Snares 021.wav
320,192,89889,1,0,0:0:0:0:
448,192,89889,1,0,0:0:0:0:
192,192,90006,1,0,0:0:0:70:VEC3 Snares 021.wav
320,192,90006,1,0,0:0:0:0:
64,192,90124,1,8,0:0:0:0:
192,192,90124,1,2,0:0:0:0:
448,192,90124,1,0,0:0:0:0:
64,192,90241,1,0,0:0:0:0:
192,192,90241,1,0,0:0:0:0:
320,192,90358,1,0,0:0:0:0:
448,192,90358,1,0,0:0:0:0:
64,192,90475,1,0,0:0:0:70:VEC3 Snares 021.wav
192,192,90475,1,0,0:0:0:0:
448,192,90475,1,0,0:0:0:0:
64,192,90592,1,8,0:0:0:0:
320,192,90592,1,2,0:0:0:0:
448,192,90592,1,0,0:0:0:0:
64,192,90709,1,0,0:0:0:0:
192,192,90709,1,0,0:0:0:0:
192,192,90827,1,0,0:0:0:70:VEC3 Snares 021.wav
320,192,90827,1,0,0:0:0:0:
448,192,90827,1,0,0:0:0:0:
64,192,90944,1,0,0:0:0:0:
320,192,90944,1,0,0:0:0:0:
64,192,91061,1,8,0:0:0:0:
192,192,91061,1,2,0:0:0:0:
448,192,91061,1,0,0:0:0:0:
64,192,91178,1,0,0:0:0:0:
192,192,91178,1,0,0:0:0:0:
192,192,91295,1,0,0:0:0:70:VEC3 Snares 021.wav
320,192,91295,1,0,0:0:0:0:
448,192,91295,1,0,0:0:0:0:
320,192,91413,1,0,0:0:0:0:
448,192,91413,1,0,0:0:0:0:
64,192,91530,1,8,0:0:0:0:
192,192,91530,1,2,0:0:0:0:
320,192,91530,1,0,0:0:0:0:
320,192,91647,1,0,0:0:0:0:
448,192,91647,1,0,0:0:0:0:
64,192,91764,1,0,0:0:0:70:VEC3 Snares 021.wav
448,192,91764,1,0,0:0:0:0:
64,192,91881,1,0,0:0:0:70:VEC3 Snares 021.wav
192,192,91881,1,0,0:0:0:0:
448,192,91881,1,0,0:0:0:0:
64,192,91999,1,2,0:0:0:0:
192,192,91999,1,8,0:0:0:0:
320,192,91999,1,0,0:0:0:0:
192,192,92116,1,0,0:0:0:0:
320,192,92116,1,0,0:0:0:0:
192,192,92233,1,0,0:0:0:0:
320,192,92233,1,0,0:0:0:0:
320,192,92350,1,0,0:0:0:70:VEC3 Snares 021.wav
448,192,92350,1,0,0:0:0:0:
64,192,92467,1,2,0:0:0:0:
192,192,92467,1,8,0:0:0:0:
320,192,92467,1,0,0:0:0:0:
64,192,92584,1,0,0:0:0:0:
448,192,92584,1,0,0:0:0:0:
192,192,92702,1,0,0:0:0:70:VEC3 Snares 021.wav
320,192,92702,1,0,0:0:0:0:
320,192,92819,1,0,0:0:0:0:
448,192,92819,1,0,0:0:0:0:
192,192,92936,1,2,0:0:0:0:
320,192,92936,1,8,0:0:0:0:
448,192,92936,1,0,0:0:0:0:
192,192,93053,1,0,0:0:0:0:
320,192,93053,1,0,0:0:0:0:
64,192,93170,1,0,0:0:0:70:VEC3 Snares 021.wav
192,192,93170,1,0,0:0:0:0:
64,192,93288,1,0,0:0:0:0:
320,192,93288,1,0,0:0:0:0:
192,192,93405,1,2,0:0:0:0:
320,192,93405,1,8,0:0:0:0:
448,192,93405,1,0,0:0:0:0:
64,192,93522,1,0,0:0:0:0:
448,192,93522,1,0,0:0:0:0:
320,192,93639,1,0,0:0:0:70:VEC3 Snares 021.wav
448,192,93639,1,0,0:0:0:0:
320,192,93756,1,0,0:0:0:70:VEC3 Snares 021.wav
448,192,93756,1,0,0:0:0:0:
64,192,93874,1,8,0:0:0:0:
192,192,93874,1,0,0:0:0:70:VEC3 Snares 021.wav
320,192,93874,1,0,0:0:0:0:
64,192,93991,1,0,0:0:0:0:
192,192,93991,1,0,0:0:0:0:
320,192,94108,1,0,0:0:0:0:
448,192,94108,1,0,0:0:0:0:
192,192,94225,1,0,0:0:0:70:VEC3 Snares 021.wav
320,192,94225,1,0,0:0:0:0:
448,192,94225,1,0,0:0:0:0:
64,192,94342,1,8,0:0:0:0:
192,192,94342,1,0,0:0:0:70:VEC3 Snares 021.wav
320,192,94342,1,0,0:0:0:0:
64,192,94459,1,0,0:0:0:0:
192,192,94459,1,0,0:0:0:0:
192,192,94577,1,0,0:0:0:70:VEC3 Snares 021.wav
320,192,94577,1,0,0:0:0:0:
448,192,94577,1,0,0:0:0:0:
320,192,94694,1,0,0:0:0:0:
448,192,94694,1,0,0:0:0:0:
64,192,94811,1,8,0:0:0:0:
192,192,94811,1,0,0:0:0:70:VEC3 Snares 021.wav
448,192,94811,1,0,0:0:0:0:
64,192,94928,1,0,0:0:0:0:
192,192,94928,1,0,0:0:0:0:
64,192,95045,1,0,0:0:0:70:VEC3 Snares 021.wav
320,192,95045,1,0,0:0:0:0:
448,192,95045,1,0,0:0:0:0:
320,192,95163,1,0,0:0:0:0:
448,192,95163,1,0,0:0:0:0:
192,192,95280,1,8,0:0:0:0:
320,192,95280,1,0,0:0:0:70:VEC3 Snares 021.wav
448,192,95280,1,0,0:0:0:0:
64,192,95397,1,0,0:0:0:70:VEC3 Snares 021.wav
448,192,95397,1,0,0:0:0:0:
192,192,95456,1,0,0:0:0:0:
320,192,95514,1,0,0:0:0:70:VEC3 Snares 021.wav
448,192,95573,1,0,0:0:0:0:
64,192,95631,1,0,0:0:0:70:VEC3 Snares 021.wav
192,192,95690,1,0,0:0:0:0:
320,192,95749,1,8,0:0:0:0:
448,192,95749,1,0,0:0:0:70:VEC3 Snares 021.wav
64,192,95866,1,0,0:0:0:0:
192,192,95983,1,0,0:0:0:0:
64,192,96100,1,0,0:0:0:70:VEC3 Snares 021.wav
320,192,96100,1,0,0:0:0:0:
192,192,96217,1,8,0:0:0:0:
448,192,96217,1,0,0:0:0:70:VEC3 Snares 021.wav
320,192,96334,1,0,0:0:0:0:
64,192,96452,1,0,0:0:0:70:VEC3 Snares 021.wav
448,192,96452,1,0,0:0:0:0:
192,192,96569,1,0,0:0:0:70:VEC3 Snares 021.wav
64,192,96686,1,8,0:0:0:0:
448,192,96686,1,0,0:0:0:70:VEC3 Snares 021.wav
320,192,96803,1,0,0:0:0:0:
64,192,96920,1,0,0:0:0:70:VEC3 Snares 021.wav
192,192,96920,1,0,0:0:0:0:
448,192,97038,1,0,0:0:0:70:VEC3 Snares 021.wav
320,192,97096,1,0,0:0:0:0:
64,192,97155,1,0,0:0:0:100:LR3_Snare DSW.wav
192,192,97155,1,0,0:0:0:0:
448,192,97155,1,0,0:0:0:0:
320,192,97389,1,0,0:0:0:100:LR3_Snare DSW.wav
448,192,97389,1,0,0:0:0:0:
64,192,97624,1,2,0:0:0:0:
192,192,97624,1,4,0:0:0:0:
320,192,97858,1,0,0:0:0:0:
64,192,98092,1,0,0:0:0:0:
448,192,98327,1,0,0:0:0:0:
192,192,98561,1,0,0:0:0:0:
320,192,98795,1,0,0:0:0:0:
64,192,99030,1,0,0:0:0:0:
448,192,99264,1,0,0:0:0:0:
192,192,99499,1,0,0:0:0:0:
320,192,99733,1,0,0:0:0:0:
64,192,99967,1,0,0:0:0:0:
192,192,100202,1,0,0:0:0:0:
448,192,100436,1,0,0:0:0:0:
320,192,100670,1,0,0:0:0:0:
64,192,100905,1,0,0:0:0:0:
192,192,101139,1,0,0:0:0:0:
448,192,101374,1,2,0:0:0:0:
320,192,101608,1,0,0:0:0:0:
448,192,101842,1,2,0:0:0:0:
192,192,102077,1,0,0:0:0:0:
448,192,102311,1,2,0:0:0:0:
64,192,102545,1,0,0:0:0:0:
448,192,102780,1,2,0:0:0:0:
192,192,103014,1,0,0:0:0:0:
320,192,103249,1,2,0:0:0:0:
448,192,103483,1,0,0:0:0:0:
320,192,103717,1,2,0:0:0:0:
192,192,103952,1,0,0:0:0:0:
320,192,104186,1,2,0:0:0:0:
64,192,104420,1,0,0:0:0:0:
320,192,104655,1,2,0:0:0:0:
192,192,104889,1,0,0:0:0:0:
64,192,105124,1,2,0:0:0:0:
448,192,105358,1,0,0:0:0:0:
64,192,105592,1,2,0:0:0:0:
320,192,105827,1,0,0:0:0:0:
64,192,106061,1,2,0:0:0:0:
192,192,106295,1,0,0:0:0:0:
64,192,106530,1,2,0:0:0:0:
448,192,106764,1,0,0:0:0:0:
192,192,106999,1,2,0:0:0:0:
64,192,107233,1,0,0:0:0:0:
192,192,107467,1,2,0:0:0:0:
320,192,107702,1,0,0:0:0:0:
192,192,107936,1,2,0:0:0:0:
448,192,108170,1,0,0:0:0:0:
192,192,108405,1,2,0:0:0:0:
320,192,108639,1,0,0:0:0:0:
448,192,108874,1,2,0:0:0:0:
64,192,109108,1,0,0:0:0:0:
448,192,109342,1,2,0:0:0:0:
192,192,109577,1,0,0:0:0:0:
448,192,109811,1,2,0:0:0:0:
320,192,110045,1,0,0:0:0:0:
448,192,110280,1,2,0:0:0:0:
320,192,110514,1,0,0:0:0:0:
192,192,110749,1,2,0:0:0:0:
64,192,110983,1,0,0:0:0:0:
192,192,111217,1,2,0:0:0:0:
320,192,111452,1,0,0:0:0:0:
192,192,111686,1,2,0:0:0:0:
448,192,111920,1,0,0:0:0:0:
192,192,112155,1,2,0:0:0:0:
64,192,112389,1,0,0:0:0:0:
320,192,112624,1,2,0:0:0:0:
448,192,112624,1,0,0:0:0:0:
64,192,112858,1,0,0:0:0:0:
448,192,112975,1,0,0:0:0:0:
320,192,113092,1,2,0:0:0:0:
192,192,113327,1,0,0:0:0:0:
320,192,113561,1,2,0:0:0:0:
64,192,113678,1,0,0:0:0:0:
448,192,113795,1,0,0:0:0:0:
192,192,113913,1,0,0:0:0:0:
320,192,114030,1,2,0:0:0:0:
192,192,114264,1,0,0:0:0:0:
64,192,114499,1,2,0:0:0:0:
448,192,114733,1,0,0:0:0:0:
192,192,114850,1,0,0:0:0:0:
64,192,114967,1,2,0:0:0:0:
320,192,115202,1,0,0:0:0:0:
64,192,115436,1,2,0:0:0:0:
448,192,115553,1,0,0:0:0:0:
192,192,115670,1,0,0:0:0:0:
64,192,115905,1,2,0:0:0:0:
320,192,116139,1,0,0:0:0:0:
448,192,116374,1,2,0:0:0:0:
64,192,116608,1,0,0:0:0:0:
320,192,116725,1,0,0:0:0:0:
448,192,116842,1,2,0:0:0:0:
192,192,117077,1,0,0:0:0:0:
448,192,117311,1,2,0:0:0:0:
64,192,117428,1,0,0:0:0:0:
320,192,117545,1,0,0:0:0:0:
192,192,117663,1,0,0:0:0:0:
448,192,117780,1,2,0:0:0:0:
192,192,118014,1,0,0:0:0:0:
320,192,118249,1,2,0:0:0:0:
448,192,118483,1,0,0:0:0:0:
64,192,118600,1,0,0:0:0:0:
320,192,118717,1,2,0:0:0:0:
192,192,118952,1,0,0:0:0:0:
320,192,119186,1,2,0:0:0:0:
192,192,119303,1,0,0:0:0:0:
64,192,119420,1,0,0:0:0:0:
320,192,119655,1,2,0:0:0:0:
448,192,119889,1,0,0:0:0:0:
192,192,120124,1,2,0:0:0:0:
64,192,120358,1,0,0:0:0:0:
448,192,120475,1,0,0:0:0:0:
192,192,120592,1,2,0:0:0:0:
320,192,120827,1,0,0:0:0:0:
192,192,121061,1,2,0:0:0:0:
64,192,121178,1,0,0:0:0:0:
448,192,121295,1,0,0:0:0:0:
320,192,121413,1,0,0:0:0:0:
192,192,121530,1,2,0:0:0:0:
320,192,121764,1,0,0:0:0:0:
64,192,121999,1,2,0:0:0:0:
448,192,122233,1,0,0:0:0:0:
192,192,122350,1,0,0:0:0:0:
64,192,122467,1,2,0:0:0:0:
320,192,122702,1,0,0:0:0:0:
64,192,122936,1,2,0:0:0:0:
448,192,123053,1,0,0:0:0:0:
192,192,123170,1,0,0:0:0:0:
64,192,123405,1,2,0:0:0:0:
192,192,123639,1,0,0:0:0:0:
448,192,123874,1,2,0:0:0:0:
64,192,124108,1,0,0:0:0:0:
320,192,124225,1,0,0:0:0:0:
448,192,124342,1,2,0:0:0:0:
192,192,124577,1,0,0:0:0:0:
320,192,124811,1,2,0:0:0:0:
64,192,124928,1,0,0:0:0:0:
448,192,125045,1,0,0:0:0:0:
192,192,125163,1,0,0:0:0:0:
320,192,125280,1,2,0:0:0:0:
192,192,125514,1,0,0:0:0:0:
64,192,125749,1,2,0:0:0:0:
448,192,125983,1,0,0:0:0:0:
192,192,126100,1,0,0:0:0:0:
64,192,126217,1,2,0:0:0:0:
320,192,126452,1,0,0:0:0:0:
192,192,126686,1,2,0:0:0:0:
448,192,126803,1,0,0:0:0:0:
64,192,126920,1,0,0:0:0:0:
192,192,127155,1,2,0:0:0:0:
320,192,127389,1,0,0:0:0:0:
64,192,127624,1,2,0:0:0:0:
448,192,127624,1,0,0:0:0:0:
192,192,127858,1,0,0:0:0:0:
64,192,127975,1,0,0:0:0:0:
320,192,128092,1,2,0:0:0:0:
448,192,128092,1,0,0:0:0:0:
64,192,128327,1,0,0:0:0:0:
192,192,128561,1,2,0:0:0:0:
448,192,128561,1,0,0:0:0:0:
64,192,128678,1,0,0:0:0:0:
320,192,128795,1,0,0:0:0:0:
448,192,128913,1,0,0:0:0:0:
64,192,129030,1,2,0:0:0:0:
192,192,129030,1,0,0:0:0:0:
320,192,129264,1,0,0:0:0:0:
448,192,129264,1,0,0:0:0:0:
64,192,129499,1,2,0:0:0:0:
320,192,129499,1,0,0:0:0:0:
192,192,129733,1,0,0:0:0:0:
64,192,129850,1,0,0:0:0:0:
320,192,129967,1,2,0:0:0:0:
448,192,129967,1,0,0:0:0:0:
64,192,130202,1,0,0:0:0:0:
192,192,130436,1,2,0:0:0:0:
320,192,130436,1,0,0:0:0:0:
64,192,130553,1,0,0:0:0:0:
448,192,130670,1,0,0:0:0:0:
64,192,130905,1,2,0:0:0:0:
192,192,130905,1,0,0:0:0:0:
320,192,131139,1,0,0:0:0:0:
448,192,131139,1,0,0:0:0:0:
64,192,131374,1,2,0:0:0:0:
448,192,131374,1,0,0:0:0:0:
192,192,131608,1,0,0:0:0:0:
64,192,131725,1,0,0:0:0:0:
320,192,131842,1,2,0:0:0:0:
448,192,131842,1,0,0:0:0:0:
192,192,132077,1,0,0:0:0:0:
64,192,132311,1,2,0:0:0:0:
448,192,132311,1,0,0:0:0:0:
192,192,132428,1,0,0:0:0:0:
320,192,132545,1,0,0:0:0:0:
448,192,132663,1,0,0:0:0:0:
64,192,132780,1,2,0:0:0:0:
192,192,132780,1,0,0:0:0:0:
448,192,133014,1,0,0:0:0:0:
192,192,133249,1,2,0:0:0:0:
320,192,133249,1,0,0:0:0:0:
64,192,133483,1,0,0:0:0:0:
192,192,133600,1,0,0:0:0:0:
320,192,133717,1,2,0:0:0:0:
448,192,133717,1,0,0:0:0:0:
192,192,133952,1,0,0:0:0:0:
64,192,134186,1,2,0:0:0:0:
448,192,134186,1,0,0:0:0:0:
192,192,134303,1,0,0:0:0:0:
64,192,134420,1,0,0:0:0:0:
320,192,134420,1,0,0:0:0:0:
320,192,134655,1,2,0:0:0:0:
448,192,134655,1,0,0:0:0:0:
64,192,134889,1,0,0:0:0:0:
192,192,134889,1,0,0:0:0:0:
320,192,135124,1,2,0:0:0:0:
448,192,135124,1,0,0:0:0:0:
64,192,135241,1,0,0:0:0:0:
192,192,135358,1,0,0:0:0:0:
320,192,135475,1,0,0:0:0:0:
192,192,135592,1,2,0:0:0:0:
448,192,135592,1,0,0:0:0:0:
320,192,135709,1,0,0:0:0:0:
448,192,135827,1,0,0:0:0:0:
64,192,135944,1,0,0:0:0:0:
192,192,136061,1,2,0:0:0:0:
448,192,136061,1,0,0:0:0:0:
320,192,136178,1,0,0:0:0:0:
192,192,136295,1,0,0:0:0:0:
64,192,136413,1,0,0:0:0:0:
320,192,136530,1,2,0:0:0:0:
448,192,136530,1,0,0:0:0:0:
192,192,136647,1,0,0:0:0:0:
64,192,136764,1,0,0:0:0:0:
320,192,136881,1,0,0:0:0:0:
64,192,136999,1,2,0:0:0:0:
192,192,136999,1,0,0:0:0:0:
448,192,137116,1,0,0:0:0:0:
320,192,137233,1,0,0:0:0:0:
192,192,137350,1,0,0:0:0:0:
64,192,137467,1,2,0:0:0:0:
320,192,137467,1,0,0:0:0:0:
192,192,137584,1,0,0:0:0:0:
320,192,137702,1,0,0:0:0:0:
448,192,137819,1,0,0:0:0:0:
64,192,137936,1,2,0:0:0:0:
192,192,137936,1,0,0:0:0:0:
320,192,138053,1,0,0:0:0:0:
448,192,138170,1,0,0:0:0:0:
192,192,138288,1,0,0:0:0:0:
64,192,138405,1,2,0:0:0:0:
448,192,138405,1,0,0:0:0:0:
320,192,138522,1,0,0:0:0:0:
192,192,138639,1,0,0:0:0:0:
64,192,138756,1,0,0:0:0:0:
320,192,138874,1,2,0:0:0:0:
448,192,138874,1,0,0:0:0:0:
192,192,138991,1,0,0:0:0:0:
64,192,139108,1,0,0:0:0:0:
320,192,139225,1,0,0:0:0:0:
448,192,139225,1,0,0:0:0:0:
64,192,139342,1,2,0:0:0:0:
192,192,139342,1,0,0:0:0:0:
320,192,139459,1,0,0:0:0:0:
64,192,139577,1,0,0:0:0:0:
448,192,139577,1,0,0:0:0:0:
192,192,139694,1,0,0:0:0:0:
320,192,139811,1,2,0:0:0:0:
448,192,139811,1,0,0:0:0:0:
64,192,139928,1,0,0:0:0:0:
192,192,140045,1,0,0:0:0:0:
320,192,140163,1,0,0:0:0:0:
448,192,140163,1,0,0:0:0:0:
64,192,140280,1,2,0:0:0:0:
192,192,140280,1,0,0:0:0:0:
448,192,140397,1,0,0:0:0:0:
64,192,140514,1,0,0:0:0:0:
320,192,140514,1,0,0:0:0:0:
192,192,140631,1,0,0:0:0:0:
64,192,140749,1,2,0:0:0:0:
448,192,140749,1,0,0:0:0:0:
320,192,140866,1,0,0:0:0:0:
192,192,140983,1,0,0:0:0:0:
64,192,141100,1,0,0:0:0:0:
448,192,141100,1,0,0:0:0:0:
192,192,141217,1,2,0:0:0:0:
320,192,141217,1,0,0:0:0:0:
448,192,141334,1,0,0:0:0:0:
64,192,141452,1,0,0:0:0:0:
320,192,141452,1,0,0:0:0:0:
192,192,141569,1,0,0:0:0:0:
320,192,141686,1,2,0:0:0:0:
448,192,141686,1,0,0:0:0:0:
64,192,141803,1,0,0:0:0:0:
192,192,141803,1,0,0:0:0:0:
320,192,141920,1,0,0:0:0:0:
448,192,141920,1,0,0:0:0:0:
192,192,142038,1,0,0:0:0:0:
64,192,142155,1,2,0:0:0:0:
448,192,142155,1,0,0:0:0:0:
448,192,142272,1,0,0:0:0:0:
64,192,142389,1,0,0:0:0:0:
192,192,142389,1,0,0:0:0:0:
192,192,142506,1,0,0:0:0:0:
64,192,142624,1,2,0:0:0:0:
320,192,142624,1,0,0:0:0:0:
448,192,142624,1,0,0:0:0:0:
192,192,142741,1,0,0:0:0:0:
320,192,142858,1,0,0:0:0:0:
64,192,142975,1,0,0:0:0:70:VEC3 Snares 021.wav
448,192,142975,1,0,0:0:0:0:
192,192,143092,1,2,0:0:0:0:
320,192,143092,1,0,0:0:0:0:
448,192,143209,1,0,0:0:0:0:
64,192,143327,1,0,0:0:0:70:VEC3 Snares 021.wav
192,192,143327,1,0,0:0:0:0:
320,192,143444,1,0,0:0:0:0:
64,192,143561,1,2,0:0:0:0:
448,192,143561,1,0,0:0:0:0:
192,192,143678,1,0,0:0:0:0:
320,192,143795,1,0,0:0:0:70:VEC3 Snares 021.wav
448,192,143795,1,0,0:0:0:0:
64,192,143913,1,0,0:0:0:0:
192,192,143913,1,0,0:0:0:0:
320,192,144030,1,2,0:0:0:0:
448,192,144030,1,0,0:0:0:0:
64,192,144147,1,0,0:0:0:0:
192,192,144206,1,0,0:0:0:0:
320,192,144264,1,0,0:0:0:70:VEC3 Snares 021.wav
448,192,144264,1,0,0:0:0:0:
64,192,144381,1,0,0:0:0:70:VEC3 Snares 021.wav
192,192,144381,1,0,0:0:0:0:
320,192,144499,1,2,0:0:0:0:
448,192,144499,1,0,0:0:0:0:
192,192,144616,1,0,0:0:0:0:
64,192,144733,1,0,0:0:0:0:
320,192,144850,1,0,0:0:0:70:VEC3 Snares 021.wav
448,192,144850,1,0,0:0:0:0:
64,192,144967,1,2,0:0:0:0:
192,192,144967,1,0,0:0:0:0:
320,192,145084,1,0,0:0:0:0:
64,192,145202,1,0,0:0:0:70:VEC3 Snares 021.wav
448,192,145202,1,0,0:0:0:0:
192,192,145319,1,0,0:0:0:0:
320,192,145436,1,2,0:0:0:0:
448,192,145436,1,0,0:0:0:0:
192,192,145553,1,0,0:0:0:0:
320,192,145670,1,0,0:0:0:70:VEC3 Snares 021.wav
448,192,145670,1,0,0:0:0:0:
64,192,145788,1,0,0:0:0:0:
192,192,145905,1,2,0:0:0:0:
320,192,145905,1,0,0:0:0:0:
448,192,146022,1,0,0:0:0:0:
320,192,146081,1,0,0:0:0:0:
64,192,146139,1,0,0:0:0:70:VEC3 Snares 021.wav
192,192,146139,1,0,0:0:0:0:
320,192,146256,1,0,0:0:0:70:VEC3 Snares 021.wav
448,192,146256,1,0,0:0:0:0:
64,192,146374,1,2,0:0:0:0:
192,192,146374,1,0,0:0:0:0:
320,192,146491,1,0,0:0:0:0:
64,192,146608,1,0,0:0:0:0:
448,192,146608,1,0,0:0:0:0:
192,192,146725,1,0,0:0:0:70:VEC3 Snares 021.wav
320,192,146725,1,0,0:0:0:0:
64,192,146842,1,2,0:0:0:0:
448,192,146842,1,0,0:0:0:0:
320,192,146959,1,0,0:0:0:0:
64,192,147077,1,0,0:0:0:70:VEC3 Snares 021.wav
192,192,147077,1,0,0:0:0:0:
448,192,147194,1,0,0:0:0:0:
192,192,147311,1,2,0:0:0:0:
320,192,147311,1,0,0:0:0:0:
64,192,147428,1,0,0:0:0:0:
320,192,147545,1,0,0:0:0:70:VEC3 Snares 021.wav
448,192,147545,1,0,0:0:0:0:
64,192,147663,1,0,0:0:0:0:
192,192,147663,1,0,0:0:0:0:
320,192,147780,1,2,0:0:0:0:
448,192,147780,1,0,0:0:0:0:
64,192,147897,1,0,0:0:0:0:
192,192,147956,1,0,0:0:0:0:
320,192,148014,1,0,0:0:0:70:VEC3 Snares 021.wav
448,192,148014,1,0,0:0:0:0:
64,192,148131,1,0,0:0:0:70:VEC3 Snares 021.wav
192,192,148131,1,0,0:0:0:0:
320,192,148249,1,2,0:0:0:0:
448,192,148249,1,0,0:0:0:0:
64,192,148366,1,0,0:0:0:0:
192,192,148483,1,0,0:0:0:0:
448,192,148483,1,0,0:0:0:0:
64,192,148600,1,0,0:0:0:70:VEC3 Snares 021.wav
320,192,148600,1,0,0:0:0:0:
192,192,148717,1,2,0:0:0:0:
448,192,148717,1,0,0:0:0:0:
320,192,148834,1,0,0:0:0:0:
64,192,148952,1,0,0:0:0:70:VEC3 Snares 021.wav
192,192,148952,1,0,0:0:0:0:
320,192,149069,1,0,0:0:0:0:
64,192,149186,1,2,0:0:0:0:
448,192,149186,1,0,0:0:0:0:
320,192,149303,1,0,0:0:0:0:
64,192,149420,1,0,0:0:0:70:VEC3 Snares 021.wav
192,192,149420,1,0,0:0:0:0:
320,192,149538,1,0,0:0:0:0:
64,192,149655,1,2,0:0:0:0:
192,192,149655,1,0,0:0:0:0:
448,192,149772,1,0,0:0:0:0:
320,192,149831,1,0,0:0:0:0:
64,192,149889,1,0,0:0:0:70:VEC3 Snares 021.wav
192,192,149889,1,0,0:0:0:0:
320,192,150006,1,0,0:0:0:70:VEC3 Snares 021.wav
448,192,150006,1,0,0:0:0:0:
64,192,150124,1,2,0:0:0:0:
192,192,150124,1,0,0:0:0:0:
320,192,150241,1,0,0:0:0:0:
64,192,150358,1,0,0:0:0:0:
448,192,150358,1,0,0:0:0:0:
192,192,150475,1,0,0:0:0:70:VEC3 Snares 021.wav
320,192,150475,1,0,0:0:0:0:
64,192,150592,1,2,0:0:0:0:
448,192,150592,1,0,0:0:0:0:
320,192,150709,1,0,0:0:0:0:
192,192,150827,1,0,0:0:0:70:VEC3 Snares 021.wav
448,192,150827,1,0,0:0:0:0:
64,192,150944,1,0,0:0:0:0:
320,192,151061,1,2,0:0:0:0:
448,192,151061,1,0,0:0:0:0:
192,192,151178,1,0,0:0:0:0:
320,192,151295,1,0,0:0:0:70:VEC3 Snares 021.wav
448,192,151295,1,0,0:0:0:0:
64,192,151413,1,0,0:0:0:0:
192,192,151413,1,0,0:0:0:0:
320,192,151530,1,2,0:0:0:0:
448,192,151530,1,0,0:0:0:0:
64,192,151647,1,0,0:0:0:0:
192,192,151706,1,0,0:0:0:0:
320,192,151764,1,0,0:0:0:70:VEC3 Snares 021.wav
448,192,151764,1,0,0:0:0:0:
64,192,151881,1,0,0:0:0:70:VEC3 Snares 021.wav
192,192,151881,1,0,0:0:0:0:
320,192,151999,1,2,0:0:0:0:
448,192,151999,1,0,0:0:0:0:
192,192,152116,1,0,0:0:0:0:
64,192,152233,1,0,0:0:0:0:
320,192,152233,1,0,0:0:0:0:
192,192,152350,1,0,0:0:0:70:VEC3 Snares 021.wav
448,192,152350,1,0,0:0:0:0:
64,192,152467,1,2,0:0:0:0:
320,192,152467,1,0,0:0:0:0:
448,192,152584,1,0,0:0:0:0:
192,192,152702,1,0,0:0:0:70:VEC3 Snares 021.wav
320,192,152702,1,0,0:0:0:0:
64,192,152819,1,0,0:0:0:0:
320,192,152936,1,2,0:0:0:0:
448,192,152936,1,0,0:0:0:0:
64,192,153053,1,0,0:0:0:0:
192,192,153170,1,0,0:0:0:70:VEC3 Snares 021.wav
448,192,153170,1,0,0:0:0:0:
320,192,153288,1,0,0:0:0:0:
64,192,153405,1,2,0:0:0:0:
192,192,153405,1,0,0:0:0:0:
448,192,153522,1,0,0:0:0:0:
320,192,153581,1,0,0:0:0:0:
64,192,153639,1,0,0:0:0:70:VEC3 Snares 021.wav
192,192,153639,1,0,0:0:0:0:
320,192,153756,1,0,0:0:0:70:VEC3 Snares 021.wav
448,192,153756,1,0,0:0:0:0:
64,192,153874,1,2,0:0:0:0:
192,192,153874,1,0,0:0:0:0:
448,192,153991,1,0,0:0:0:0:
192,192,154108,1,0,0:0:0:0:
320,192,154108,1,0,0:0:0:0:
64,192,154225,1,0,0:0:0:70:VEC3 Snares 021.wav
448,192,154225,1,0,0:0:0:0:
192,192,154342,1,2,0:0:0:0:
320,192,154342,1,0,0:0:0:0:
64,192,154459,1,0,0:0:0:0:
320,192,154577,1,0,0:0:0:70:VEC3 Snares 021.wav
448,192,154577,1,0,0:0:0:0:
192,192,154694,1,0,0:0:0:0:
64,192,154811,1,2,0:0:0:0:
448,192,154811,1,0,0:0:0:0:
192,192,154928,1,0,0:0:0:0:
320,192,155045,1,0,0:0:0:70:VEC3 Snares 021.wav
448,192,155045,1,0,0:0:0:0:
64,192,155163,1,0,0:0:0:0:
192,192,155163,1,0,0:0:0:0:
320,192,155280,1,2,0:0:0:0:
448,192,155280,1,0,0:0:0:0:
64,192,155397,1,0,0:0:0:0:
192,192,155456,1,0,0:0:0:0:
320,192,155514,1,0,0:0:0:70:VEC3 Snares 021.wav
448,192,155514,1,0,0:0:0:0:
64,192,155631,1,0,0:0:0:70:VEC3 Snares 021.wav
192,192,155631,1,0,0:0:0:0:
64,192,155749,1,0,0:0:0:70:VEC3 Snares 021.wav
448,192,155749,1,0,0:0:0:0:
320,192,155866,1,0,0:0:0:0:
192,192,155983,1,0,0:0:0:0:
320,192,156100,1,0,0:0:0:70:VEC3 Snares 021.wav
448,192,156100,1,0,0:0:0:0:
64,192,156217,1,0,0:0:0:0:
192,192,156334,1,0,0:0:0:0:
64,192,156452,1,0,0:0:0:70:VEC3 Snares 021.wav
448,192,156452,1,0,0:0:0:0:
320,192,156569,1,0,0:0:0:0:
192,192,156686,1,0,0:0:0:0:
192,192,156803,1,0,0:0:0:0:
320,192,156920,1,0,0:0:0:70:VEC3 Snares 021.wav
320,192,157038,1,0,0:0:0:0:
64,192,157155,1,0,0:0:0:0:
192,192,157155,1,0,0:0:0:0:
320,192,157155,1,0,0:0:0:0:
448,192,157155,1,0,0:0:0:0:
64,192,157272,1,0,0:0:0:0:
320,192,157389,1,0,0:0:0:0:
448,192,157389,1,0,0:0:0:0:
448,192,157506,1,0,0:0:0:0:
64,192,157624,1,14,0:0:0:0:
320,192,157624,1,0,0:0:0:70:VEC3 Snares 021.wav
192,192,157741,1,0,0:0:0:70:VEC3 Snares 021.wav
320,192,157858,1,0,0:0:0:70:VEC3 Snares 021.wav
448,192,157858,1,0,0:0:0:0:
64,192,157975,1,0,0:0:0:70:VEC3 Snares 021.wav
192,192,157975,1,0,0:0:0:0:
320,192,158092,1,8,0:0:0:0:
448,192,158092,1,0,0:0:0:70:VEC3 Snares 021.wav
192,192,158209,1,0,0:0:0:70:VEC3 Snares 021.wav
64,192,158327,1,0,0:0:0:70:VEC3 Snares 021.wav
320,192,158327,1,0,0:0:0:0:
192,192,158444,1,0,0:0:0:70:VEC3 Snares 021.wav
64,192,158561,1,8,0:0:0:0:
448,192,158561,1,0,0:0:0:70:VEC3 Snares 021.wav
192,192,158678,1,0,0:0:0:70:VEC3 Snares 021.wav
320,192,158678,1,0,0:0:0:0:
64,192,158795,1,0,0:0:0:70:VEC3 Snares 021.wav
448,192,158795,1,0,0:0:0:0:
320,192,158913,1,0,0:0:0:70:VEC3 Snares 021.wav
64,192,159030,1,8,0:0:0:0:
192,192,159030,1,0,0:0:0:70:VEC3 Snares 021.wav
64,192,159147,1,0,0:0:0:70:VEC3 Snares 021.wav
448,192,159147,1,0,0:0:0:0:
320,192,159206,1,0,0:0:0:70:VEC3 Snares 021.wav
192,192,159264,1,0,0:0:0:70:VEC3 Snares 021.wav
64,192,159323,1,0,0:0:0:70:VEC3 Snares 021.wav
320,192,159381,1,0,0:0:0:70:VEC3 Snares 021.wav
448,192,159381,1,0,0:0:0:0:
64,192,159499,1,8,0:0:0:0:
192,192,159499,1,0,0:0:0:70:VEC3 Snares 021.wav
320,192,159616,1,0,0:0:0:70:VEC3 Snares 021.wav
64,192,159733,1,0,0:0:0:70:VEC3 Snares 021.wav
448,192,159733,1,0,0:0:0:0:
192,192,159850,1,0,0:0:0:70:VEC3 Snares 021.wav
320,192,159850,1,0,0:0:0:0:
64,192,159967,1,8,0:0:0:0:
448,192,159967,1,0,0:0:0:70:VEC3 Snares 021.wav
320,192,160084,1,0,0:0:0:70:VEC3 Snares 021.wav
64,192,160202,1,0,0:0:0:70:VEC3 Snares 021.wav
192,192,160202,1,0,0:0:0:0:
320,192,160319,1,0,0:0:0:70:VEC3 Snares 021.wav
64,192,160436,1,8,0:0:0:0:
448,192,160436,1,0,0:0:0:70:VEC3 Snares 021.wav
192,192,160553,1,0,0:0:0:70:VEC3 Snares 021.wav
320,192,160670,1,0,0:0:0:70:VEC3 Snares 021.wav
448,192,160670,1,0,0:0:0:0:
64,192,160788,1,0,0:0:0:70:VEC3 Snares 021.wav
192,192,160788,1,0,0:0:0:0:
320,192,160905,1,8,0:0:0:0:
448,192,160905,1,0,0:0:0:70:VEC3 Snares 021.wav
64,192,161022,1,0,0:0:0:70:VEC3 Snares 021.wav
448,192,161022,1,0,0:0:0:0:
192,192,161081,1,0,0:0:0:70:VEC3 Snares 021.wav
320,192,161139,1,0,0:0:0:70:VEC3 Snares 021.wav
448,192,161198,1,0,0:0:0:70:VEC3 Snares 021.wav
64,192,161256,1,0,0:0:0:70:VEC3 Snares 021.wav
192,192,161256,1,0,0:0:0:0:
320,192,161374,1,8,0:0:0:0:
448,192,161374,1,0,0:0:0:70:VEC3 Snares 021.wav
64,192,161491,1,0,0:0:0:70:VEC3 Snares 021.wav
192,192,161608,1,0,0:0:0:70:VEC3 Snares 021.wav
320,192,161608,1,0,0:0:0:0:
64,192,161725,1,0,0:0:0:70:VEC3 Snares 021.wav
448,192,161725,1,0,0:0:0:0:
192,192,161842,1,8,0:0:0:0:
320,192,161842,1,0,0:0:0:70:VEC3 Snares 021.wav
64,192,161959,1,0,0:0:0:70:VEC3 Snares 021.wav
192,192,162077,1,0,0:0:0:70:VEC3 Snares 021.wav
448,192,162077,1,0,0:0:0:0:
320,192,162194,1,0,0:0:0:70:VEC3 Snares 021.wav
64,192,162311,1,8,0:0:0:0:
192,192,162311,1,0,0:0:0:70:VEC3 Snares 021.wav
320,192,162428,1,0,0:0:0:70:VEC3 Snares 021.wav
448,192,162428,1,0,0:0:0:0:
64,192,162545,1,0,0:0:0:70:VEC3 Snares 021.wav
192,192,162545,1,0,0:0:0:0:
320,192,162663,1,0,0:0:0:70:VEC3 Snares 021.wav
448,192,162663,1,0,0:0:0:0:
64,192,162780,1,8,0:0:0:0:
192,192,162780,1,0,0:0:0:70:VEC3 Snares 021.wav
64,192,162897,1,0,0:0:0:70:VEC3 Snares 021.wav
448,192,162897,1,0,0:0:0:0:
320,192,162956,1,0,0:0:0:70:VEC3 Snares 021.wav
192,192,163014,1,0,0:0:0:70:VEC3 Snares 021.wav
64,192,163073,1,0,0:0:0:70:VEC3 Snares 021.wav
320,192,163131,1,0,0:0:0:70:VEC3 Snares 021.wav
448,192,163131,1,0,0:0:0:0:
64,192,163249,1,8,0:0:0:0:
192,192,163249,1,0,0:0:0:70:VEC3 Snares 021.wav
320,192,163366,1,0,0:0:0:70:VEC3 Snares 021.wav
64,192,163483,1,0,0:0:0:70:VEC3 Snares 021.wav
448,192,163483,1,0,0:0:0:0:
192,192,163600,1,0,0:0:0:70:VEC3 Snares 021.wav
320,192,163600,1,0,0:0:0:0:
64,192,163717,1,8,0:0:0:0:
448,192,163717,1,0,0:0:0:70:VEC3 Snares 021.wav
192,192,163834,1,0,0:0:0:70:VEC3 Snares 021.wav
320,192,163834,1,0,0:0:0:0:
64,192,163952,1,0,0:0:0:70:VEC3 Snares 021.wav
448,192,163952,1,0,0:0:0:0:
320,192,164069,1,0,0:0:0:70:VEC3 Snares 021.wav
64,192,164186,1,8,0:0:0:0:
192,192,164186,1,0,0:0:0:70:VEC3 Snares 021.wav
448,192,164303,1,0,0:0:0:70:VEC3 Snares 021.wav
192,192,164420,1,0,0:0:0:70:VEC3 Snares 021.wav
320,192,164420,1,0,0:0:0:0:
64,192,164538,1,0,0:0:0:70:VEC3 Snares 021.wav
320,192,164655,1,8,0:0:0:0:
448,192,164655,1,0,0:0:0:70:VEC3 Snares 021.wav
64,192,164772,1,0,0:0:0:70:VEC3 Snares 021.wav
448,192,164772,1,0,0:0:0:0:
192,192,164831,1,0,0:0:0:70:VEC3 Snares 021.wav
320,192,164889,1,0,0:0:0:70:VEC3 Snares 021.wav
448,192,164948,1,0,0:0:0:70:VEC3 Snares 021.wav
64,192,165006,1,0,0:0:0:70:VEC3 Snares 021.wav
192,192,165006,1,0,0:0:0:0:
320,192,165124,1,8,0:0:0:0:
448,192,165124,1,0,0:0:0:70:VEC3 Snares 021.wav
320,192,165241,1,0,0:0:0:70:VEC3 Snares 021.wav
448,192,165241,1,0,0:0:0:0:
320,192,165358,1,0,0:0:0:70:VEC3 Snares 021.wav
448,192,165358,1,0,0:0:0:0:
64,192,165475,1,0,0:0:0:70:VEC3 Snares 021.wav
192,192,165475,1,0,0:0:0:0:
320,192,165592,1,8,0:0:0:0:
448,192,165592,1,0,0:0:0:70:VEC3 Snares 021.wav
64,192,165709,1,0,0:0:0:70:VEC3 Snares 021.wav
192,192,165709,1,0,0:0:0:0:
64,192,165827,1,0,0:0:0:70:VEC3 Snares 021.wav
192,192,165827,1,0,0:0:0:0:
320,192,165944,1,0,0:0:0:70:VEC3 Snares 021.wav
448,192,165944,1,0,0:0:0:0:
320,192,166061,1,8,0:0:0:0:
448,192,166061,1,0,0:0:0:70:VEC3 Snares 021.wav
64,192,166178,1,0,0:0:0:70:VEC3 Snares 021.wav
192,192,166178,1,0,0:0:0:0:
64,192,166295,1,0,0:0:0:70:VEC3 Snares 021.wav
448,192,166295,1,0,0:0:0:0:
192,192,166413,1,0,0:0:0:70:VEC3 Snares 021.wav
320,192,166413,1,0,0:0:0:0:
64,192,166530,1,8,0:0:0:0:
192,192,166530,1,0,0:0:0:70:VEC3 Snares 021.wav
64,192,166647,1,0,0:0:0:70:VEC3 Snares 021.wav
448,192,166647,1,0,0:0:0:0:
320,192,166706,1,0,0:0:0:70:VEC3 Snares 021.wav
192,192,166764,1,0,0:0:0:70:VEC3 Snares 021.wav
64,192,166823,1,0,0:0:0:70:VEC3 Snares 021.wav
448,192,166881,1,0,0:0:0:70:VEC3 Snares 021.wav
320,192,166940,1,0,0:0:0:0:
64,192,166999,1,8,0:0:0:0:
192,192,166999,1,0,0:0:0:70:VEC3 Snares 021.wav
64,192,167116,1,0,0:0:0:70:VEC3 Snares 021.wav
192,192,167116,1,0,0:0:0:0:
64,192,167233,1,0,0:0:0:70:VEC3 Snares 021.wav
192,192,167233,1,0,0:0:0:0:
320,192,167350,1,0,0:0:0:70:VEC3 Snares 021.wav
448,192,167350,1,0,0:0:0:0:
64,192,167467,1,8,0:0:0:0:
192,192,167467,1,0,0:0:0:70:VEC3 Snares 021.wav
320,192,167584,1,0,0:0:0:70:VEC3 Snares 021.wav
448,192,167584,1,0,0:0:0:0:
320,192,167702,1,0,0:0:0:70:VEC3 Snares 021.wav
448,192,167702,1,0,0:0:0:0:
64,192,167819,1,0,0:0:0:70:VEC3 Snares 021.wav
192,192,167819,1,0,0:0:0:0:
64,192,167936,1,8,0:0:0:0:
192,192,167936,1,0,0:0:0:70:VEC3 Snares 021.wav
320,192,168053,1,0,0:0:0:70:VEC3 Snares 021.wav
448,192,168053,1,0,0:0:0:0:
64,192,168170,1,0,0:0:0:70:VEC3 Snares 021.wav
448,192,168170,1,0,0:0:0:0:
192,192,168288,1,0,0:0:0:70:VEC3 Snares 021.wav
320,192,168288,1,0,0:0:0:0:
320,192,168405,1,8,0:0:0:0:
448,192,168405,1,0,0:0:0:70:VEC3 Snares 021.wav
64,192,168522,1,0,0:0:0:70:VEC3 Snares 021.wav
448,192,168522,1,0,0:0:0:0:
192,192,168581,1,0,0:0:0:70:VEC3 Snares 021.wav
320,192,168639,1,0,0:0:0:70:VEC3 Snares 021.wav
448,192,168698,1,0,0:0:0:70:VEC3 Snares 021.wav
64,192,168756,1,0,0:0:0:70:VEC3 Snares 021.wav
192,192,168815,1,0,0:0:0:70:VEC3 Snares 021.wav
320,192,168874,1,8,0:0:0:0:
448,192,168874,1,0,0:0:0:60:VEC3 Snares 021.wav
320,192,168991,1,0,0:0:0:60:VEC3 Snares 021.wav
448,192,168991,1,0,0:0:0:0:
320,192,169108,1,0,0:0:0:60:VEC3 Snares 021.wav
448,192,169108,1,0,0:0:0:0:
64,192,169225,1,0,0:0:0:60:VEC3 Snares 021.wav
192,192,169225,1,0,0:0:0:0:
320,192,169342,1,8,0:0:0:0:
448,192,169342,1,0,0:0:0:60:VEC3 Snares 021.wav
64,192,169459,1,0,0:0:0:60:VEC3 Snares 021.wav
192,192,169459,1,0,0:0:0:0:
64,192,169577,1,0,0:0:0:60:VEC3 Snares 021.wav
192,192,169577,1,0,0:0:0:0:
320,192,169694,1,0,0:0:0:60:VEC3 Snares 021.wav
448,192,169694,1,0,0:0:0:0:
320,192,169811,1,8,0:0:0:0:
448,192,169811,1,0,0:0:0:60:VEC3 Snares 021.wav
64,192,169928,1,0,0:0:0:60:VEC3 Snares 021.wav
192,192,169928,1,0,0:0:0:0:
64,192,170045,1,0,0:0:0:60:VEC3 Snares 021.wav
448,192,170045,1,0,0:0:0:0:
192,192,170163,1,0,0:0:0:60:VEC3 Snares 021.wav
320,192,170163,1,0,0:0:0:0:
64,192,170280,1,8,0:0:0:0:
192,192,170280,1,0,0:0:0:60:VEC3 Snares 021.wav
64,192,170397,1,0,0:0:0:60:VEC3 Snares 021.wav
448,192,170397,1,0,0:0:0:0:
320,192,170456,1,0,0:0:0:60:VEC3 Snares 021.wav
192,192,170514,1,0,0:0:0:60:VEC3 Snares 021.wav
64,192,170573,1,0,0:0:0:60:VEC3 Snares 021.wav
448,192,170631,1,0,0:0:0:60:VEC3 Snares 021.wav
320,192,170690,1,0,0:0:0:60:VEC3 Snares 021.wav
64,192,170749,1,8,0:0:0:0:
192,192,170749,1,0,0:0:0:60:VEC3 Snares 021.wav
448,192,170866,1,0,0:0:0:50:VEC3 Snares 021.wav
320,192,170983,1,0,0:0:0:50:VEC3 Snares 021.wav
64,192,171100,1,0,0:0:0:50:VEC3 Snares 021.wav
192,192,171100,1,0,0:0:0:0:
448,192,171217,1,8,0:0:0:0:
320,192,171334,1,0,0:0:0:50:VEC3 Snares 021.wav
64,192,171452,1,0,0:0:0:50:VEC3 Snares 021.wav
448,192,171452,1,0,0:0:0:0:
192,192,171510,1,0,0:0:0:0:
320,192,171569,1,0,0:0:0:50:VEC3 Snares 021.wav
448,192,171627,1,0,0:0:0:0:
64,192,171686,1,8,0:0:0:0:
192,192,171686,1,0,0:0:0:50:VEC3 Snares 021.wav
320,192,171803,1,0,0:0:0:50:VEC3 Snares 021.wav
448,192,171803,1,0,0:0:0:0:
64,192,171920,1,0,0:0:0:50:VEC3 Snares 021.wav
192,192,171920,1,0,0:0:0:0:
448,192,172038,1,0,0:0:0:50:VEC3 Snares 021.wav
320,192,172096,1,0,0:0:0:0:
64,192,172155,1,0,0:0:0:50:VEC3 Snares 021.wav
192,192,172155,1,0,0:0:0:0:
448,192,172155,1,0,0:0:0:0:
64,192,172389,1,0,0:0:0:0:
320,192,172389,1,0,0:0:0:0:
64,192,172624,1,4,0:0:0:0:
192,192,172624,1,2,0:0:0:0:
320,192,172624,1,8,0:0:0:0:
448,192,172624,1,0,0:0:0:0:
64,192,172741,1,0,0:0:0:0:
192,192,172741,1,0,0:0:0:0:
320,192,172858,1,0,0:0:0:0:
448,192,172858,1,0,0:0:0:0:
64,192,172975,1,0,0:0:0:0:
320,192,172975,1,0,0:0:0:0:
192,192,173092,1,2,0:0:0:0:
320,192,173092,1,8,0:0:0:0:
448,192,173092,1,0,0:0:0:0:
64,192,173209,1,0,0:0:0:0:
192,192,173209,1,0,0:0:0:0:
192,192,173327,1,0,0:0:0:0:
320,192,173327,1,0,0:0:0:0:
320,192,173444,1,0,0:0:0:0:
448,192,173444,1,0,0:0:0:0:
64,192,173561,1,2,0:0:0:0:
192,192,173561,1,8,0:0:0:0:
448,192,173561,1,0,0:0:0:0:
64,192,173678,1,0,0:0:0:0:
192,192,173678,1,0,0:0:0:0:
320,192,173795,1,0,0:0:0:0:
448,192,173795,1,0,0:0:0:0:
320,192,173913,1,0,0:0:0:0:
448,192,173913,1,0,0:0:0:0:
64,192,174030,1,2,0:0:0:0:
192,192,174030,1,8,0:0:0:0:
320,192,174030,1,0,0:0:0:0:
64,192,174147,1,0,0:0:0:0:
192,192,174147,1,0,0:0:0:0:
64,192,174264,1,0,0:0:0:0:
448,192,174264,1,0,0:0:0:0:
320,192,174381,1,0,0:0:0:0:
448,192,174381,1,0,0:0:0:0:
64,192,174499,1,2,0:0:0:0:
192,192,174499,1,8,0:0:0:0:
320,192,174499,1,0,0:0:0:0:
448,192,174499,1,0,0:0:0:0:
64,192,174616,1,0,0:0:0:0:
192,192,174616,1,0,0:0:0:0:
64,192,174733,1,0,0:0:0:0:
192,192,174733,1,0,0:0:0:0:
64,192,174850,1,0,0:0:0:0:
192,192,174850,1,0,0:0:0:0:
64,192,174967,1,2,0:0:0:0:
192,192,174967,1,8,0:0:0:0:
320,192,174967,1,0,0:0:0:0:
448,192,174967,1,0,0:0:0:0:
320,192,175084,1,0,0:0:0:0:
448,192,175084,1,0,0:0:0:0:
320,192,175202,1,0,0:0:0:0:
448,192,175202,1,0,0:0:0:0:
320,192,175319,1,0,0:0:0:0:
448,192,175319,1,0,0:0:0:0:
64,192,175436,1,2,0:0:0:0:
192,192,175436,1,8,0:0:0:0:
320,192,175436,1,0,0:0:0:0:
448,192,175436,1,0,0:0:0:0:
64,192,175553,1,0,0:0:0:0:
192,192,175553,1,0,0:0:0:0:
64,192,175670,1,0,0:0:0:0:
192,192,175670,1,0,0:0:0:0:
64,192,175788,1,0,0:0:0:0:
192,192,175788,1,0,0:0:0:0:
64,192,175905,1,2,0:0:0:0:
192,192,175905,1,8,0:0:0:0:
320,192,175905,1,0,0:0:0:0:
448,192,175905,1,0,0:0:0:0:
320,192,176022,1,0,0:0:0:0:
448,192,176022,1,0,0:0:0:0:
320,192,176139,1,0,0:0:0:0:
448,192,176139,1,0,0:0:0:0:
320,192,176256,1,0,0:0:0:0:
448,192,176256,1,0,0:0:0:0:
64,192,176374,1,8,0:0:0:0:
192,192,176374,1,2,0:0:0:0:
320,192,176374,1,0,0:0:0:0:
448,192,176374,1,0,0:0:0:0:
64,192,176491,1,0,0:0:0:0:
192,192,176491,1,0,0:0:0:0:
320,192,176608,1,0,0:0:0:0:
448,192,176608,1,0,0:0:0:0:
192,192,176725,1,0,0:0:0:0:
320,192,176725,1,0,0:0:0:0:
64,192,176842,1,8,0:0:0:0:
320,192,176842,1,2,0:0:0:0:
448,192,176842,1,0,0:0:0:0:
64,192,176959,1,0,0:0:0:0:
192,192,176959,1,0,0:0:0:0:
320,192,177077,1,0,0:0:0:0:
448,192,177077,1,0,0:0:0:0:
64,192,177194,1,0,0:0:0:0:
320,192,177194,1,0,0:0:0:0:
64,192,177311,1,8,0:0:0:0:
320,192,177311,1,2,0:0:0:0:
448,192,177311,1,0,0:0:0:0:
320,192,177428,1,0,0:0:0:0:
448,192,177428,1,0,0:0:0:0:
64,192,177545,1,0,0:0:0:0:
192,192,177545,1,0,0:0:0:0:
64,192,177663,1,0,0:0:0:0:
192,192,177663,1,0,0:0:0:0:
192,192,177780,1,8,0:0:0:0:
320,192,177780,1,2,0:0:0:0:
448,192,177780,1,0,0:0:0:0:
320,192,177897,1,0,0:0:0:0:
448,192,177897,1,0,0:0:0:0:
64,192,178014,1,0,0:0:0:0:
192,192,178014,1,0,0:0:0:0:
192,192,178131,1,0,0:0:0:0:
320,192,178131,1,0,0:0:0:0:
64,192,178249,1,2,0:0:0:0:
192,192,178249,1,8,0:0:0:0:
320,192,178249,1,0,0:0:0:0:
448,192,178249,1,0,0:0:0:0:
64,192,178366,1,0,0:0:0:0:
448,192,178366,1,0,0:0:0:0:
64,192,178483,1,0,0:0:0:0:
192,192,178483,1,0,0:0:0:0:
192,192,178600,1,0,0:0:0:0:
320,192,178600,1,0,0:0:0:0:
192,192,178717,1,2,0:0:0:0:
320,192,178717,1,8,0:0:0:0:
448,192,178717,1,0,0:0:0:0:
64,192,178834,1,0,0:0:0:0:
192,192,178834,1,0,0:0:0:0:
64,192,178952,1,0,0:0:0:0:
448,192,178952,1,0,0:0:0:0:
320,192,179069,1,0,0:0:0:0:
448,192,179069,1,0,0:0:0:0:
64,192,179186,1,2,0:0:0:0:
192,192,179186,1,8,0:0:0:0:
320,192,179186,1,0,0:0:0:0:
64,192,179303,1,0,0:0:0:0:
448,192,179303,1,0,0:0:0:0:
192,192,179420,1,0,0:0:0:0:
320,192,179420,1,0,0:0:0:0:
64,192,179538,1,0,0:0:0:0:
448,192,179538,1,0,0:0:0:0:
64,192,179655,1,2,0:0:0:0:
192,192,179655,1,8,0:0:0:0:
448,192,179655,1,0,0:0:0:0:
192,192,179772,1,0,0:0:0:0:
320,192,179772,1,0,0:0:0:0:
64,192,179889,1,0,0:0:0:0:
448,192,179889,1,0,0:0:0:0:
192,192,180006,1,0,0:0:0:0:
320,192,180006,1,0,0:0:0:0:
64,192,180124,1,8,0:0:0:0:
192,192,180124,1,2,0:0:0:0:
320,192,180124,1,0,0:0:0:0:
448,192,180124,1,0,0:0:0:0:
64,192,180241,1,0,0:0:0:0:
192,192,180241,1,0,0:0:0:0:
320,192,180358,1,0,0:0:0:0:
448,192,180358,1,0,0:0:0:0:
192,192,180475,1,0,0:0:0:0:
448,192,180475,1,0,0:0:0:0:
64,192,180592,1,8,0:0:0:0:
320,192,180592,1,2,0:0:0:0:
448,192,180592,1,0,0:0:0:0:
64,192,180709,1,0,0:0:0:0:
192,192,180709,1,0,0:0:0:0:
320,192,180827,1,0,0:0:0:0:
448,192,180827,1,0,0:0:0:0:
64,192,180944,1,0,0:0:0:0:
320,192,180944,1,0,0:0:0:0:
64,192,181061,1,8,0:0:0:0:
192,192,181061,1,2,0:0:0:0:
448,192,181061,1,0,0:0:0:0:
64,192,181178,1,0,0:0:0:0:
192,192,181178,1,0,0:0:0:0:
320,192,181295,1,0,0:0:0:0:
448,192,181295,1,0,0:0:0:0:
320,192,181413,1,0,0:0:0:0:
448,192,181413,1,0,0:0:0:0:
64,192,181530,1,8,0:0:0:0:
192,192,181530,1,2,0:0:0:0:
320,192,181530,1,0,0:0:0:0:
320,192,181647,1,0,0:0:0:0:
448,192,181647,1,0,0:0:0:0:
64,192,181764,1,0,0:0:0:0:
192,192,181764,1,0,0:0:0:0:
64,192,181881,1,0,0:0:0:0:
448,192,181881,1,0,0:0:0:0:
64,192,181999,1,2,0:0:0:0:
192,192,181999,1,8,0:0:0:0:
320,192,181999,1,0,0:0:0:0:
448,192,181999,1,0,0:0:0:0:
192,192,182116,1,0,0:0:0:0:
320,192,182116,1,0,0:0:0:0:
192,192,182233,1,0,0:0:0:0:
320,192,182233,1,0,0:0:0:0:
192,192,182350,1,0,0:0:0:0:
320,192,182350,1,0,0:0:0:0:
64,192,182467,1,2,0:0:0:0:
192,192,182467,1,8,0:0:0:0:
320,192,182467,1,0,0:0:0:0:
448,192,182467,1,0,0:0:0:0:
64,192,182584,1,0,0:0:0:0:
448,192,182584,1,0,0:0:0:0:
64,192,182702,1,0,0:0:0:0:
448,192,182702,1,0,0:0:0:0:
64,192,182819,1,0,0:0:0:0:
448,192,182819,1,0,0:0:0:0:
64,192,182936,1,2,0:0:0:0:
192,192,182936,1,8,0:0:0:0:
320,192,182936,1,0,0:0:0:0:
448,192,182936,1,0,0:0:0:0:
192,192,183053,1,0,0:0:0:0:
320,192,183053,1,0,0:0:0:0:
192,192,183170,1,0,0:0:0:0:
320,192,183170,1,0,0:0:0:0:
192,192,183288,1,0,0:0:0:0:
320,192,183288,1,0,0:0:0:0:
64,192,183405,1,2,0:0:0:0:
192,192,183405,1,8,0:0:0:0:
320,192,183405,1,0,0:0:0:0:
448,192,183405,1,0,0:0:0:0:
64,192,183522,1,0,0:0:0:0:
448,192,183522,1,0,0:0:0:0:
64,192,183639,1,0,0:0:0:0:
448,192,183639,1,0,0:0:0:0:
64,192,183756,1,0,0:0:0:0:
448,192,183756,1,0,0:0:0:0:
64,192,183874,1,2,0:0:0:0:
192,192,183874,1,8,0:0:0:0:
320,192,183874,1,0,0:0:0:0:
448,192,183874,1,0,0:0:0:0:
192,192,183991,1,0,0:0:0:0:
320,192,183991,1,0,0:0:0:0:
64,192,184108,1,0,0:0:0:0:
192,192,184108,1,0,0:0:0:0:
320,192,184225,1,0,0:0:0:0:
448,192,184225,1,0,0:0:0:0:
64,192,184342,1,2,0:0:0:0:
192,192,184342,1,8,0:0:0:0:
448,192,184342,1,0,0:0:0:0:
64,192,184459,1,0,0:0:0:0:
320,192,184459,1,0,0:0:0:0:
192,192,184577,1,0,0:0:0:0:
448,192,184577,1,0,0:0:0:0:
192,192,184694,1,0,0:0:0:0:
320,192,184694,1,0,0:0:0:0:
64,192,184811,1,2,0:0:0:0:
320,192,184811,1,8,0:0:0:0:
448,192,184811,1,0,0:0:0:0:
320,192,184928,1,0,0:0:0:0:
448,192,184928,1,0,0:0:0:0:
64,192,185045,1,0,0:0:0:0:
192,192,185045,1,0,0:0:0:0:
64,192,185163,1,0,0:0:0:0:
192,192,185163,1,0,0:0:0:0:
192,192,185280,1,2,0:0:0:0:
320,192,185280,1,8,0:0:0:0:
448,192,185280,1,0,0:0:0:0:
64,192,185397,1,0,0:0:0:0:
320,192,185397,1,0,0:0:0:0:
192,192,185514,1,0,0:0:0:0:
448,192,185514,1,0,0:0:0:0:
320,192,185631,1,0,0:0:0:0:
448,192,185631,1,0,0:0:0:0:
64,192,185749,1,8,0:0:0:0:
448,192,185749,1,0,0:0:0:0:
192,192,185866,1,0,0:0:0:0:
320,192,185983,1,0,0:0:0:0:
448,192,186100,1,0,0:0:0:0:
192,192,186217,1,8,0:0:0:0:
320,192,186217,1,0,0:0:0:0:
64,192,186334,1,0,0:0:0:0:
448,192,186452,1,0,0:0:0:0:
320,192,186569,1,0,0:0:0:0:
64,192,186686,1,8,0:0:0:0:
448,192,186686,1,0,0:0:0:0:
192,192,186803,1,0,0:0:0:0:
64,192,186920,1,0,0:0:0:0:
320,192,186920,1,0,0:0:0:0:
448,192,187038,1,0,0:0:0:0:
64,192,187155,1,0,0:0:0:100:LR3_Snare DSW.wav
192,192,187155,1,0,0:0:0:0:
320,192,187155,1,0,0:0:0:0:
448,192,187155,1,0,0:0:0:0:
64,192,187389,1,0,0:0:0:100:LR3_Snare DSW.wav
192,192,187389,1,0,0:0:0:0:
320,192,187389,1,0,0:0:0:0:
448,192,187389,1,0,0:0:0:0:
64,192,187624,1,8,0:0:0:0:
192,192,187624,1,2,0:0:0:0:
320,192,187624,1,4,0:0:0:0:
448,192,187624,1,0,0:0:0:0:
64,192,187741,1,0,0:0:0:0:
320,192,187741,1,0,0:0:0:0:
192,192,187858,1,0,0:0:0:0:
448,192,187858,1,0,0:0:0:0:
320,192,187975,1,0,0:0:0:0:
448,192,187975,1,0,0:0:0:0:
192,192,188092,1,8,0:0:0:0:
320,192,188092,1,2,0:0:0:0:
448,192,188092,1,0,0:0:0:0:
64,192,188209,1,0,0:0:0:0:
192,192,188209,1,0,0:0:0:0:
64,192,188327,1,0,0:0:0:0:
320,192,188327,1,0,0:0:0:0:
192,192,188444,1,0,0:0:0:0:
448,192,188444,1,0,0:0:0:0:
64,192,188561,1,8,0:0:0:0:
320,192,188561,1,2,0:0:0:0:
448,192,188561,1,0,0:0:0:0:
320,192,188678,1,0,0:0:0:0:
448,192,188678,1,0,0:0:0:0:
64,192,188795,1,0,0:0:0:0:
192,192,188795,1,0,0:0:0:0:
64,192,188913,1,0,0:0:0:0:
192,192,188913,1,0,0:0:0:0:
64,192,189030,1,8,0:0:0:0:
320,192,189030,1,2,0:0:0:0:
448,192,189030,1,0,0:0:0:0:
192,192,189147,1,0,0:0:0:0:
320,192,189147,1,0,0:0:0:0:
64,192,189264,1,0,0:0:0:0:
448,192,189264,1,0,0:0:0:0:
64,192,189381,1,0,0:0:0:0:
192,192,189381,1,0,0:0:0:0:
64,192,189499,1,8,0:0:0:0:
192,192,189499,1,2,0:0:0:0:
320,192,189499,1,0,0:0:0:0:
448,192,189499,1,0,0:0:0:0:
320,192,189616,1,0,0:0:0:0:
448,192,189616,1,0,0:0:0:0:
320,192,189733,1,0,0:0:0:0:
448,192,189733,1,0,0:0:0:0:
320,192,189850,1,0,0:0:0:0:
448,192,189850,1,0,0:0:0:0:
64,192,189967,1,8,0:0:0:0:
192,192,189967,1,2,0:0:0:0:
320,192,189967,1,0,0:0:0:0:
448,192,189967,1,0,0:0:0:0:
64,192,190084,1,0,0:0:0:0:
192,192,190084,1,0,0:0:0:0:
64,192,190202,1,0,0:0:0:0:
192,192,190202,1,0,0:0:0:0:
64,192,190319,1,0,0:0:0:0:
192,192,190319,1,0,0:0:0:0:
64,192,190436,1,8,0:0:0:0:
192,192,190436,1,2,0:0:0:0:
320,192,190436,1,0,0:0:0:0:
448,192,190436,1,0,0:0:0:0:
320,192,190553,1,0,0:0:0:0:
448,192,190553,1,0,0:0:0:0:
320,192,190670,1,0,0:0:0:0:
448,192,190670,1,0,0:0:0:0:
320,192,190788,1,0,0:0:0:0:
448,192,190788,1,0,0:0:0:0:
64,192,190905,1,8,0:0:0:0:
192,192,190905,1,2,0:0:0:0:
320,192,190905,1,0,0:0:0:0:
448,192,190905,1,0,0:0:0:0:
64,192,191022,1,0,0:0:0:0:
192,192,191022,1,0,0:0:0:0:
64,192,191139,1,0,0:0:0:0:
192,192,191139,1,0,0:0:0:0:
64,192,191256,1,0,0:0:0:0:
192,192,191256,1,0,0:0:0:0:
64,192,191374,1,2,0:0:0:0:
192,192,191374,1,8,0:0:0:0:
320,192,191374,1,0,0:0:0:0:
448,192,191374,1,0,0:0:0:0:
320,192,191491,1,0,0:0:0:0:
448,192,191491,1,0,0:0:0:0:
64,192,191608,1,0,0:0:0:0:
320,192,191608,1,0,0:0:0:0:
192,192,191725,1,0,0:0:0:0:
448,192,191725,1,0,0:0:0:0:
64,192,191842,1,2,0:0:0:0:
320,192,191842,1,8,0:0:0:0:
448,192,191842,1,0,0:0:0:0:
64,192,191959,1,0,0:0:0:0:
192,192,191959,1,0,0:0:0:0:
192,192,192077,1,0,0:0:0:0:
320,192,192077,1,0,0:0:0:0:
320,192,192194,1,0,0:0:0:0:
448,192,192194,1,0,0:0:0:0:
64,192,192311,1,2,0:0:0:0:
192,192,192311,1,8,0:0:0:0:
448,192,192311,1,0,0:0:0:0:
64,192,192428,1,0,0:0:0:0:
192,192,192428,1,0,0:0:0:0:
320,192,192545,1,0,0:0:0:0:
448,192,192545,1,0,0:0:0:0:
320,192,192663,1,0,0:0:0:0:
448,192,192663,1,0,0:0:0:0:
64,192,192780,1,2,0:0:0:0:
192,192,192780,1,8,0:0:0:0:
448,192,192780,1,0,0:0:0:0:
192,192,192897,1,0,0:0:0:0:
320,192,192897,1,0,0:0:0:0:
64,192,193014,1,0,0:0:0:0:
448,192,193014,1,0,0:0:0:0:
64,192,193131,1,0,0:0:0:0:
192,192,193131,1,0,0:0:0:0:
64,192,193249,1,8,0:0:0:0:
192,192,193249,1,2,0:0:0:0:
320,192,193249,1,0,0:0:0:0:
448,192,193249,1,0,0:0:0:0:
320,192,193366,1,0,0:0:0:0:
448,192,193366,1,0,0:0:0:0:
64,192,193483,1,0,0:0:0:0:
192,192,193483,1,0,0:0:0:0:
192,192,193600,1,0,0:0:0:0:
320,192,193600,1,0,0:0:0:0:
192,192,193717,1,8,0:0:0:0:
320,192,193717,1,2,0:0:0:0:
448,192,193717,1,0,0:0:0:0:
64,192,193834,1,0,0:0:0:0:
192,192,193834,1,0,0:0:0:0:
320,192,193952,1,0,0:0:0:0:
448,192,193952,1,0,0:0:0:0:
192,192,194069,1,0,0:0:0:0:
448,192,194069,1,0,0:0:0:0:
64,192,194186,1,8,0:0:0:0:
192,192,194186,1,2,0:0:0:0:
320,192,194186,1,0,0:0:0:0:
64,192,194303,1,0,0:0:0:0:
448,192,194303,1,0,0:0:0:0:
192,192,194420,1,0,0:0:0:0:
320,192,194420,1,0,0:0:0:0:
64,192,194538,1,0,0:0:0:0:
448,192,194538,1,0,0:0:0:0:
64,192,194655,1,8,0:0:0:0:
192,192,194655,1,2,0:0:0:0:
448,192,194655,1,0,0:0:0:0:
192,192,194772,1,0,0:0:0:0:
320,192,194772,1,0,0:0:0:0:
64,192,194889,1,0,0:0:0:0:
448,192,194889,1,0,0:0:0:0:
192,192,195006,1,0,0:0:0:0:
320,192,195006,1,0,0:0:0:0:
64,192,195124,1,2,0:0:0:0:
192,192,195124,1,8,0:0:0:0:
320,192,195124,1,0,0:0:0:0:
448,192,195124,1,0,0:0:0:0:
64,192,195241,1,0,0:0:0:0:
192,192,195241,1,0,0:0:0:0:
320,192,195358,1,0,0:0:0:0:
448,192,195358,1,0,0:0:0:0:
192,192,195475,1,0,0:0:0:0:
320,192,195475,1,0,0:0:0:0:
64,192,195592,1,2,0:0:0:0:
320,192,195592,1,8,0:0:0:0:
448,192,195592,1,0,0:0:0:0:
64,192,195709,1,0,0:0:0:0:
192,192,195709,1,0,0:0:0:0:
64,192,195827,1,0,0:0:0:0:
448,192,195827,1,0,0:0:0:0:
192,192,195944,1,0,0:0:0:0:
320,192,195944,1,0,0:0:0:0:
64,192,196061,1,2,0:0:0:0:
320,192,196061,1,8,0:0:0:0:
448,192,196061,1,0,0:0:0:0:
320,192,196178,1,0,0:0:0:0:
448,192,196178,1,0,0:0:0:0:
64,192,196295,1,0,0:0:0:0:
192,192,196295,1,0,0:0:0:0:
64,192,196413,1,0,0:0:0:0:
192,192,196413,1,0,0:0:0:0:
192,192,196530,1,2,0:0:0:0:
320,192,196530,1,8,0:0:0:0:
448,192,196530,1,0,0:0:0:0:
320,192,196647,1,0,0:0:0:0:
448,192,196647,1,0,0:0:0:0:
64,192,196764,1,0,0:0:0:0:
192,192,196764,1,0,0:0:0:0:
64,192,196881,1,0,0:0:0:0:
320,192,196881,1,0,0:0:0:0:
64,192,196999,1,8,0:0:0:0:
192,192,196999,1,2,0:0:0:0:
320,192,196999,1,0,0:0:0:0:
448,192,196999,1,0,0:0:0:0:
192,192,197116,1,0,0:0:0:0:
448,192,197116,1,0,0:0:0:0:
192,192,197233,1,0,0:0:0:0:
448,192,197233,1,0,0:0:0:0:
192,192,197350,1,0,0:0:0:0:
448,192,197350,1,0,0:0:0:0:
64,192,197467,1,8,0:0:0:0:
192,192,197467,1,2,0:0:0:0:
320,192,197467,1,0,0:0:0:0:
448,192,197467,1,0,0:0:0:0:
64,192,197584,1,0,0:0:0:0:
320,192,197584,1,0,0:0:0:0:
64,192,197702,1,0,0:0:0:0:
320,192,197702,1,0,0:0:0:0:
64,192,197819,1,0,0:0:0:0:
320,192,197819,1,0,0:0:0:0:
64,192,197936,1,8,0:0:0:0:
192,192,197936,1,2,0:0:0:0:
320,192,197936,1,0,0:0:0:0:
448,192,197936,1,0,0:0:0:0:
192,192,198053,1,0,0:0:0:0:
448,192,198053,1,0,0:0:0:0:
192,192,198170,1,0,0:0:0:0:
448,192,198170,1,0,0:0:0:0:
192,192,198288,1,0,0:0:0:0:
448,192,198288,1,0,0:0:0:0:
64,192,198405,1,8,0:0:0:0:
192,192,198405,1,2,0:0:0:0:
320,192,198405,1,0,0:0:0:0:
448,192,198405,1,0,0:0:0:0:
64,192,198522,1,0,0:0:0:0:
320,192,198522,1,0,0:0:0:0:
64,192,198639,1,0,0:0:0:0:
320,192,198639,1,0,0:0:0:0:
64,192,198756,1,0,0:0:0:0:
320,192,198756,1,0,0:0:0:0:
64,192,198874,1,8,0:0:0:0:
192,192,198874,1,2,0:0:0:0:
320,192,198874,1,0,0:0:0:0:
448,192,198874,1,0,0:0:0:0:
320,192,198991,1,0,0:0:0:0:
448,192,198991,1,0,0:0:0:0:
64,192,199108,1,0,0:0:0:0:
192,192,199108,1,0,0:0:0:0:
320,192,199225,1,0,0:0:0:0:
448,192,199225,1,0,0:0:0:0:
64,192,199342,1,8,0:0:0:0:
192,192,199342,1,2,0:0:0:0:
448,192,199342,1,0,0:0:0:0:
320,192,199459,1,0,0:0:0:0:
448,192,199459,1,0,0:0:0:0:
64,192,199577,1,0,0:0:0:0:
192,192,199577,1,0,0:0:0:0:
320,192,199694,1,0,0:0:0:0:
448,192,199694,1,0,0:0:0:0:
64,192,199811,1,8,0:0:0:0:
192,192,199811,1,2,0:0:0:0:
448,192,199811,1,0,0:0:0:0:
64,192,199928,1,0,0:0:0:0:
192,192,199928,1,0,0:0:0:0:
448,192,199928,1,0,0:0:0:0:
64,192,200045,1,0,0:0:0:0:
320,192,200045,1,0,0:0:0:0:
448,192,200045,1,0,0:0:0:0:
64,192,200163,1,0,0:0:0:0:
320,192,200163,1,0,0:0:0:0:
448,192,200163,1,0,0:0:0:0:
64,192,200280,1,8,0:0:0:0:
192,192,200280,1,2,0:0:0:0:
448,192,200280,1,0,0:0:0:0:
192,192,200397,1,0,0:0:0:0:
320,192,200397,1,0,0:0:0:0:
64,192,200514,1,0,0:0:0:0:
448,192,200514,1,0,0:0:0:0:
320,192,200573,1,0,0:0:0:0:
192,192,200631,1,0,0:0:0:0:
64,192,200690,1,0,0:0:0:0:
320,192,200749,1,8,0:0:0:0:
448,192,200749,1,0,0:0:0:0:
192,192,200866,1,0,0:0:0:0:
320,192,200866,1,0,0:0:0:0:
64,192,200983,1,0,0:0:0:0:
448,192,200983,1,0,0:0:0:0:
192,192,201100,1,0,0:0:0:0:
320,192,201100,1,0,0:0:0:0:
64,192,201217,1,8,0:0:0:0:
448,192,201217,1,0,0:0:0:0:
320,192,201334,1,0,0:0:0:0:
64,192,201452,1,0,0:0:0:0:
192,192,201452,1,0,0:0:0:0:
320,192,201569,1,0,0:0:0:0:
448,192,201569,1,0,0:0:0:0:
64,192,201686,1,8,0:0:0:0:
192,192,201686,1,0,0:0:0:0:
320,192,201803,1,0,0:0:0:0:
64,192,201920,1,0,0:0:0:0:
448,192,201920,1,0,0:0:0:0:
192,192,202038,1,0,0:0:0:0:
320,192,202096,1,0,0:0:0:0:
64,192,202155,1,0,0:0:0:100:LR3_Snare DSW.wav
192,192,202155,1,0,0:0:0:0:
448,192,202155,1,0,0:0:0:0:
64,192,202389,1,0,0:0:0:100:LR3_Snare DSW.wav
192,192,202389,1,0,0:0:0:0:
320,192,202389,1,0,0:0:0:0:
448,192,202389,1,0,0:0:0:0:
64,192,202624,1,2,0:0:0:0:
192,192,202624,1,8,0:0:0:0:
448,192,202741,1,0,0:0:0:0:
64,192,202858,1,0,0:0:0:0:
320,192,202975,1,0,0:0:0:0:
64,192,203092,1,4,0:0:0:0:
192,192,203092,1,2,0:0:0:0:
448,192,203092,1,8,0:0:0:0:
64,192,203209,1,0,0:0:0:0:
192,192,203209,1,0,0:0:0:0:
64,192,203327,1,0,0:0:0:70:VEC3 Snares 021.wav
320,192,203327,1,0,0:0:0:0:
448,192,203327,1,0,0:0:0:0:
320,192,203444,1,0,0:0:0:0:
448,192,203444,1,0,0:0:0:0:
64,192,203561,1,2,0:0:0:0:
192,192,203561,1,8,0:0:0:0:
448,192,203561,1,0,0:0:0:0:
64,192,203678,1,0,0:0:0:0:
320,192,203678,1,0,0:0:0:0:
64,192,203795,1,0,0:0:0:70:VEC3 Snares 021.wav
320,192,203795,1,0,0:0:0:0:
448,192,203795,1,0,0:0:0:0:
192,192,203913,1,0,0:0:0:0:
448,192,203913,1,0,0:0:0:0:
64,192,204030,1,2,0:0:0:0:
192,192,204030,1,8,0:0:0:0:
320,192,204030,1,0,0:0:0:0:
320,192,204147,1,0,0:0:0:0:
448,192,204147,1,0,0:0:0:0:
64,192,204264,1,0,0:0:0:70:VEC3 Snares 021.wav
192,192,204264,1,0,0:0:0:0:
64,192,204381,1,0,0:0:0:70:VEC3 Snares 021.wav
192,192,204381,1,0,0:0:0:0:
320,192,204381,1,0,0:0:0:0:
64,192,204499,1,2,0:0:0:0:
192,192,204499,1,8,0:0:0:0:
448,192,204499,1,0,0:0:0:0:
320,192,204616,1,0,0:0:0:0:
448,192,204616,1,0,0:0:0:0:
320,192,204733,1,0,0:0:0:0:
448,192,204733,1,0,0:0:0:0:
192,192,204850,1,0,0:0:0:70:VEC3 Snares 021.wav
320,192,204850,1,0,0:0:0:0:
64,192,204967,1,2,0:0:0:0:
192,192,204967,1,8,0:0:0:0:
448,192,204967,1,0,0:0:0:0:
64,192,205084,1,0,0:0:0:0:
192,192,205084,1,0,0:0:0:0:
64,192,205202,1,0,0:0:0:70:VEC3 Snares 021.wav
320,192,205202,1,0,0:0:0:0:
192,192,205319,1,0,0:0:0:0:
320,192,205319,1,0,0:0:0:0:
64,192,205436,1,2,0:0:0:0:
320,192,205436,1,8,0:0:0:0:
448,192,205436,1,0,0:0:0:0:
64,192,205553,1,0,0:0:0:0:
448,192,205553,1,0,0:0:0:0:
320,192,205670,1,0,0:0:0:70:VEC3 Snares 021.wav
448,192,205670,1,0,0:0:0:0:
192,192,205788,1,0,0:0:0:0:
320,192,205788,1,0,0:0:0:0:
64,192,205905,1,2,0:0:0:0:
320,192,205905,1,8,0:0:0:0:
448,192,205905,1,0,0:0:0:0:
64,192,206022,1,0,0:0:0:0:
448,192,206022,1,0,0:0:0:0:
192,192,206139,1,0,0:0:0:70:VEC3 Snares 021.wav
320,192,206139,1,0,0:0:0:0:
192,192,206256,1,0,0:0:0:70:VEC3 Snares 021.wav
320,192,206256,1,0,0:0:0:0:
64,192,206374,1,8,0:0:0:0:
192,192,206374,1,2,0:0:0:0:
448,192,206374,1,0,0:0:0:0:
320,192,206491,1,0,0:0:0:0:
448,192,206491,1,0,0:0:0:0:
64,192,206608,1,0,0:0:0:0:
192,192,206608,1,0,0:0:0:0:
192,192,206725,1,0,0:0:0:70:VEC3 Snares 021.wav
320,192,206725,1,0,0:0:0:0:
448,192,206725,1,0,0:0:0:0:
64,192,206842,1,8,0:0:0:0:
192,192,206842,1,2,0:0:0:0:
448,192,206842,1,0,0:0:0:0:
320,192,206959,1,0,0:0:0:0:
448,192,206959,1,0,0:0:0:0:
64,192,207077,1,0,0:0:0:70:VEC3 Snares 021.wav
192,192,207077,1,0,0:0:0:0:
320,192,207077,1,0,0:0:0:0:
192,192,207194,1,0,0:0:0:0:
448,192,207194,1,0,0:0:0:0:
64,192,207311,1,8,0:0:0:0:
192,192,207311,1,2,0:0:0:0:
448,192,207311,1,0,0:0:0:0:
64,192,207428,1,0,0:0:0:0:
192,192,207428,1,0,0:0:0:0:
64,192,207545,1,0,0:0:0:70:VEC3 Snares 021.wav
320,192,207545,1,0,0:0:0:0:
448,192,207545,1,0,0:0:0:0:
320,192,207663,1,0,0:0:0:0:
448,192,207663,1,0,0:0:0:0:
64,192,207780,1,8,0:0:0:0:
192,192,207780,1,2,0:0:0:0:
320,192,207780,1,0,0:0:0:0:
64,192,207897,1,0,0:0:0:0:
192,192,207897,1,0,0:0:0:0:
320,192,208014,1,0,0:0:0:70:VEC3 Snares 021.wav
448,192,208014,1,0,0:0:0:0:
64,192,208131,1,0,0:0:0:70:VEC3 Snares 021.wav
192,192,208131,1,0,0:0:0:0:
320,192,208131,1,0,0:0:0:0:
64,192,208249,1,2,0:0:0:0:
320,192,208249,1,8,0:0:0:0:
448,192,208249,1,0,0:0:0:0:
64,192,208366,1,0,0:0:0:0:
448,192,208366,1,0,0:0:0:0:
320,192,208483,1,0,0:0:0:0:
448,192,208483,1,0,0:0:0:0:
64,192,208600,1,0,0:0:0:70:VEC3 Snares 021.wav
192,192,208600,1,0,0:0:0:0:
448,192,208600,1,0,0:0:0:0:
64,192,208717,1,2,0:0:0:0:
192,192,208717,1,8,0:0:0:0:
320,192,208717,1,0,0:0:0:0:
320,192,208834,1,0,0:0:0:0:
448,192,208834,1,0,0:0:0:0:
64,192,208952,1,0,0:0:0:70:VEC3 Snares 021.wav
192,192,208952,1,0,0:0:0:0:
448,192,208952,1,0,0:0:0:0:
64,192,209069,1,0,0:0:0:0:
192,192,209069,1,0,0:0:0:0:
192,192,209186,1,2,0:0:0:0:
320,192,209186,1,8,0:0:0:0:
448,192,209186,1,0,0:0:0:0:
64,192,209303,1,0,0:0:0:0:
448,192,209303,1,0,0:0:0:0:
64,192,209420,1,0,0:0:0:70:VEC3 Snares 021.wav
192,192,209420,1,0,0:0:0:0:
320,192,209420,1,0,0:0:0:0:
64,192,209538,1,0,0:0:0:0:
448,192,209538,1,0,0:0:0:0:
64,192,209655,1,2,0:0:0:0:
320,192,209655,1,8,0:0:0:0:
448,192,209655,1,0,0:0:0:0:
192,192,209772,1,0,0:0:0:0:
320,192,209772,1,0,0:0:0:0:
64,192,209889,1,0,0:0:0:70:VEC3 Snares 021.wav
192,192,209889,1,0,0:0:0:0:
448,192,209889,1,0,0:0:0:0:
192,192,210006,1,0,0:0:0:70:VEC3 Snares 021.wav
320,192,210006,1,0,0:0:0:0:
64,192,210124,1,8,0:0:0:0:
320,192,210124,1,2,0:0:0:0:
448,192,210124,1,0,0:0:0:0:
320,192,210241,1,0,0:0:0:0:
448,192,210241,1,0,0:0:0:0:
64,192,210358,1,0,0:0:0:0:
192,192,210358,1,0,0:0:0:0:
64,192,210475,1,0,0:0:0:70:VEC3 Snares 021.wav
320,192,210475,1,0,0:0:0:0:
448,192,210475,1,0,0:0:0:0:
64,192,210592,1,8,0:0:0:0:
192,192,210592,1,2,0:0:0:0:
448,192,210592,1,0,0:0:0:0:
320,192,210709,1,0,0:0:0:0:
448,192,210709,1,0,0:0:0:0:
64,192,210827,1,0,0:0:0:70:VEC3 Snares 021.wav
192,192,210827,1,0,0:0:0:0:
320,192,210827,1,0,0:0:0:0:
192,192,210944,1,0,0:0:0:0:
448,192,210944,1,0,0:0:0:0:
64,192,211061,1,8,0:0:0:0:
320,192,211061,1,2,0:0:0:0:
448,192,211061,1,0,0:0:0:0:
320,192,211178,1,0,0:0:0:0:
448,192,211178,1,0,0:0:0:0:
64,192,211295,1,0,0:0:0:70:VEC3 Snares 021.wav
192,192,211295,1,0,0:0:0:0:
320,192,211295,1,0,0:0:0:0:
64,192,211413,1,0,0:0:0:0:
192,192,211413,1,0,0:0:0:0:
192,192,211530,1,8,0:0:0:0:
320,192,211530,1,2,0:0:0:0:
448,192,211530,1,0,0:0:0:0:
64,192,211647,1,0,0:0:0:0:
192,192,211647,1,0,0:0:0:0:
64,192,211764,1,0,0:0:0:70:VEC3 Snares 021.wav
448,192,211764,1,0,0:0:0:0:
64,192,211881,1,0,0:0:0:70:VEC3 Snares 021.wav
320,192,211881,1,0,0:0:0:0:
448,192,211881,1,0,0:0:0:0:
192,192,211999,1,2,0:0:0:0:
320,192,211999,1,8,0:0:0:0:
448,192,211999,1,0,0:0:0:0:
192,192,212116,1,0,0:0:0:0:
320,192,212116,1,0,0:0:0:0:
192,192,212233,1,0,0:0:0:0:
320,192,212233,1,0,0:0:0:0:
64,192,212350,1,0,0:0:0:70:VEC3 Snares 021.wav
192,192,212350,1,0,0:0:0:0:
192,192,212467,1,2,0:0:0:0:
320,192,212467,1,8,0:0:0:0:
448,192,212467,1,0,0:0:0:0:
64,192,212584,1,0,0:0:0:0:
448,192,212584,1,0,0:0:0:0:
192,192,212702,1,0,0:0:0:70:VEC3 Snares 021.wav
320,192,212702,1,0,0:0:0:0:
64,192,212819,1,0,0:0:0:0:
192,192,212819,1,0,0:0:0:0:
64,192,212936,1,2,0:0:0:0:
192,192,212936,1,8,0:0:0:0:
320,192,212936,1,0,0:0:0:0:
192,192,213053,1,0,0:0:0:0:
320,192,213053,1,0,0:0:0:0:
320,192,213170,1,0,0:0:0:70:VEC3 Snares 021.wav
448,192,213170,1,0,0:0:0:0:
192,192,213288,1,0,0:0:0:0:
448,192,213288,1,0,0:0:0:0:
64,192,213405,1,2,0:0:0:0:
192,192,213405,1,8,0:0:0:0:
320,192,213405,1,0,0:0:0:0:
64,192,213522,1,0,0:0:0:0:
448,192,213522,1,0,0:0:0:0:
64,192,213639,1,0,0:0:0:70:VEC3 Snares 021.wav
192,192,213639,1,0,0:0:0:0:
64,192,213756,1,0,0:0:0:70:VEC3 Snares 021.wav
192,192,213756,1,0,0:0:0:0:
192,192,213874,1,8,0:0:0:0:
320,192,213874,1,0,0:0:0:70:VEC3 Snares 021.wav
448,192,213874,1,0,0:0:0:0:
320,192,213991,1,0,0:0:0:0:
448,192,213991,1,0,0:0:0:0:
64,192,214108,1,0,0:0:0:0:
192,192,214108,1,0,0:0:0:0:
64,192,214225,1,0,0:0:0:70:VEC3 Snares 021.wav
192,192,214225,1,0,0:0:0:0:
320,192,214225,1,0,0:0:0:0:
192,192,214342,1,8,0:0:0:0:
320,192,214342,1,0,0:0:0:70:VEC3 Snares 021.wav
448,192,214342,1,0,0:0:0:0:
320,192,214459,1,0,0:0:0:0:
448,192,214459,1,0,0:0:0:0:
64,192,214577,1,0,0:0:0:70:VEC3 Snares 021.wav
192,192,214577,1,0,0:0:0:0:
320,192,214577,1,0,0:0:0:0:
64,192,214694,1,0,0:0:0:0:
192,192,214694,1,0,0:0:0:0:
64,192,214811,1,8,0:0:0:0:
320,192,214811,1,0,0:0:0:70:VEC3 Snares 021.wav
448,192,214811,1,0,0:0:0:0:
320,192,214928,1,0,0:0:0:0:
448,192,214928,1,0,0:0:0:0:
64,192,215045,1,0,0:0:0:70:VEC3 Snares 021.wav
192,192,215045,1,0,0:0:0:0:
448,192,215045,1,0,0:0:0:0:
64,192,215163,1,0,0:0:0:0:
192,192,215163,1,0,0:0:0:0:
64,192,215280,1,8,0:0:0:0:
192,192,215280,1,0,0:0:0:70:VEC3 Snares 021.wav
320,192,215280,1,0,0:0:0:0:
64,192,215397,1,0,0:0:0:70:VEC3 Snares 021.wav
448,192,215397,1,0,0:0:0:0:
320,192,215456,1,0,0:0:0:0:
192,192,215514,1,0,0:0:0:70:VEC3 Snares 021.wav
64,192,215573,1,0,0:0:0:0:
448,192,215631,1,0,0:0:0:70:VEC3 Snares 021.wav
320,192,215690,1,0,0:0:0:0:
64,192,215749,1,8,0:0:0:0:
192,192,215749,1,0,0:0:0:70:VEC3 Snares 021.wav
448,192,215866,1,0,0:0:0:0:
320,192,215983,1,0,0:0:0:0:
192,192,216100,1,0,0:0:0:70:VEC3 Snares 021.wav
448,192,216100,1,0,0:0:0:0:
64,192,216217,1,8,0:0:0:0:
320,192,216217,1,0,0:0:0:70:VEC3 Snares 021.wav
192,192,216334,1,0,0:0:0:0:
64,192,216452,1,0,0:0:0:70:VEC3 Snares 021.wav
448,192,216452,1,0,0:0:0:0:
320,192,216569,1,0,0:0:0:70:VEC3 Snares 021.wav
64,192,216686,1,8,0:0:0:0:
448,192,216686,1,0,0:0:0:70:VEC3 Snares 021.wav
192,192,216803,1,0,0:0:0:0:
320,192,216920,1,0,0:0:0:70:VEC3 Snares 021.wav
448,192,216920,1,0,0:0:0:0:
64,192,217038,1,0,0:0:0:70:VEC3 Snares 021.wav
192,192,217096,1,0,0:0:0:0:
64,192,217155,1,0,0:0:0:100:LR3_Snare DSW.wav
320,192,217155,1,0,0:0:0:0:
448,192,217155,1,0,0:0:0:0:
64,192,217389,1,0,0:0:0:100:LR3_Snare DSW.wav
192,192,217389,1,0,0:0:0:0:
192,192,217624,1,2,0:0:0:0:
320,192,217624,1,4,0:0:0:0:
448,192,217624,1,0,0:0:0:0:
