osu file format v14

[General]
AudioFilename: audio.mp3
AudioLeadIn: 0
PreviewTime: 52160
Countdown: 0
SampleSet: Soft
StackLeniency: 0.7
Mode: 3
LetterboxInBreaks: 0
SpecialStyle: 0
WidescreenStoryboard: 1

[Editor]
Bookmarks: 37629,45129,127629,142629,155754,165129,170754
DistanceSpacing: 0.8
BeatDivisor: 4
GridSize: 32
TimelineZoom: 1.2

[Metadata]
Title:Dusk (Radio Edit)
TitleUnicode:Dusk (Radio Edit)
Artist:Tobu & Syndec
ArtistUnicode:Tobu & Syndec
Creator:Maxim-Miau
Version:Advanced
Source:
Tags:Instrumental Electronic progressive house 7obu 7óbu Toms Burkovskis chordjack jack NoCopyrightSounds No Copyright Sounds NCS release FAMoss
BeatmapID:3691301
BeatmapSetID:1798162

[Difficulty]
HPDrainRate:7
CircleSize:4
OverallDifficulty:7
ApproachRate:5
SliderMultiplier:1.4
SliderTickRate:1

[Events]
//Background and Video events
0,0,"Dusk.jpg",0,0
//Break Periods
//Storyboard Layer 0 (Background)
//Storyboard Layer 1 (Fail)
//Storyboard Layer 2 (Pass)
//Storyboard Layer 3 (Foreground)
//Storyboard Layer 4 (Overlay)
//Storyboard Sound Samples
Sample,51217,0,"VEC3 Snares 021.wav",50
Sample,95280,0,"VEC3 Snares 021.wav",70
Sample,171217,0,"VEC3 Snares 021.wav",50
Sample,215280,0,"VEC3 Snares 021.wav",70

[TimingPoints]
7624,468.75,4,2,1,70,1,0
31999,-100,4,2,1,60,0,0
33874,-100,4,2,1,50,0,0
35749,-100,4,2,1,40,0,0
37624,-100,4,2,1,70,0,0
52624,-100,4,2,1,70,0,1
67155,-100,4,2,1,70,0,0
67624,-100,4,2,1,70,0,1
82155,-100,4,2,1,70,0,0
82624,-100,4,2,1,70,0,1
97624,-100,4,2,1,50,0,0
112624,-100,4,2,1,60,0,0
127624,-100,4,2,1,70,0,0
172624,-100,4,2,1,70,0,1
187155,-100,4,2,1,70,0,0
187624,-100,4,2,1,70,0,1
202624,-100,4,2,1,70,0,0
203092,-100,4,2,1,70,0,1
217624,-100,4,2,1,70,0,0

[HitObjects]
64,192,7624,5,2,0:0:0:0:
448,192,7624,1,0,0:0:0:0:
320,192,7975,1,0,0:0:0:0:
192,192,8327,1,0,0:0:0:0:
448,192,8678,1,0,0:0:0:0:
64,192,9030,1,0,0:0:0:0:
192,192,9499,1,0,0:0:0:0:
320,192,9499,1,0,0:0:0:0:
448,192,9850,1,0,0:0:0:0:
64,192,10202,1,0,0:0:0:0:
320,192,10553,1,0,0:0:0:0:
192,192,10905,1,0,0:0:0:0:
320,192,11374,1,0,0:0:0:0:
448,192,11374,1,0,0:0:0:0:
64,192,11725,1,0,0:0:0:0:
192,192,12077,1,0,0:0:0:0:
320,192,12428,1,0,0:0:0:0:
192,192,12780,1,0,0:0:0:0:
64,192,13249,1,0,0:0:0:0:
320,192,13249,1,0,0:0:0:0:
192,192,13600,1,0,0:0:0:0:
448,192,13952,1,0,0:0:0:0:
320,192,14303,1,0,0:0:0:0:
64,192,14655,1,0,0:0:0:0:
192,192,14889,1,0,0:0:0:0:
320,192,15124,1,0,0:0:0:0:
448,192,15124,1,0,0:0:0:0:
448,192,15475,1,0,0:0:0:0:
64,192,15592,1,0,0:0:0:0:
320,192,15827,1,0,0:0:0:0:
192,192,16061,1,0,0:0:0:0:
448,192,16178,1,0,0:0:0:0:
320,192,16413,1,0,0:0:0:0:
64,192,16530,1,0,0:0:0:0:
192,192,16764,1,0,0:0:0:0:
320,192,16999,1,0,0:0:0:0:
448,192,16999,1,0,0:0:0:0:
64,192,17350,1,0,0:0:0:0:
320,192,17467,1,0,0:0:0:0:
192,192,17702,1,0,0:0:0:0:
448,192,17936,1,0,0:0:0:0:
320,192,18053,1,0,0:0:0:0:
64,192,18288,1,0,0:0:0:0:
192,192,18405,1,0,0:0:0:0:
448,192,18639,1,0,0:0:0:0:
64,192,18874,1,0,0:0:0:0:
320,192,18874,1,0,0:0:0:0:
192,192,19225,1,0,0:0:0:0:
448,192,19342,1,0,0:0:0:0:
320,192,19577,1,0,0:0:0:0:
64,192,19811,1,0,0:0:0:0:
448,192,19928,1,0,0:0:0:0:
192,192,20163,1,0,0:0:0:0:
448,192,20280,1,0,0:0:0:0:
64,192,20514,1,0,0:0:0:0:
192,192,20749,1,0,0:0:0:0:
448,192,20749,1,0,0:0:0:0:
320,192,21100,1,0,0:0:0:0:
64,192,21217,1,0,0:0:0:0:
448,192,21452,1,0,0:0:0:0:
320,192,21686,1,0,0:0:0:0:
64,192,21803,1,0,0:0:0:0:
448,192,22038,1,0,0:0:0:0:
192,192,22155,1,0,0:0:0:0:
320,192,22389,1,0,0:0:0:0:
192,192,22506,1,0,0:0:0:0:
64,192,22624,1,8,0:0:0:0:
448,192,22624,1,0,0:0:0:0:
192,192,22975,1,0,0:0:0:0:
320,192,23092,1,8,0:0:0:0:
448,192,23092,1,0,0:0:0:0:
192,192,23327,1,0,0:0:0:0:
64,192,23561,1,8,0:0:0:0:
448,192,23561,1,0,0:0:0:0:
320,192,23913,1,0,0:0:0:0:
64,192,24030,1,8,0:0:0:0:
192,192,24030,1,0,0:0:0:0:
320,192,24264,1,0,0:0:0:0:
64,192,24499,1,8,0:0:0:0:
448,192,24499,1,0,0:0:0:0:
192,192,24850,1,0,0:0:0:0:
320,192,24967,1,8,0:0:0:0:
448,192,24967,1,0,0:0:0:0:
192,192,25202,1,0,0:0:0:0:
64,192,25436,1,8,0:0:0:0:
320,192,25436,1,0,0:0:0:0:
192,192,25788,1,0,0:0:0:0:
64,192,25905,1,8,0:0:0:0:
448,192,25905,1,0,0:0:0:0:
320,192,26139,1,0,0:0:0:0:
64,192,26374,1,8,0:0:0:0:
192,192,26374,1,0,0:0:0:0:
448,192,26725,1,0,0:0:0:0:
192,192,26842,1,8,0:0:0:0:
320,192,26842,1,0,0:0:0:0:
64,192,27077,1,0,0:0:0:0:
192,192,27311,1,8,0:0:0:0:
448,192,27311,1,0,0:0:0:0:
320,192,27663,1,0,0:0:0:0:
64,192,27780,1,8,0:0:0:0:
448,192,27780,1,0,0:0:0:0:
192,192,28014,1,0,0:0:0:0:
64,192,28249,1,8,0:0:0:0:
320,192,28249,1,0,0:0:0:0:
192,192,28600,1,0,0:0:0:0:
320,192,28717,1,8,0:0:0:0:
448,192,28717,1,0,0:0:0:0:
64,192,28952,1,0,0:0:0:0:
192,192,29186,1,8,0:0:0:0:
320,192,29186,1,0,0:0:0:0:
448,192,29538,1,0,0:0:0:0:
64,192,29655,1,8,0:0:0:0:
320,192,29655,1,0,0:0:0:0:
192,192,29889,1,0,0:0:0:0:
320,192,30124,1,8,0:0:0:0:
448,192,30124,1,0,0:0:0:0:
192,192,30475,1,0,0:0:0:0:
64,192,30592,1,8,0:0:0:0:
448,192,30592,1,0,0:0:0:0:
320,192,30827,1,0,0:0:0:0:
64,192,31061,1,8,0:0:0:0:
192,192,31061,1,0,0:0:0:0:
448,192,31413,1,0,0:0:0:0:
192,192,31530,1,8,0:0:0:0:
320,192,31530,1,0,0:0:0:0:
64,192,31764,1,0,0:0:0:0:
320,192,31999,1,8,0:0:0:0:
448,192,31999,1,0,0:0:0:0:
192,192,32350,1,0,0:0:0:0:
448,192,32467,1,8,0:0:0:0:
64,192,32702,1,0,0:0:0:0:
320,192,32936,1,8,0:0:0:0:
192,192,33405,1,8,0:0:0:0:
64,192,33874,1,8,0:0:0:0:
448,192,33874,1,0,0:0:0:0:
192,192,34225,1,0,0:0:0:0:
320,192,34342,1,8,0:0:0:0:
64,192,34577,1,0,0:0:0:0:
448,192,34811,1,8,0:0:0:0:
320,192,35163,1,0,0:0:0:0:
64,192,35280,1,8,0:0:0:0:
192,192,35749,1,8,0:0:0:0:
448,192,35749,1,0,0:0:0:0:
320,192,36217,1,8,0:0:0:0:
192,192,36686,1,8,0:0:0:0:
64,192,37155,1,8,0:0:0:0:
192,192,37389,1,0,0:0:0:0:
320,192,37624,1,14,0:0:0:0:
448,192,37624,1,0,0:0:0:70:VEC3 Snares 021.wav
192,192,37858,1,0,0:0:0:70:VEC3 Snares 021.wav
64,192,38092,1,8,0:0:0:0:
448,192,38092,1,0,0:0:0:70:VEC3 Snares 021.wav
320,192,38327,1,0,0:0:0:70:VEC3 Snares 021.wav
192,192,38561,1,8,0:0:0:0:
64,192,38561,1,0,0:0:0:70:VEC3 Snares 021.wav
320,192,38795,1,0,0:0:0:70:VEC3 Snares 021.wav
64,192,39030,1,8,0:0:0:0:
192,192,39030,1,0,0:0:0:70:VEC3 Snares 021.wav
320,192,39264,1,0,0:0:0:70:VEC3 Snares 021.wav
192,192,39381,1,0,0:0:0:70:VEC3 Snares 021.wav
64,192,39499,1,8,0:0:0:0:
448,192,39499,1,0,0:0:0:70:VEC3 Snares 021.wav
320,192,39733,1,0,0:0:0:70:VEC3 Snares 021.wav
64,192,39967,1,8,0:0:0:0:
192,192,39967,1,0,0:0:0:70:VEC3 Snares 021.wav
448,192,40202,1,0,0:0:0:70:VEC3 Snares 021.wav
192,192,40436,1,8,0:0:0:0:
320,192,40436,1,0,0:0:0:70:VEC3 Snares 021.wav
64,192,40670,1,0,0:0:0:70:VEC3 Snares 021.wav
320,192,40905,1,8,0:0:0:0:
448,192,40905,1,0,0:0:0:70:VEC3 Snares 021.wav
192,192,41139,1,0,0:0:0:70:VEC3 Snares 021.wav
320,192,41256,1,0,0:0:0:70:VEC3 Snares 021.wav
64,192,41374,1,8,0:0:0:0:
448,192,41374,1,0,0:0:0:70:VEC3 Snares 021.wav
192,192,41608,1,0,0:0:0:70:VEC3 Snares 021.wav
320,192,41842,1,8,0:0:0:0:
448,192,41842,1,0,0:0:0:70:VEC3 Snares 021.wav
192,192,42077,1,0,0:0:0:70:VEC3 Snares 021.wav
64,192,42311,1,8,0:0:0:0:
448,192,42311,1,0,0:0:0:70:VEC3 Snares 021.wav
320,192,42545,1,0,0:0:0:70:VEC3 Snares 021.wav
64,192,42780,1,8,0:0:0:0:
192,192,42780,1,0,0:0:0:70:VEC3 Snares 021.wav
320,192,43014,1,0,0:0:0:70:VEC3 Snares 021.wav
192,192,43131,1,0,0:0:0:70:VEC3 Snares 021.wav
64,192,43249,1,8,0:0:0:0:
448,192,43249,1,0,0:0:0:70:VEC3 Snares 021.wav
320,192,43483,1,0,0:0:0:70:VEC3 Snares 021.wav
64,192,43717,1,8,0:0:0:0:
192,192,43717,1,0,0:0:0:70:VEC3 Snares 021.wav
448,192,43952,1,0,0:0:0:70:VEC3 Snares 021.wav
192,192,44069,1,0,0:0:0:70:VEC3 Snares 021.wav
64,192,44186,1,8,0:0:0:0:
320,192,44186,1,0,0:0:0:70:VEC3 Snares 021.wav
192,192,44420,1,0,0:0:0:70:VEC3 Snares 021.wav
320,192,44538,1,0,0:0:0:70:VEC3 Snares 021.wav
64,192,44655,1,8,0:0:0:0:
448,192,44655,1,0,0:0:0:70:VEC3 Snares 021.wav
192,192,44889,1,0,0:0:0:70:VEC3 Snares 021.wav
320,192,45124,1,8,0:0:0:0:
448,192,45124,1,0,0:0:0:70:VEC3 Snares 021.wav
64,192,45358,1,0,0:0:0:70:VEC3 Snares 021.wav
192,192,45592,1,8,0:0:0:0:
320,192,45592,1,0,0:0:0:70:VEC3 Snares 021.wav
448,192,45827,1,0,0:0:0:70:VEC3 Snares 021.wav
64,192,46061,1,8,0:0:0:0:
320,192,46061,1,0,0:0:0:70:VEC3 Snares 021.wav
192,192,46295,1,0,0:0:0:70:VEC3 Snares 021.wav
320,192,46530,1,8,0:0:0:0:
448,192,46530,1,0,0:0:0:70:VEC3 Snares 021.wav
192,192,46764,1,0,0:0:0:70:VEC3 Snares 021.wav
320,192,46881,1,0,0:0:0:70:VEC3 Snares 021.wav
64,192,46999,1,8,0:0:0:0:
448,192,46999,1,0,0:0:0:70:VEC3 Snares 021.wav
192,192,47233,1,0,0:0:0:70:VEC3 Snares 021.wav
64,192,47467,1,8,0:0:0:0:
320,192,47467,1,0,0:0:0:70:VEC3 Snares 021.wav
448,192,47702,1,0,0:0:0:70:VEC3 Snares 021.wav
192,192,47936,1,8,0:0:0:0:
320,192,47936,1,0,0:0:0:70:VEC3 Snares 021.wav
64,192,48170,1,0,0:0:0:70:VEC3 Snares 021.wav
192,192,48405,1,8,0:0:0:0:
448,192,48405,1,0,0:0:0:70:VEC3 Snares 021.wav
320,192,48639,1,0,0:0:0:70:VEC3 Snares 021.wav
192,192,48756,1,0,0:0:0:70:VEC3 Snares 021.wav
64,192,48874,1,8,0:0:0:0:
448,192,48874,1,0,0:0:0:60:VEC3 Snares 021.wav
320,192,49108,1,0,0:0:0:60:VEC3 Snares 021.wav
64,192,49342,1,8,0:0:0:0:
192,192,49342,1,0,0:0:0:60:VEC3 Snares 021.wav
448,192,49577,1,0,0:0:0:60:VEC3 Snares 021.wav
64,192,49811,1,8,0:0:0:0:
320,192,49811,1,0,0:0:0:60:VEC3 Snares 021.wav
192,192,50045,1,0,0:0:0:60:VEC3 Snares 021.wav
320,192,50280,1,8,0:0:0:0:
448,192,50280,1,0,0:0:0:60:VEC3 Snares 021.wav
192,192,50514,1,0,0:0:0:60:VEC3 Snares 021.wav
320,192,50631,1,0,0:0:0:60:VEC3 Snares 021.wav
64,192,50749,1,8,0:0:0:0:
448,192,50749,1,0,0:0:0:50:VEC3 Snares 021.wav
192,192,50983,1,0,0:0:0:50:VEC3 Snares 021.wav
320,192,51217,1,8,0:0:0:0:
64,192,51452,1,0,0:0:0:50:VEC3 Snares 021.wav
192,192,51569,1,0,0:0:0:50:VEC3 Snares 021.wav
320,192,51686,1,8,0:0:0:0:
448,192,51686,1,0,0:0:0:50:VEC3 Snares 021.wav
448,192,51920,1,0,0:0:0:50:VEC3 Snares 021.wav
320,192,52038,1,0,0:0:0:50:VEC3 Snares 021.wav
64,192,52155,1,0,0:0:0:100:LR3_Snare DSW.wav
192,192,52155,1,0,0:0:0:0:
320,192,52389,1,0,0:0:0:0:
64,192,52624,1,6,0:0:0:0:
448,192,52624,1,8,0:0:0:0:
192,192,52858,1,0,0:0:0:0:
320,192,52858,1,0,0:0:0:0:
320,192,53092,1,2,0:0:0:0:
448,192,53092,1,8,0:0:0:0:
64,192,53327,1,0,0:0:0:0:
192,192,53561,1,2,0:0:0:0:
320,192,53561,1,8,0:0:0:0:
64,192,53795,1,0,0:0:0:0:
448,192,53795,1,0,0:0:0:0:
192,192,54030,1,2,0:0:0:0:
320,192,54030,1,8,0:0:0:0:
192,192,54264,1,0,0:0:0:0:
320,192,54499,1,2,0:0:0:0:
448,192,54499,1,8,0:0:0:0:
192,192,54733,1,0,0:0:0:0:
320,192,54733,1,0,0:0:0:0:
64,192,54967,1,2,0:0:0:0:
448,192,54967,1,8,0:0:0:0:
192,192,55202,1,0,0:0:0:0:
320,192,55202,1,0,0:0:0:0:
64,192,55436,1,2,0:0:0:0:
192,192,55436,1,8,0:0:0:0:
64,192,55670,1,0,0:0:0:0:
448,192,55670,1,0,0:0:0:0:
320,192,55905,1,2,0:0:0:0:
448,192,55905,1,8,0:0:0:0:
64,192,56139,1,0,0:0:0:0:
192,192,56139,1,0,0:0:0:0:
320,192,56374,1,8,0:0:0:0:
448,192,56374,1,2,0:0:0:0:
192,192,56608,1,0,0:0:0:0:
320,192,56608,1,0,0:0:0:0:
64,192,56842,1,8,0:0:0:0:
448,192,56842,1,2,0:0:0:0:
320,192,57077,1,0,0:0:0:0:
192,192,57311,1,8,0:0:0:0:
448,192,57311,1,2,0:0:0:0:
64,192,57545,1,0,0:0:0:0:
320,192,57545,1,0,0:0:0:0:
192,192,57780,1,8,0:0:0:0:
448,192,57780,1,2,0:0:0:0:
320,192,58014,1,0,0:0:0:0:
64,192,58249,1,2,0:0:0:0:
192,192,58249,1,8,0:0:0:0:
320,192,58483,1,0,0:0:0:0:
192,192,58483,1,0,0:0:0:0:
64,192,58717,1,2,0:0:0:0:
448,192,58717,1,8,0:0:0:0:
192,192,58952,1,0,0:0:0:0:
320,192,59186,1,2,0:0:0:0:
448,192,59186,1,8,0:0:0:0:
192,192,59420,1,0,0:0:0:0:
320,192,59420,1,0,0:0:0:0:
64,192,59655,1,2,0:0:0:0:
192,192,59655,1,8,0:0:0:0:
64,192,59889,1,0,0:0:0:0:
448,192,59889,1,0,0:0:0:0:
320,192,60124,1,8,0:0:0:0:
448,192,60124,1,2,0:0:0:0:
192,192,60358,1,0,0:0:0:0:
64,192,60358,1,0,0:0:0:0:
64,192,60592,1,8,0:0:0:0:
448,192,60592,1,2,0:0:0:0:
320,192,60827,1,0,0:0:0:0:
64,192,61061,1,8,0:0:0:0:
192,192,61061,1,2,0:0:0:0:
320,192,61295,1,0,0:0:0:0:
448,192,61295,1,0,0:0:0:0:
64,192,61530,1,8,0:0:0:0:
192,192,61530,1,2,0:0:0:0:
64,192,61764,1,0,0:0:0:0:
320,192,61999,1,2,0:0:0:0:
448,192,61999,1,8,0:0:0:0:
64,192,62233,1,0,0:0:0:0:
192,192,62233,1,0,0:0:0:0:
192,192,62467,1,2,0:0:0:0:
320,192,62467,1,8,0:0:0:0:
320,192,62702,1,0,0:0:0:0:
448,192,62702,1,0,0:0:0:0:
64,192,62936,1,2,0:0:0:0:
192,192,62936,1,8,0:0:0:0:
64,192,63170,1,0,0:0:0:0:
448,192,63170,1,0,0:0:0:0:
320,192,63405,1,2,0:0:0:0:
448,192,63405,1,8,0:0:0:0:
192,192,63639,1,0,0:0:0:0:
320,192,63639,1,0,0:0:0:0:
64,192,63874,1,2,0:0:0:0:
192,192,63874,1,8,0:0:0:0:
320,192,64108,1,0,0:0:0:0:
448,192,64108,1,0,0:0:0:0:
64,192,64342,1,2,0:0:0:0:
448,192,64342,1,8,0:0:0:0:
192,192,64577,1,0,0:0:0:0:
320,192,64811,1,2,0:0:0:0:
448,192,64811,1,8,0:0:0:0:
64,192,65045,1,0,0:0:0:0:
192,192,65280,1,2,0:0:0:0:
320,192,65280,1,8,0:0:0:0:
448,192,65514,1,0,0:0:0:0:
64,192,65749,1,8,0:0:0:0:
192,192,65749,1,0,0:0:0:0:
192,192,66217,1,8,0:0:0:0:
320,192,66217,1,0,0:0:0:0:
320,192,66686,1,8,0:0:0:0:
448,192,66686,1,0,0:0:0:0:
64,192,67155,1,0,0:0:0:100:LR3_Snare DSW.wav
192,192,67155,1,0,0:0:0:0:
64,192,67389,1,0,0:0:0:100:LR3_Snare DSW.wav
192,192,67389,1,0,0:0:0:0:
64,192,67624,1,10,0:0:0:0:
448,192,67624,1,4,0:0:0:0:
320,192,67858,1,0,0:0:0:0:
192,192,67858,1,0,0:0:0:0:
64,192,68092,1,8,0:0:0:0:
192,192,68092,1,2,0:0:0:0:
448,192,68327,1,0,0:0:0:0:
192,192,68561,1,8,0:0:0:0:
320,192,68561,1,2,0:0:0:0:
64,192,68795,1,0,0:0:0:0:
448,192,68795,1,0,0:0:0:0:
192,192,69030,1,8,0:0:0:0:
320,192,69030,1,2,0:0:0:0:
320,192,69264,1,0,0:0:0:0:
64,192,69499,1,8,0:0:0:0:
192,192,69499,1,2,0:0:0:0:
192,192,69733,1,0,0:0:0:0:
320,192,69733,1,0,0:0:0:0:
64,192,69967,1,8,0:0:0:0:
448,192,69967,1,2,0:0:0:0:
192,192,70202,1,0,0:0:0:0:
320,192,70202,1,0,0:0:0:0:
320,192,70436,1,8,0:0:0:0:
448,192,70436,1,2,0:0:0:0:
64,192,70670,1,0,0:0:0:0:
448,192,70670,1,0,0:0:0:0:
64,192,70905,1,8,0:0:0:0:
192,192,70905,1,2,0:0:0:0:
320,192,71139,1,0,0:0:0:0:
448,192,71139,1,0,0:0:0:0:
64,192,71374,1,2,0:0:0:0:
192,192,71374,1,8,0:0:0:0:
320,192,71608,1,0,0:0:0:0:
192,192,71608,1,0,0:0:0:0:
64,192,71842,1,2,0:0:0:0:
448,192,71842,1,8,0:0:0:0:
192,192,72077,1,0,0:0:0:0:
64,192,72311,1,2,0:0:0:0:
320,192,72311,1,8,0:0:0:0:
192,192,72545,1,0,0:0:0:0:
448,192,72545,1,0,0:0:0:0:
64,192,72780,1,2,0:0:0:0:
320,192,72780,1,8,0:0:0:0:
192,192,73014,1,0,0:0:0:0:
320,192,73249,1,8,0:0:0:0:
448,192,73249,1,2,0:0:0:0:
192,192,73483,1,0,0:0:0:0:
320,192,73483,1,0,0:0:0:0:
64,192,73717,1,8,0:0:0:0:
448,192,73717,1,2,0:0:0:0:
320,192,73952,1,0,0:0:0:0:
64,192,74186,1,8,0:0:0:0:
192,192,74186,1,2,0:0:0:0:
192,192,74420,1,0,0:0:0:0:
320,192,74420,1,0,0:0:0:0:
320,192,74655,1,8,0:0:0:0:
448,192,74655,1,2,0:0:0:0:
64,192,74889,1,0,0:0:0:0:
448,192,74889,1,0,0:0:0:0:
64,192,75124,1,2,0:0:0:0:
192,192,75124,1,8,0:0:0:0:
320,192,75358,1,0,0:0:0:0:
448,192,75358,1,0,0:0:0:0:
64,192,75592,1,2,0:0:0:0:
448,192,75592,1,8,0:0:0:0:
192,192,75827,1,0,0:0:0:0:
320,192,76061,1,2,0:0:0:0:
448,192,76061,1,8,0:0:0:0:
64,192,76295,1,0,0:0:0:0:
192,192,76295,1,0,0:0:0:0:
320,192,76530,1,2,0:0:0:0:
448,192,76530,1,8,0:0:0:0:
448,192,76764,1,0,0:0:0:0:
64,192,76999,1,8,0:0:0:0:
192,192,76999,1,2,0:0:0:0:
320,192,77233,1,0,0:0:0:0:
448,192,77233,1,0,0:0:0:0:
192,192,77467,1,8,0:0:0:0:
320,192,77467,1,2,0:0:0:0:
64,192,77702,1,0,0:0:0:0:
192,192,77702,1,0,0:0:0:0:
320,192,77936,1,8,0:0:0:0:
448,192,77936,1,2,0:0:0:0:
64,192,78170,1,0,0:0:0:0:
448,192,78170,1,0,0:0:0:0:
64,192,78405,1,8,0:0:0:0:
192,192,78405,1,2,0:0:0:0:
192,192,78639,1,0,0:0:0:0:
320,192,78639,1,0,0:0:0:0:
320,192,78874,1,8,0:0:0:0:
448,192,78874,1,2,0:0:0:0:
192,192,79108,1,0,0:0:0:0:
64,192,79108,1,0,0:0:0:0:
64,192,79342,1,8,0:0:0:0:
448,192,79342,1,2,0:0:0:0:
320,192,79577,1,0,0:0:0:0:
64,192,79811,1,8,0:0:0:0:
192,192,79811,1,2,0:0:0:0:
448,192,80045,1,0,0:0:0:0:
192,192,80280,1,8,0:0:0:0:
320,192,80280,1,2,0:0:0:0:
64,192,80514,1,0,0:0:0:0:
320,192,80749,1,8,0:0:0:0:
448,192,80749,1,0,0:0:0:0:
192,192,81217,1,8,0:0:0:0:
320,192,81217,1,0,0:0:0:0:
64,192,81686,1,8,0:0:0:0:
192,192,81686,1,0,0:0:0:0:
320,192,82155,1,0,0:0:0:100:LR3_Snare DSW.wav
448,192,82155,1,0,0:0:0:0:
320,192,82389,1,0,0:0:0:100:LR3_Snare DSW.wav
448,192,82389,1,0,0:0:0:0:
64,192,82624,1,6,0:0:0:0:
448,192,82624,1,8,0:0:0:0:
192,192,82858,1,0,0:0:0:0:
320,192,82975,1,0,0:0:0:70:VEC3 Snares 021.wav
64,192,83092,1,2,0:0:0:0:
448,192,83092,1,8,0:0:0:0:
192,192,83327,1,0,0:0:0:70:VEC3 Snares 021.wav
320,192,83327,1,0,0:0:0:0:
320,192,83561,1,2,0:0:0:0:
448,192,83561,1,8,0:0:0:0:
64,192,83795,1,0,0:0:0:70:VEC3 Snares 021.wav
192,192,83795,1,0,0:0:0:0:
448,192,84030,1,10,0:0:0:0:
192,192,84147,1,0,0:0:0:0:
448,192,84264,1,0,0:0:0:70:VEC3 Snares 021.wav
320,192,84381,1,0,0:0:0:70:VEC3 Snares 021.wav
64,192,84499,1,2,0:0:0:0:
192,192,84499,1,8,0:0:0:0:
64,192,84733,1,0,0:0:0:0:
320,192,84850,1,0,0:0:0:70:VEC3 Snares 021.wav
192,192,84967,1,2,0:0:0:0:
448,192,84967,1,8,0:0:0:0:
192,192,85202,1,0,0:0:0:70:VEC3 Snares 021.wav
320,192,85202,1,0,0:0:0:0:
64,192,85436,1,2,0:0:0:0:
448,192,85436,1,8,0:0:0:0:
192,192,85670,1,0,0:0:0:70:VEC3 Snares 021.wav
320,192,85670,1,0,0:0:0:0:
320,192,85905,1,2,0:0:0:0:
448,192,85905,1,8,0:0:0:0:
64,192,86139,1,0,0:0:0:70:VEC3 Snares 021.wav
448,192,86139,1,0,0:0:0:0:
192,192,86256,1,0,0:0:0:70:VEC3 Snares 021.wav
320,192,86374,1,8,0:0:0:0:
448,192,86374,1,2,0:0:0:0:
192,192,86608,1,0,0:0:0:0:
320,192,86725,1,0,0:0:0:70:VEC3 Snares 021.wav
64,192,86842,1,8,0:0:0:0:
448,192,86842,1,2,0:0:0:0:
192,192,87077,1,0,0:0:0:70:VEC3 Snares 021.wav
320,192,87077,1,0,0:0:0:0:
192,192,87311,1,8,0:0:0:0:
448,192,87311,1,2,0:0:0:0:
64,192,87545,1,0,0:0:0:70:VEC3 Snares 021.wav
320,192,87545,1,0,0:0:0:0:
192,192,87780,1,10,0:0:0:0:
64,192,87897,1,0,0:0:0:0:
320,192,88014,1,0,0:0:0:70:VEC3 Snares 021.wav
448,192,88131,1,0,0:0:0:70:VEC3 Snares 021.wav
64,192,88249,1,2,0:0:0:0:
192,192,88249,1,8,0:0:0:0:
320,192,88483,1,0,0:0:0:0:
192,192,88600,1,0,0:0:0:70:VEC3 Snares 021.wav
64,192,88717,1,2,0:0:0:0:
448,192,88717,1,8,0:0:0:0:
192,192,88952,1,0,0:0:0:70:VEC3 Snares 021.wav
320,192,88952,1,0,0:0:0:0:
64,192,89186,1,2,0:0:0:0:
448,192,89186,1,8,0:0:0:0:
320,192,89420,1,0,0:0:0:70:VEC3 Snares 021.wav
448,192,89420,1,0,0:0:0:0:
192,192,89655,1,2,0:0:0:0:
320,192,89655,1,8,0:0:0:0:
64,192,89889,1,0,0:0:0:70:VEC3 Snares 021.wav
192,192,89889,1,0,0:0:0:0:
320,192,90124,1,8,0:0:0:0:
448,192,90124,1,2,0:0:0:0:
192,192,90358,1,0,0:0:0:0:
320,192,90475,1,0,0:0:0:70:VEC3 Snares 021.wav
64,192,90592,1,8,0:0:0:0:
448,192,90592,1,2,0:0:0:0:
192,192,90827,1,0,0:0:0:70:VEC3 Snares 021.wav
320,192,90827,1,0,0:0:0:0:
64,192,91061,1,8,0:0:0:0:
192,192,91061,1,2,0:0:0:0:
320,192,91295,1,0,0:0:0:70:VEC3 Snares 021.wav
448,192,91295,1,0,0:0:0:0:
64,192,91530,1,10,0:0:0:0:
320,192,91647,1,0,0:0:0:0:
64,192,91764,1,0,0:0:0:70:VEC3 Snares 021.wav
192,192,91881,1,0,0:0:0:70:VEC3 Snares 021.wav
320,192,91999,1,2,0:0:0:0:
448,192,91999,1,8,0:0:0:0:
192,192,92233,1,0,0:0:0:0:
320,192,92350,1,0,0:0:0:70:VEC3 Snares 021.wav
64,192,92467,1,2,0:0:0:0:
448,192,92467,1,8,0:0:0:0:
192,192,92702,1,0,0:0:0:70:VEC3 Snares 021.wav
320,192,92702,1,0,0:0:0:0:
64,192,92936,1,2,0:0:0:0:
448,192,92936,1,8,0:0:0:0:
64,192,93170,1,0,0:0:0:70:VEC3 Snares 021.wav
192,192,93170,1,0,0:0:0:0:
320,192,93405,1,2,0:0:0:0:
448,192,93405,1,8,0:0:0:0:
64,192,93639,1,0,0:0:0:70:VEC3 Snares 021.wav
192,192,93639,1,0,0:0:0:0:
320,192,93756,1,0,0:0:0:70:VEC3 Snares 021.wav
64,192,93874,1,8,0:0:0:0:
448,192,93874,1,0,0:0:0:70:VEC3 Snares 021.wav
192,192,94108,1,0,0:0:0:0:
320,192,94108,1,0,0:0:0:0:
64,192,94342,1,8,0:0:0:0:
448,192,94342,1,0,0:0:0:70:VEC3 Snares 021.wav
192,192,94577,1,0,0:0:0:70:VEC3 Snares 021.wav
320,192,94577,1,0,0:0:0:0:
320,192,94811,1,8,0:0:0:0:
448,192,94811,1,0,0:0:0:70:VEC3 Snares 021.wav
64,192,95045,1,0,0:0:0:70:VEC3 Snares 021.wav
192,192,95045,1,0,0:0:0:0:
448,192,95280,1,8,0:0:0:0:
192,192,95397,1,0,0:0:0:70:VEC3 Snares 021.wav
448,192,95514,1,0,0:0:0:70:VEC3 Snares 021.wav
320,192,95631,1,0,0:0:0:70:VEC3 Snares 021.wav
64,192,95749,1,8,0:0:0:0:
192,192,95749,1,0,0:0:0:70:VEC3 Snares 021.wav
64,192,96100,1,0,0:0:0:70:VEC3 Snares 021.wav
320,192,96217,1,8,0:0:0:0:
448,192,96217,1,0,0:0:0:70:VEC3 Snares 021.wav
192,192,96452,1,0,0:0:0:70:VEC3 Snares 021.wav
64,192,96686,1,8,0:0:0:0:
320,192,96686,1,0,0:0:0:70:VEC3 Snares 021.wav
192,192,96920,1,0,0:0:0:70:VEC3 Snares 021.wav
320,192,97038,1,0,0:0:0:70:VEC3 Snares 021.wav
64,192,97155,1,0,0:0:0:100:LR3_Snare DSW.wav
448,192,97155,1,0,0:0:0:0:
320,192,97389,1,0,0:0:0:100:LR3_Snare DSW.wav
64,192,97624,1,2,0:0:0:0:
192,192,97624,1,4,0:0:0:0:
320,192,97858,1,0,0:0:0:0:
64,192,98092,1,0,0:0:0:0:
448,192,98327,1,0,0:0:0:0:
192,192,98561,1,0,0:0:0:0:
320,192,98795,1,0,0:0:0:0:
64,192,99030,1,0,0:0:0:0:
448,192,99264,1,0,0:0:0:0:
192,192,99499,1,0,0:0:0:0:
320,192,99733,1,0,0:0:0:0:
64,192,99967,1,0,0:0:0:0:
192,192,100202,1,0,0:0:0:0:
448,192,100436,1,0,0:0:0:0:
320,192,100670,1,0,0:0:0:0:
64,192,100905,1,0,0:0:0:0:
192,192,101139,1,0,0:0:0:0:
448,192,101374,1,2,0:0:0:0:
320,192,101608,1,0,0:0:0:0:
448,192,101842,1,2,0:0:0:0:
192,192,102077,1,0,0:0:0:0:
448,192,102311,1,2,0:0:0:0:
64,192,102545,1,0,0:0:0:0:
448,192,102780,1,2,0:0:0:0:
192,192,103014,1,0,0:0:0:0:
320,192,103249,1,2,0:0:0:0:
448,192,103483,1,0,0:0:0:0:
320,192,103717,1,2,0:0:0:0:
192,192,103952,1,0,0:0:0:0:
320,192,104186,1,2,0:0:0:0:
64,192,104420,1,0,0:0:0:0:
320,192,104655,1,2,0:0:0:0:
192,192,104889,1,0,0:0:0:0:
64,192,105124,1,2,0:0:0:0:
448,192,105358,1,0,0:0:0:0:
64,192,105592,1,2,0:0:0:0:
320,192,105827,1,0,0:0:0:0:
64,192,106061,1,2,0:0:0:0:
192,192,106295,1,0,0:0:0:0:
64,192,106530,1,2,0:0:0:0:
448,192,106764,1,0,0:0:0:0:
192,192,106999,1,2,0:0:0:0:
64,192,107233,1,0,0:0:0:0:
192,192,107467,1,2,0:0:0:0:
320,192,107702,1,0,0:0:0:0:
192,192,107936,1,2,0:0:0:0:
448,192,108170,1,0,0:0:0:0:
192,192,108405,1,2,0:0:0:0:
320,192,108639,1,0,0:0:0:0:
448,192,108874,1,2,0:0:0:0:
64,192,109108,1,0,0:0:0:0:
448,192,109342,1,2,0:0:0:0:
192,192,109577,1,0,0:0:0:0:
448,192,109811,1,2,0:0:0:0:
320,192,110045,1,0,0:0:0:0:
448,192,110280,1,2,0:0:0:0:
320,192,110514,1,0,0:0:0:0:
192,192,110749,1,2,0:0:0:0:
64,192,110983,1,0,0:0:0:0:
192,192,111217,1,2,0:0:0:0:
320,192,111452,1,0,0:0:0:0:
192,192,111686,1,2,0:0:0:0:
448,192,111920,1,0,0:0:0:0:
192,192,112155,1,2,0:0:0:0:
64,192,112389,1,0,0:0:0:0:
320,192,112624,1,2,0:0:0:0:
448,192,112624,1,0,0:0:0:0:
192,192,112975,1,0,0:0:0:0:
320,192,113092,1,2,0:0:0:0:
64,192,113327,1,0,0:0:0:0:
320,192,113561,1,2,0:0:0:0:
448,192,113913,1,0,0:0:0:0:
320,192,114030,1,2,0:0:0:0:
192,192,114264,1,0,0:0:0:0:
64,192,114499,1,2,0:0:0:0:
448,192,114850,1,0,0:0:0:0:
192,192,114967,1,2,0:0:0:0:
320,192,115202,1,0,0:0:0:0:
64,192,115436,1,2,0:0:0:0:
192,192,115670,1,0,0:0:0:0:
320,192,115905,1,2,0:0:0:0:
448,192,116139,1,0,0:0:0:0:
64,192,116374,1,2,0:0:0:0:
320,192,116725,1,0,0:0:0:0:
192,192,116842,1,2,0:0:0:0:
448,192,117077,1,0,0:0:0:0:
64,192,117311,1,2,0:0:0:0:
320,192,117663,1,0,0:0:0:0:
192,192,117780,1,2,0:0:0:0:
448,192,118014,1,0,0:0:0:0:
320,192,118249,1,2,0:0:0:0:
64,192,118600,1,0,0:0:0:0:
192,192,118717,1,2,0:0:0:0:
320,192,118952,1,0,0:0:0:0:
448,192,119186,1,2,0:0:0:0:
64,192,119420,1,0,0:0:0:0:
320,192,119655,1,2,0:0:0:0:
192,192,119889,1,0,0:0:0:0:
448,192,120124,1,2,0:0:0:0:
320,192,120475,1,0,0:0:0:0:
64,192,120592,1,2,0:0:0:0:
192,192,120827,1,0,0:0:0:0:
448,192,121061,1,2,0:0:0:0:
64,192,121413,1,0,0:0:0:0:
320,192,121530,1,2,0:0:0:0:
192,192,121764,1,0,0:0:0:0:
448,192,121999,1,2,0:0:0:0:
320,192,122350,1,0,0:0:0:0:
64,192,122467,1,2,0:0:0:0:
192,192,122702,1,0,0:0:0:0:
448,192,122936,1,2,0:0:0:0:
320,192,123170,1,0,0:0:0:0:
64,192,123405,1,2,0:0:0:0:
192,192,123639,1,0,0:0:0:0:
448,192,123874,1,2,0:0:0:0:
64,192,124225,1,0,0:0:0:0:
192,192,124342,1,2,0:0:0:0:
320,192,124577,1,0,0:0:0:0:
448,192,124811,1,2,0:0:0:0:
320,192,125163,1,0,0:0:0:0:
192,192,125280,1,2,0:0:0:0:
64,192,125514,1,0,0:0:0:0:
448,192,125749,1,2,0:0:0:0:
192,192,126100,1,0,0:0:0:0:
320,192,126217,1,2,0:0:0:0:
64,192,126452,1,0,0:0:0:0:
448,192,126686,1,2,0:0:0:0:
320,192,126920,1,0,0:0:0:0:
192,192,127155,1,2,0:0:0:0:
320,192,127389,1,0,0:0:0:0:
64,192,127624,1,2,0:0:0:0:
448,192,127624,1,0,0:0:0:0:
192,192,127858,1,0,0:0:0:0:
320,192,128092,1,2,0:0:0:0:
64,192,128327,1,0,0:0:0:0:
448,192,128561,1,2,0:0:0:0:
192,192,128795,1,0,0:0:0:0:
320,192,129030,1,2,0:0:0:0:
64,192,129264,1,0,0:0:0:0:
320,192,129499,1,2,0:0:0:0:
448,192,129499,1,0,0:0:0:0:
192,192,129733,1,0,0:0:0:0:
320,192,129967,1,2,0:0:0:0:
64,192,130202,1,0,0:0:0:0:
448,192,130436,1,2,0:0:0:0:
320,192,130670,1,0,0:0:0:0:
192,192,130905,1,2,0:0:0:0:
448,192,131139,1,0,0:0:0:0:
64,192,131374,1,2,0:0:0:0:
192,192,131374,1,0,0:0:0:0:
320,192,131608,1,0,0:0:0:0:
192,192,131842,1,2,0:0:0:0:
64,192,132077,1,0,0:0:0:0:
448,192,132311,1,2,0:0:0:0:
320,192,132545,1,0,0:0:0:0:
64,192,132780,1,2,0:0:0:0:
192,192,132780,1,0,0:0:0:0:
448,192,133014,1,0,0:0:0:0:
192,192,133249,1,2,0:0:0:0:
320,192,133249,1,0,0:0:0:0:
64,192,133483,1,0,0:0:0:0:
448,192,133717,1,2,0:0:0:0:
192,192,133952,1,0,0:0:0:0:
320,192,134186,1,2,0:0:0:0:
64,192,134420,1,0,0:0:0:0:
448,192,134655,1,2,0:0:0:0:
64,192,134889,1,0,0:0:0:0:
320,192,135124,1,2,0:0:0:0:
448,192,135124,1,0,0:0:0:0:
192,192,135358,1,0,0:0:0:0:
448,192,135592,1,2,0:0:0:0:
64,192,135827,1,0,0:0:0:0:
320,192,136061,1,2,0:0:0:0:
192,192,136295,1,0,0:0:0:0:
64,192,136530,1,2,0:0:0:0:
448,192,136764,1,0,0:0:0:0:
192,192,136999,1,2,0:0:0:0:
320,192,136999,1,0,0:0:0:0:
64,192,137233,1,0,0:0:0:0:
448,192,137467,1,2,0:0:0:0:
192,192,137702,1,0,0:0:0:0:
320,192,137936,1,2,0:0:0:0:
64,192,138170,1,0,0:0:0:0:
192,192,138405,1,2,0:0:0:0:
448,192,138639,1,0,0:0:0:0:
64,192,138874,1,2,0:0:0:0:
320,192,138874,1,0,0:0:0:0:
192,192,139108,1,0,0:0:0:0:
448,192,139342,1,2,0:0:0:0:
320,192,139577,1,0,0:0:0:0:
64,192,139811,1,2,0:0:0:0:
448,192,140045,1,0,0:0:0:0:
64,192,140280,1,2,0:0:0:0:
192,192,140280,1,0,0:0:0:0:
320,192,140514,1,0,0:0:0:0:
64,192,140749,1,2,0:0:0:0:
448,192,140749,1,0,0:0:0:0:
192,192,140983,1,0,0:0:0:0:
320,192,141217,1,2,0:0:0:0:
64,192,141452,1,0,0:0:0:0:
448,192,141686,1,2,0:0:0:0:
192,192,141920,1,0,0:0:0:0:
320,192,142155,1,2,0:0:0:0:
192,192,142389,1,0,0:0:0:0:
64,192,142624,1,2,0:0:0:0:
448,192,142624,1,0,0:0:0:0:
320,192,142858,1,0,0:0:0:0:
64,192,143092,1,2,0:0:0:0:
192,192,143092,1,0,0:0:0:0:
448,192,143327,1,0,0:0:0:70:VEC3 Snares 021.wav
192,192,143561,1,2,0:0:0:0:
320,192,143561,1,0,0:0:0:0:
64,192,143795,1,0,0:0:0:70:VEC3 Snares 021.wav
320,192,144030,1,2,0:0:0:0:
448,192,144030,1,0,0:0:0:0:
192,192,144264,1,0,0:0:0:70:VEC3 Snares 021.wav
320,192,144381,1,0,0:0:0:70:VEC3 Snares 021.wav
64,192,144499,1,2,0:0:0:0:
448,192,144499,1,0,0:0:0:0:
192,192,144733,1,0,0:0:0:0:
320,192,144967,1,2,0:0:0:0:
448,192,144967,1,0,0:0:0:0:
64,192,145202,1,0,0:0:0:70:VEC3 Snares 021.wav
192,192,145436,1,2,0:0:0:0:
320,192,145436,1,0,0:0:0:0:
448,192,145670,1,0,0:0:0:70:VEC3 Snares 021.wav
64,192,145905,1,2,0:0:0:0:
192,192,145905,1,0,0:0:0:0:
320,192,146139,1,0,0:0:0:70:VEC3 Snares 021.wav
192,192,146256,1,0,0:0:0:70:VEC3 Snares 021.wav
64,192,146374,1,2,0:0:0:0:
448,192,146374,1,0,0:0:0:0:
320,192,146608,1,0,0:0:0:0:
192,192,146842,1,2,0:0:0:0:
448,192,146842,1,0,0:0:0:0:
320,192,147077,1,0,0:0:0:70:VEC3 Snares 021.wav
64,192,147311,1,2,0:0:0:0:
192,192,147311,1,0,0:0:0:0:
448,192,147545,1,0,0:0:0:70:VEC3 Snares 021.wav
64,192,147780,1,2,0:0:0:0:
320,192,147780,1,0,0:0:0:0:
192,192,148014,1,0,0:0:0:70:VEC3 Snares 021.wav
320,192,148131,1,0,0:0:0:70:VEC3 Snares 021.wav
64,192,148249,1,2,0:0:0:0:
448,192,148249,1,0,0:0:0:0:
192,192,148483,1,0,0:0:0:0:
320,192,148717,1,2,0:0:0:0:
448,192,148717,1,0,0:0:0:0:
192,192,148952,1,0,0:0:0:70:VEC3 Snares 021.wav
64,192,149186,1,2,0:0:0:0:
448,192,149186,1,0,0:0:0:0:
320,192,149420,1,0,0:0:0:70:VEC3 Snares 021.wav
64,192,149655,1,2,0:0:0:0:
192,192,149655,1,0,0:0:0:0:
320,192,149889,1,0,0:0:0:70:VEC3 Snares 021.wav
192,192,150006,1,0,0:0:0:70:VEC3 Snares 021.wav
64,192,150124,1,2,0:0:0:0:
448,192,150124,1,0,0:0:0:0:
320,192,150358,1,0,0:0:0:0:
64,192,150592,1,2,0:0:0:0:
192,192,150592,1,0,0:0:0:0:
448,192,150827,1,0,0:0:0:70:VEC3 Snares 021.wav
192,192,151061,1,2,0:0:0:0:
320,192,151061,1,0,0:0:0:0:
64,192,151295,1,0,0:0:0:70:VEC3 Snares 021.wav
320,192,151530,1,2,0:0:0:0:
448,192,151530,1,0,0:0:0:0:
192,192,151764,1,0,0:0:0:70:VEC3 Snares 021.wav
320,192,151881,1,0,0:0:0:70:VEC3 Snares 021.wav
64,192,151999,1,2,0:0:0:0:
448,192,151999,1,0,0:0:0:0:
192,192,152233,1,0,0:0:0:0:
320,192,152467,1,2,0:0:0:0:
448,192,152467,1,0,0:0:0:0:
64,192,152702,1,0,0:0:0:70:VEC3 Snares 021.wav
192,192,152936,1,2,0:0:0:0:
320,192,152936,1,0,0:0:0:0:
448,192,153170,1,0,0:0:0:70:VEC3 Snares 021.wav
64,192,153405,1,2,0:0:0:0:
192,192,153405,1,0,0:0:0:0:
320,192,153639,1,0,0:0:0:70:VEC3 Snares 021.wav
192,192,153756,1,0,0:0:0:70:VEC3 Snares 021.wav
64,192,153874,1,2,0:0:0:0:
448,192,153874,1,0,0:0:0:0:
320,192,154108,1,0,0:0:0:0:
192,192,154342,1,2,0:0:0:0:
448,192,154342,1,0,0:0:0:0:
64,192,154577,1,0,0:0:0:70:VEC3 Snares 021.wav
192,192,154811,1,2,0:0:0:0:
320,192,154811,1,0,0:0:0:0:
448,192,155045,1,0,0:0:0:70:VEC3 Snares 021.wav
64,192,155280,1,2,0:0:0:0:
320,192,155280,1,0,0:0:0:0:
192,192,155514,1,0,0:0:0:70:VEC3 Snares 021.wav
320,192,155631,1,0,0:0:0:70:VEC3 Snares 021.wav
64,192,155749,1,0,0:0:0:70:VEC3 Snares 021.wav
448,192,155749,1,0,0:0:0:0:
192,192,156100,1,0,0:0:0:70:VEC3 Snares 021.wav
320,192,156217,1,0,0:0:0:0:
64,192,156452,1,0,0:0:0:70:VEC3 Snares 021.wav
448,192,156686,1,0,0:0:0:0:
192,192,156920,1,0,0:0:0:70:VEC3 Snares 021.wav
320,192,157155,1,0,0:0:0:0:
448,192,157155,1,0,0:0:0:0:
64,192,157389,1,0,0:0:0:0:
192,192,157624,1,14,0:0:0:0:
448,192,157624,1,0,0:0:0:70:VEC3 Snares 021.wav
320,192,157858,1,0,0:0:0:70:VEC3 Snares 021.wav
192,192,157975,1,0,0:0:0:70:VEC3 Snares 021.wav
64,192,158092,1,8,0:0:0:0:
448,192,158092,1,0,0:0:0:70:VEC3 Snares 021.wav
320,192,158327,1,0,0:0:0:70:VEC3 Snares 021.wav
64,192,158561,1,8,0:0:0:0:
192,192,158561,1,0,0:0:0:70:VEC3 Snares 021.wav
320,192,158795,1,0,0:0:0:70:VEC3 Snares 021.wav
64,192,159030,1,8,0:0:0:0:
448,192,159030,1,0,0:0:0:70:VEC3 Snares 021.wav
320,192,159147,1,0,0:0:0:70:VEC3 Snares 021.wav
192,192,159264,1,0,0:0:0:70:VEC3 Snares 021.wav
64,192,159381,1,0,0:0:0:70:VEC3 Snares 021.wav
320,192,159499,1,8,0:0:0:0:
448,192,159499,1,0,0:0:0:70:VEC3 Snares 021.wav
192,192,159733,1,0,0:0:0:70:VEC3 Snares 021.wav
320,192,159850,1,0,0:0:0:70:VEC3 Snares 021.wav
64,192,159967,1,8,0:0:0:0:
448,192,159967,1,0,0:0:0:70:VEC3 Snares 021.wav
192,192,160202,1,0,0:0:0:70:VEC3 Snares 021.wav
320,192,160436,1,8,0:0:0:0:
448,192,160436,1,0,0:0:0:70:VEC3 Snares 021.wav
192,192,160670,1,0,0:0:0:70:VEC3 Snares 021.wav
64,192,160905,1,8,0:0:0:0:
448,192,160905,1,0,0:0:0:70:VEC3 Snares 021.wav
192,192,161022,1,0,0:0:0:70:VEC3 Snares 021.wav
320,192,161139,1,0,0:0:0:70:VEC3 Snares 021.wav
448,192,161256,1,0,0:0:0:70:VEC3 Snares 021.wav
64,192,161374,1,8,0:0:0:0:
192,192,161374,1,0,0:0:0:70:VEC3 Snares 021.wav
320,192,161608,1,0,0:0:0:70:VEC3 Snares 021.wav
192,192,161725,1,0,0:0:0:70:VEC3 Snares 021.wav
64,192,161842,1,8,0:0:0:0:
448,192,161842,1,0,0:0:0:70:VEC3 Snares 021.wav
192,192,162077,1,0,0:0:0:70:VEC3 Snares 021.wav
320,192,162311,1,8,0:0:0:0:
448,192,162311,1,0,0:0:0:70:VEC3 Snares 021.wav
192,192,162545,1,0,0:0:0:70:VEC3 Snares 021.wav
64,192,162780,1,8,0:0:0:0:
448,192,162780,1,0,0:0:0:70:VEC3 Snares 021.wav
320,192,162897,1,0,0:0:0:70:VEC3 Snares 021.wav
192,192,163014,1,0,0:0:0:70:VEC3 Snares 021.wav
64,192,163131,1,0,0:0:0:70:VEC3 Snares 021.wav
320,192,163249,1,8,0:0:0:0:
448,192,163249,1,0,0:0:0:70:VEC3 Snares 021.wav
192,192,163483,1,0,0:0:0:70:VEC3 Snares 021.wav
320,192,163600,1,0,0:0:0:70:VEC3 Snares 021.wav
64,192,163717,1,8,0:0:0:0:
448,192,163717,1,0,0:0:0:70:VEC3 Snares 021.wav
320,192,163952,1,0,0:0:0:70:VEC3 Snares 021.wav
448,192,164069,1,0,0:0:0:70:VEC3 Snares 021.wav
64,192,164186,1,8,0:0:0:0:
192,192,164186,1,0,0:0:0:70:VEC3 Snares 021.wav
320,192,164420,1,0,0:0:0:70:VEC3 Snares 021.wav
192,192,164538,1,0,0:0:0:70:VEC3 Snares 021.wav
64,192,164655,1,8,0:0:0:0:
448,192,164655,1,0,0:0:0:70:VEC3 Snares 021.wav
320,192,164772,1,0,0:0:0:70:VEC3 Snares 021.wav
192,192,164889,1,0,0:0:0:70:VEC3 Snares 021.wav
64,192,165124,1,8,0:0:0:0:
448,192,165124,1,0,0:0:0:70:VEC3 Snares 021.wav
320,192,165358,1,0,0:0:0:70:VEC3 Snares 021.wav
192,192,165475,1,0,0:0:0:70:VEC3 Snares 021.wav
320,192,165592,1,8,0:0:0:0:
448,192,165592,1,0,0:0:0:70:VEC3 Snares 021.wav
64,192,165827,1,0,0:0:0:70:VEC3 Snares 021.wav
192,192,165827,1,0,0:0:0:0:
320,192,166061,1,8,0:0:0:0:
448,192,166061,1,0,0:0:0:70:VEC3 Snares 021.wav
64,192,166295,1,0,0:0:0:70:VEC3 Snares 021.wav
192,192,166413,1,0,0:0:0:70:VEC3 Snares 021.wav
320,192,166530,1,8,0:0:0:0:
448,192,166530,1,0,0:0:0:70:VEC3 Snares 021.wav
64,192,166647,1,0,0:0:0:70:VEC3 Snares 021.wav
192,192,166764,1,0,0:0:0:70:VEC3 Snares 021.wav
320,192,166881,1,0,0:0:0:70:VEC3 Snares 021.wav
64,192,166999,1,8,0:0:0:0:
448,192,166999,1,0,0:0:0:70:VEC3 Snares 021.wav
192,192,167233,1,0,0:0:0:70:VEC3 Snares 021.wav
320,192,167350,1,0,0:0:0:70:VEC3 Snares 021.wav
64,192,167467,1,8,0:0:0:0:
192,192,167467,1,0,0:0:0:70:VEC3 Snares 021.wav
320,192,167702,1,0,0:0:0:70:VEC3 Snares 021.wav
448,192,167702,1,0,0:0:0:0:
64,192,167936,1,8,0:0:0:0:
192,192,167936,1,0,0:0:0:70:VEC3 Snares 021.wav
448,192,168170,1,0,0:0:0:70:VEC3 Snares 021.wav
320,192,168288,1,0,0:0:0:70:VEC3 Snares 021.wav
64,192,168405,1,8,0:0:0:0:
192,192,168405,1,0,0:0:0:70:VEC3 Snares 021.wav
448,192,168522,1,0,0:0:0:70:VEC3 Snares 021.wav
320,192,168639,1,0,0:0:0:70:VEC3 Snares 021.wav
192,192,168756,1,0,0:0:0:70:VEC3 Snares 021.wav
64,192,168874,1,8,0:0:0:0:
448,192,168874,1,0,0:0:0:60:VEC3 Snares 021.wav
320,192,169108,1,0,0:0:0:60:VEC3 Snares 021.wav
192,192,169225,1,0,0:0:0:60:VEC3 Snares 021.wav
320,192,169342,1,8,0:0:0:0:
448,192,169342,1,0,0:0:0:60:VEC3 Snares 021.wav
64,192,169577,1,0,0:0:0:60:VEC3 Snares 021.wav
192,192,169577,1,0,0:0:0:0:
320,192,169811,1,8,0:0:0:0:
448,192,169811,1,0,0:0:0:60:VEC3 Snares 021.wav
64,192,170045,1,0,0:0:0:60:VEC3 Snares 021.wav
192,192,170163,1,0,0:0:0:60:VEC3 Snares 021.wav
320,192,170280,1,8,0:0:0:0:
448,192,170280,1,0,0:0:0:60:VEC3 Snares 021.wav
64,192,170397,1,0,0:0:0:60:VEC3 Snares 021.wav
192,192,170514,1,0,0:0:0:60:VEC3 Snares 021.wav
320,192,170631,1,0,0:0:0:60:VEC3 Snares 021.wav
64,192,170749,1,8,0:0:0:0:
448,192,170749,1,0,0:0:0:60:VEC3 Snares 021.wav
192,192,170983,1,0,0:0:0:50:VEC3 Snares 021.wav
320,192,171100,1,0,0:0:0:50:VEC3 Snares 021.wav
192,192,171217,1,8,0:0:0:0:
448,192,171452,1,0,0:0:0:50:VEC3 Snares 021.wav
320,192,171569,1,0,0:0:0:50:VEC3 Snares 021.wav
64,192,171686,1,8,0:0:0:0:
192,192,171686,1,0,0:0:0:50:VEC3 Snares 021.wav
64,192,171920,1,0,0:0:0:50:VEC3 Snares 021.wav
192,192,172038,1,0,0:0:0:50:VEC3 Snares 021.wav
320,192,172155,1,0,0:0:0:50:VEC3 Snares 021.wav
448,192,172155,1,0,0:0:0:0:
192,192,172389,1,0,0:0:0:0:
64,192,172624,1,6,0:0:0:0:
448,192,172624,1,8,0:0:0:0:
320,192,172858,1,0,0:0:0:0:
192,192,172858,1,0,0:0:0:0:
64,192,173092,1,2,0:0:0:0:
192,192,173092,1,8,0:0:0:0:
448,192,173327,1,0,0:0:0:0:
192,192,173561,1,2,0:0:0:0:
320,192,173561,1,8,0:0:0:0:
64,192,173795,1,0,0:0:0:0:
448,192,173795,1,0,0:0:0:0:
192,192,174030,1,2,0:0:0:0:
320,192,174030,1,8,0:0:0:0:
320,192,174264,1,0,0:0:0:0:
64,192,174499,1,2,0:0:0:0:
192,192,174499,1,8,0:0:0:0:
192,192,174733,1,0,0:0:0:0:
320,192,174733,1,0,0:0:0:0:
64,192,174967,1,2,0:0:0:0:
448,192,174967,1,8,0:0:0:0:
192,192,175202,1,0,0:0:0:0:
320,192,175202,1,0,0:0:0:0:
320,192,175436,1,2,0:0:0:0:
448,192,175436,1,8,0:0:0:0:
64,192,175670,1,0,0:0:0:0:
448,192,175670,1,0,0:0:0:0:
64,192,175905,1,2,0:0:0:0:
192,192,175905,1,8,0:0:0:0:
320,192,176139,1,0,0:0:0:0:
448,192,176139,1,0,0:0:0:0:
64,192,176374,1,8,0:0:0:0:
192,192,176374,1,2,0:0:0:0:
320,192,176608,1,0,0:0:0:0:
192,192,176608,1,0,0:0:0:0:
64,192,176842,1,8,0:0:0:0:
448,192,176842,1,2,0:0:0:0:
192,192,177077,1,0,0:0:0:0:
64,192,177311,1,8,0:0:0:0:
320,192,177311,1,2,0:0:0:0:
192,192,177545,1,0,0:0:0:0:
448,192,177545,1,0,0:0:0:0:
64,192,177780,1,8,0:0:0:0:
320,192,177780,1,2,0:0:0:0:
192,192,178014,1,0,0:0:0:0:
320,192,178249,1,2,0:0:0:0:
448,192,178249,1,8,0:0:0:0:
192,192,178483,1,0,0:0:0:0:
320,192,178483,1,0,0:0:0:0:
64,192,178717,1,2,0:0:0:0:
448,192,178717,1,8,0:0:0:0:
320,192,178952,1,0,0:0:0:0:
64,192,179186,1,2,0:0:0:0:
192,192,179186,1,8,0:0:0:0:
192,192,179420,1,0,0:0:0:0:
320,192,179420,1,0,0:0:0:0:
320,192,179655,1,2,0:0:0:0:
448,192,179655,1,8,0:0:0:0:
64,192,179889,1,0,0:0:0:0:
448,192,179889,1,0,0:0:0:0:
64,192,180124,1,8,0:0:0:0:
192,192,180124,1,2,0:0:0:0:
320,192,180358,1,0,0:0:0:0:
448,192,180358,1,0,0:0:0:0:
64,192,180592,1,8,0:0:0:0:
448,192,180592,1,2,0:0:0:0:
192,192,180827,1,0,0:0:0:0:
320,192,181061,1,8,0:0:0:0:
448,192,181061,1,2,0:0:0:0:
64,192,181295,1,0,0:0:0:0:
192,192,181295,1,0,0:0:0:0:
320,192,181530,1,8,0:0:0:0:
448,192,181530,1,2,0:0:0:0:
448,192,181764,1,0,0:0:0:0:
64,192,181999,1,2,0:0:0:0:
192,192,181999,1,8,0:0:0:0:
320,192,182233,1,0,0:0:0:0:
448,192,182233,1,0,0:0:0:0:
192,192,182467,1,2,0:0:0:0:
320,192,182467,1,8,0:0:0:0:
64,192,182702,1,0,0:0:0:0:
192,192,182702,1,0,0:0:0:0:
320,192,182936,1,2,0:0:0:0:
448,192,182936,1,8,0:0:0:0:
64,192,183170,1,0,0:0:0:0:
448,192,183170,1,0,0:0:0:0:
64,192,183405,1,2,0:0:0:0:
192,192,183405,1,8,0:0:0:0:
192,192,183639,1,0,0:0:0:0:
320,192,183639,1,0,0:0:0:0:
320,192,183874,1,2,0:0:0:0:
448,192,183874,1,8,0:0:0:0:
192,192,184108,1,0,0:0:0:0:
64,192,184108,1,0,0:0:0:0:
64,192,184342,1,2,0:0:0:0:
448,192,184342,1,8,0:0:0:0:
320,192,184577,1,0,0:0:0:0:
64,192,184811,1,2,0:0:0:0:
192,192,184811,1,8,0:0:0:0:
448,192,185045,1,0,0:0:0:0:
192,192,185280,1,2,0:0:0:0:
320,192,185280,1,8,0:0:0:0:
64,192,185514,1,0,0:0:0:0:
320,192,185749,1,8,0:0:0:0:
448,192,185749,1,0,0:0:0:0:
192,192,186217,1,8,0:0:0:0:
320,192,186217,1,0,0:0:0:0:
64,192,186686,1,8,0:0:0:0:
192,192,186686,1,0,0:0:0:0:
320,192,187155,1,0,0:0:0:100:LR3_Snare DSW.wav
448,192,187155,1,0,0:0:0:0:
320,192,187389,1,0,0:0:0:100:LR3_Snare DSW.wav
448,192,187389,1,0,0:0:0:0:
64,192,187624,1,10,0:0:0:0:
448,192,187624,1,4,0:0:0:0:
192,192,187858,1,0,0:0:0:0:
320,192,187858,1,0,0:0:0:0:
320,192,188092,1,8,0:0:0:0:
448,192,188092,1,2,0:0:0:0:
64,192,188327,1,0,0:0:0:0:
192,192,188561,1,8,0:0:0:0:
320,192,188561,1,2,0:0:0:0:
64,192,188795,1,0,0:0:0:0:
448,192,188795,1,0,0:0:0:0:
192,192,189030,1,8,0:0:0:0:
320,192,189030,1,2,0:0:0:0:
192,192,189264,1,0,0:0:0:0:
320,192,189499,1,8,0:0:0:0:
448,192,189499,1,2,0:0:0:0:
192,192,189733,1,0,0:0:0:0:
320,192,189733,1,0,0:0:0:0:
64,192,189967,1,8,0:0:0:0:
448,192,189967,1,2,0:0:0:0:
192,192,190202,1,0,0:0:0:0:
320,192,190202,1,0,0:0:0:0:
64,192,190436,1,8,0:0:0:0:
192,192,190436,1,2,0:0:0:0:
64,192,190670,1,0,0:0:0:0:
448,192,190670,1,0,0:0:0:0:
320,192,190905,1,8,0:0:0:0:
448,192,190905,1,2,0:0:0:0:
64,192,191139,1,0,0:0:0:0:
192,192,191139,1,0,0:0:0:0:
320,192,191374,1,2,0:0:0:0:
448,192,191374,1,8,0:0:0:0:
192,192,191608,1,0,0:0:0:0:
320,192,191608,1,0,0:0:0:0:
64,192,191842,1,2,0:0:0:0:
448,192,191842,1,8,0:0:0:0:
320,192,192077,1,0,0:0:0:0:
192,192,192311,1,2,0:0:0:0:
448,192,192311,1,8,0:0:0:0:
64,192,192545,1,0,0:0:0:0:
320,192,192545,1,0,0:0:0:0:
192,192,192780,1,2,0:0:0:0:
448,192,192780,1,8,0:0:0:0:
320,192,193014,1,0,0:0:0:0:
64,192,193249,1,8,0:0:0:0:
192,192,193249,1,2,0:0:0:0:
320,192,193483,1,0,0:0:0:0:
192,192,193483,1,0,0:0:0:0:
64,192,193717,1,8,0:0:0:0:
448,192,193717,1,2,0:0:0:0:
192,192,193952,1,0,0:0:0:0:
320,192,194186,1,8,0:0:0:0:
448,192,194186,1,2,0:0:0:0:
192,192,194420,1,0,0:0:0:0:
320,192,194420,1,0,0:0:0:0:
64,192,194655,1,8,0:0:0:0:
192,192,194655,1,2,0:0:0:0:
64,192,194889,1,0,0:0:0:0:
448,192,194889,1,0,0:0:0:0:
320,192,195124,1,2,0:0:0:0:
448,192,195124,1,8,0:0:0:0:
192,192,195358,1,0,0:0:0:0:
64,192,195358,1,0,0:0:0:0:
64,192,195592,1,2,0:0:0:0:
448,192,195592,1,8,0:0:0:0:
320,192,195827,1,0,0:0:0:0:
64,192,196061,1,2,0:0:0:0:
192,192,196061,1,8,0:0:0:0:
320,192,196295,1,0,0:0:0:0:
448,192,196295,1,0,0:0:0:0:
64,192,196530,1,2,0:0:0:0:
192,192,196530,1,8,0:0:0:0:
64,192,196764,1,0,0:0:0:0:
320,192,196999,1,8,0:0:0:0:
448,192,196999,1,2,0:0:0:0:
64,192,197233,1,0,0:0:0:0:
192,192,197233,1,0,0:0:0:0:
192,192,197467,1,8,0:0:0:0:
320,192,197467,1,2,0:0:0:0:
320,192,197702,1,0,0:0:0:0:
448,192,197702,1,0,0:0:0:0:
64,192,197936,1,8,0:0:0:0:
192,192,197936,1,2,0:0:0:0:
64,192,198170,1,0,0:0:0:0:
448,192,198170,1,0,0:0:0:0:
320,192,198405,1,8,0:0:0:0:
448,192,198405,1,2,0:0:0:0:
192,192,198639,1,0,0:0:0:0:
320,192,198639,1,0,0:0:0:0:
64,192,198874,1,8,0:0:0:0:
192,192,198874,1,2,0:0:0:0:
320,192,199108,1,0,0:0:0:0:
448,192,199108,1,0,0:0:0:0:
64,192,199342,1,8,0:0:0:0:
192,192,199342,1,2,0:0:0:0:
320,192,199577,1,0,0:0:0:0:
448,192,199577,1,0,0:0:0:0:
64,192,199811,1,8,0:0:0:0:
448,192,199811,1,2,0:0:0:0:
192,192,200045,1,0,0:0:0:0:
320,192,200045,1,0,0:0:0:0:
64,192,200280,1,8,0:0:0:0:
448,192,200280,1,2,0:0:0:0:
320,192,200514,1,0,0:0:0:0:
192,192,200631,1,0,0:0:0:0:
64,192,200749,1,8,0:0:0:0:
448,192,200749,1,0,0:0:0:0:
320,192,200983,1,0,0:0:0:0:
64,192,201217,1,8,0:0:0:0:
192,192,201217,1,0,0:0:0:0:
320,192,201452,1,0,0:0:0:0:
192,192,201686,1,8,0:0:0:0:
448,192,201686,1,0,0:0:0:0:
320,192,201920,1,0,0:0:0:0:
64,192,202155,1,0,0:0:0:100:LR3_Snare DSW.wav
192,192,202155,1,0,0:0:0:0:
64,192,202389,1,0,0:0:0:100:LR3_Snare DSW.wav
192,192,202389,1,0,0:0:0:0:
64,192,202624,1,2,0:0:0:0:
448,192,202624,1,8,0:0:0:0:
320,192,203092,1,6,0:0:0:0:
448,192,203092,1,8,0:0:0:0:
320,192,203327,1,0,0:0:0:70:VEC3 Snares 021.wav
448,192,203327,1,0,0:0:0:0:
64,192,203561,1,2,0:0:0:0:
192,192,203561,1,8,0:0:0:0:
320,192,203795,1,0,0:0:0:70:VEC3 Snares 021.wav
448,192,203795,1,0,0:0:0:0:
64,192,204030,1,10,0:0:0:0:
320,192,204147,1,0,0:0:0:0:
64,192,204264,1,0,0:0:0:70:VEC3 Snares 021.wav
192,192,204381,1,0,0:0:0:70:VEC3 Snares 021.wav
320,192,204499,1,2,0:0:0:0:
448,192,204499,1,8,0:0:0:0:
448,192,204733,1,0,0:0:0:0:
192,192,204850,1,0,0:0:0:70:VEC3 Snares 021.wav
64,192,204967,1,2,0:0:0:0:
320,192,204967,1,8,0:0:0:0:
192,192,205202,1,0,0:0:0:70:VEC3 Snares 021.wav
320,192,205202,1,0,0:0:0:0:
64,192,205436,1,2,0:0:0:0:
448,192,205436,1,8,0:0:0:0:
192,192,205670,1,0,0:0:0:70:VEC3 Snares 021.wav
320,192,205670,1,0,0:0:0:0:
64,192,205905,1,2,0:0:0:0:
192,192,205905,1,8,0:0:0:0:
64,192,206139,1,0,0:0:0:70:VEC3 Snares 021.wav
448,192,206139,1,0,0:0:0:0:
320,192,206256,1,0,0:0:0:70:VEC3 Snares 021.wav
64,192,206374,1,8,0:0:0:0:
192,192,206374,1,2,0:0:0:0:
320,192,206608,1,0,0:0:0:0:
192,192,206725,1,0,0:0:0:70:VEC3 Snares 021.wav
64,192,206842,1,8,0:0:0:0:
448,192,206842,1,2,0:0:0:0:
192,192,207077,1,0,0:0:0:70:VEC3 Snares 021.wav
320,192,207077,1,0,0:0:0:0:
64,192,207311,1,8,0:0:0:0:
320,192,207311,1,2,0:0:0:0:
192,192,207545,1,0,0:0:0:70:VEC3 Snares 021.wav
448,192,207545,1,0,0:0:0:0:
320,192,207780,1,10,0:0:0:0:
448,192,207897,1,0,0:0:0:0:
192,192,208014,1,0,0:0:0:70:VEC3 Snares 021.wav
64,192,208131,1,0,0:0:0:70:VEC3 Snares 021.wav
320,192,208249,1,2,0:0:0:0:
448,192,208249,1,8,0:0:0:0:
192,192,208483,1,0,0:0:0:0:
320,192,208600,1,0,0:0:0:70:VEC3 Snares 021.wav
64,192,208717,1,2,0:0:0:0:
448,192,208717,1,8,0:0:0:0:
192,192,208952,1,0,0:0:0:70:VEC3 Snares 021.wav
320,192,208952,1,0,0:0:0:0:
64,192,209186,1,2,0:0:0:0:
448,192,209186,1,8,0:0:0:0:
64,192,209420,1,0,0:0:0:70:VEC3 Snares 021.wav
192,192,209420,1,0,0:0:0:0:
192,192,209655,1,2,0:0:0:0:
320,192,209655,1,8,0:0:0:0:
320,192,209889,1,0,0:0:0:70:VEC3 Snares 021.wav
448,192,209889,1,0,0:0:0:0:
64,192,210124,1,8,0:0:0:0:
192,192,210124,1,2,0:0:0:0:
320,192,210358,1,0,0:0:0:0:
192,192,210475,1,0,0:0:0:70:VEC3 Snares 021.wav
64,192,210592,1,8,0:0:0:0:
448,192,210592,1,2,0:0:0:0:
192,192,210827,1,0,0:0:0:70:VEC3 Snares 021.wav
320,192,210827,1,0,0:0:0:0:
320,192,211061,1,8,0:0:0:0:
448,192,211061,1,2,0:0:0:0:
64,192,211295,1,0,0:0:0:70:VEC3 Snares 021.wav
192,192,211295,1,0,0:0:0:0:
448,192,211530,1,10,0:0:0:0:
192,192,211647,1,0,0:0:0:0:
448,192,211764,1,0,0:0:0:70:VEC3 Snares 021.wav
320,192,211881,1,0,0:0:0:70:VEC3 Snares 021.wav
64,192,211999,1,2,0:0:0:0:
192,192,211999,1,8,0:0:0:0:
320,192,212233,1,0,0:0:0:0:
192,192,212350,1,0,0:0:0:70:VEC3 Snares 021.wav
64,192,212467,1,2,0:0:0:0:
448,192,212467,1,8,0:0:0:0:
192,192,212702,1,0,0:0:0:70:VEC3 Snares 021.wav
320,192,212702,1,0,0:0:0:0:
64,192,212936,1,2,0:0:0:0:
448,192,212936,1,8,0:0:0:0:
320,192,213170,1,0,0:0:0:70:VEC3 Snares 021.wav
448,192,213170,1,0,0:0:0:0:
64,192,213405,1,2,0:0:0:0:
192,192,213405,1,8,0:0:0:0:
320,192,213639,1,0,0:0:0:70:VEC3 Snares 021.wav
448,192,213639,1,0,0:0:0:0:
192,192,213756,1,0,0:0:0:70:VEC3 Snares 021.wav
64,192,213874,1,8,0:0:0:0:
448,192,213874,1,0,0:0:0:70:VEC3 Snares 021.wav
192,192,214108,1,0,0:0:0:0:
320,192,214108,1,0,0:0:0:0:
64,192,214342,1,8,0:0:0:0:
448,192,214342,1,0,0:0:0:70:VEC3 Snares 021.wav
192,192,214577,1,0,0:0:0:70:VEC3 Snares 021.wav
320,192,214577,1,0,0:0:0:0:
64,192,214811,1,8,0:0:0:0:
192,192,214811,1,0,0:0:0:70:VEC3 Snares 021.wav
320,192,215045,1,0,0:0:0:70:VEC3 Snares 021.wav
448,192,215045,1,0,0:0:0:0:
64,192,215280,1,8,0:0:0:0:
320,192,215397,1,0,0:0:0:70:VEC3 Snares 021.wav
64,192,215514,1,0,0:0:0:70:VEC3 Snares 021.wav
192,192,215631,1,0,0:0:0:70:VEC3 Snares 021.wav
320,192,215749,1,8,0:0:0:0:
448,192,215749,1,0,0:0:0:70:VEC3 Snares 021.wav
448,192,216100,1,0,0:0:0:70:VEC3 Snares 021.wav
64,192,216217,1,8,0:0:0:0:
192,192,216217,1,0,0:0:0:70:VEC3 Snares 021.wav
320,192,216452,1,0,0:0:0:70:VEC3 Snares 021.wav
192,192,216686,1,8,0:0:0:0:
448,192,216686,1,0,0:0:0:70:VEC3 Snares 021.wav
320,192,216920,1,0,0:0:0:70:VEC3 Snares 021.wav
192,192,217038,1,0,0:0:0:70:VEC3 Snares 021.wav
64,192,217155,1,0,0:0:0:100:LR3_Snare DSW.wav
448,192,217155,1,0,0:0:0:0:
192,192,217389,1,0,0:0:0:100:LR3_Snare DSW.wav
320,192,217624,1,2,0:0:0:0:
448,192,217624,1,4,0:0:0:0:
