osu file format v14

[General]
AudioFilename: audio.mp3
AudioLeadIn: 0
PreviewTime: 66185
Countdown: 1
SampleSet: None
StackLeniency: 0.7
Mode: 0
LetterboxInBreaks: 0
WidescreenStoryboard: 0

[Editor]
DistanceSpacing: 1.8
BeatDivisor: 4
GridSize: 8
TimelineZoom: 1

[Metadata]
Title:Crazy Train
TitleUnicode:Crazy Train
Artist:Tobax
ArtistUnicode:Tobax
Creator:tiretardlisi
Version:Insane
Source:
Tags:tobax crazytrain dnb neuropunk
BeatmapID:4537597
BeatmapSetID:2153521

[Difficulty]
HPDrainRate:5
CircleSize:5
OverallDifficulty:7
ApproachRate:9
SliderMultiplier:1.99999990463257
SliderTickRate:1

[Events]
//Background and Video events
0,0,"149761381_3274416505993714_2130013689599696321_n.jpg",0,0
//Break Periods
//Storyboard Layer 0 (Background)
//Storyboard Layer 1 (Fail)
//Storyboard Layer 2 (Pass)
//Storyboard Layer 3 (Foreground)
//Storyboard Layer 4 (Overlay)
//Storyboard Sound Samples

[TimingPoints]
1268.86553757681,690.60773480663,4,1,0,100,1,0

[HitObjects]
256,192,38561,5,0,0:0:0:0:
256,112,39942,1,0,0:0:0:0:
256,271,40633,1,0,0:0:0:0:
256,111,41324,1,0,0:0:0:0:
255,112,42705,5,0,0:0:0:0:
306,122,42877,1,0,0:0:0:0:
344,135,43050,1,0,0:0:0:0:
316,172,43395,1,0,0:0:0:0:
269,170,43568,1,0,0:0:0:0:
226,152,43741,1,0,0:0:0:0:
416,69,44086,6,0,L|414:279,1,199.999990463257
255,192,46158,1,0,0:0:0:0:
93,69,46848,2,0,B|91:280|91:279,1,199.999990463257
94,280,48230,2,0,L|94:67,1,199.999990463257
255,191,49611,1,0,0:0:0:0:
387,85,50992,5,0,0:0:0:0:
386,276,51683,1,0,0:0:0:0:
142,272,52373,1,0,0:0:0:0:
180,74,53755,5,0,0:0:0:0:
207,110,53927,1,0,0:0:0:0:
236,145,54100,1,0,0:0:0:0:
308,73,54445,1,0,0:0:0:0:
281,109,54618,1,0,0:0:0:0:
249,142,54790,1,0,0:0:0:0:
256,192,55136,12,0,59279,0:0:0:0:
255,191,60661,5,0,0:0:0:0:
386,121,62042,1,0,0:0:0:0:
389,274,63423,1,0,0:0:0:0:
158,279,64114,1,0,0:0:0:0:
161,113,64804,1,0,0:0:0:0:
198,99,65495,1,0,0:0:0:0:
233,69,65668,1,0,0:0:0:0:
273,39,65840,1,0,0:0:0:0:
320,40,66013,1,0,0:0:0:0:
373,162,66185,5,0,0:0:0:0:
292,241,66358,1,0,0:0:0:0:
211,162,66531,1,0,0:0:0:0:
201,273,66876,2,8,B|154:275|154:275|132:248,1,49.9999976158143
255,145,67567,5,0,0:0:0:0:
407,142,67739,1,0,0:0:0:0:
335,251,67912,1,8,0:0:0:0:
428,240,68257,2,8,B|417:285|417:285|372:298,1,49.9999976158143
394,291,68775,1,0,0:0:0:0:
301,220,68948,5,0,0:0:0:0:
208,145,69121,1,0,0:0:0:0:
342,94,69293,1,0,0:0:0:0:
417,152,69639,2,8,B|438:181|438:181|411:206,1,49.9999976158143
298,248,70329,5,0,0:0:0:0:
332,109,70502,1,0,0:0:0:0:
160,106,70674,1,0,0:0:0:0:
91,165,71020,2,8,L|125:205,1,49.9999976158143
187,260,71710,5,0,0:0:0:0:
349,227,71883,1,0,0:0:0:0:
189,162,72056,1,0,0:0:0:0:
332,129,72228,1,0,0:0:0:0:
184,75,72401,1,0,0:0:0:0:
318,37,72574,1,0,0:0:0:0:
189,162,72746,1,0,0:0:0:0:
332,129,72919,1,0,0:0:0:0:
276,247,73092,5,0,0:0:0:0:
352,165,73264,1,0,0:0:0:0:
432,246,73437,1,0,0:0:0:0:
433,96,73610,1,0,0:0:0:0:
314,95,73782,1,0,0:0:0:0:
198,92,73955,1,0,0:0:0:0:
197,188,74127,1,0,0:0:0:0:
311,190,74300,1,0,0:0:0:0:
312,91,74473,5,0,0:0:0:0:
412,92,74645,1,0,0:0:0:0:
408,175,74818,1,0,0:0:0:0:
311,177,74991,1,0,0:0:0:0:
361,269,75163,1,0,0:0:0:0:
224,270,75336,1,0,0:0:0:0:
222,130,75509,1,0,0:0:0:0:
81,124,75681,1,0,0:0:0:0:
156,45,75854,5,0,0:0:0:0:
266,46,76027,1,0,0:0:0:0:
362,102,76199,1,0,0:0:0:0:
419,195,76372,1,0,0:0:0:0:
428,290,76545,1,0,0:0:0:0:
311,292,76717,1,0,0:0:0:0:
199,290,76890,1,0,0:0:0:0:
96,289,77063,1,0,0:0:0:0:
130,177,77235,5,0,0:0:0:0:
248,95,77408,1,0,0:0:0:0:
349,169,77581,1,0,0:0:0:0:
331,250,77753,2,8,L|267:250,1,49.9999976158143
114,216,78616,5,0,0:0:0:0:
208,133,78789,1,0,0:0:0:0:
319,122,78962,1,0,0:0:0:0:
374,190,79134,2,8,L|339:235,1,49.9999976158143
234,230,79998,5,0,0:0:0:0:
91,205,80170,1,0,0:0:0:0:
124,73,80343,1,0,0:0:0:0:
216,79,80516,2,8,L|239:132,1,49.9999976158143
199,137,81379,5,0,0:0:0:0:
288,190,81552,1,0,0:0:0:0:
376,229,81724,1,0,0:0:0:0:
319,283,81897,2,8,L|244:283,1,49.9999976158143
168,266,82760,5,0,0:0:0:0:
150,162,82933,1,0,0:0:0:0:
228,88,83105,1,0,0:0:0:0:
322,87,83278,1,0,0:0:0:0:
322,87,83451,5,0,0:0:0:0:
228,88,83623,1,0,0:0:0:0:
150,162,83796,1,0,0:0:0:0:
167,265,83969,1,0,0:0:0:0:
301,195,84141,5,0,0:0:0:0:
262,127,84314,1,0,0:0:0:0:
188,112,84487,1,0,0:0:0:0:
134,172,84659,1,0,0:0:0:0:
187,229,84832,1,0,0:0:0:0:
245,169,85005,1,0,0:0:0:0:
247,81,85523,5,0,0:0:0:0:
321,112,85695,1,0,0:0:0:0:
378,168,85868,1,0,0:0:0:0:
346,237,86040,1,0,0:0:0:0:
286,289,86213,1,0,0:0:0:0:
206,288,86386,1,0,0:0:0:0:
206,207,86558,1,0,0:0:0:0:
264,137,86731,1,0,0:0:0:0:
347,159,86904,5,0,0:0:0:0:
311,239,87076,1,0,0:0:0:0:
254,305,87249,1,0,0:0:0:0:
187,238,87422,1,0,0:0:0:0:
153,159,87594,1,0,0:0:0:0:
255,190,88285,5,0,0:0:0:0:
327,124,88458,1,0,0:0:0:0:
414,159,88630,1,0,0:0:0:0:
369,242,88803,2,8,L|308:263,1,49.9999976158143
268,255,89666,5,0,0:0:0:0:
197,195,89839,1,0,0:0:0:0:
272,121,90011,1,0,0:0:0:0:
347,186,90184,2,8,L|388:223,1,49.9999976158143
393,280,91047,5,0,0:0:0:0:
287,248,91220,1,0,0:0:0:0:
276,147,91393,1,0,0:0:0:0:
355,116,91565,2,8,L|411:163,1,49.9999976158143
425,178,92429,5,0,0:0:0:0:
371,243,92601,1,0,0:0:0:0:
294,201,92774,1,0,0:0:0:0:
321,116,92947,2,8,L|378:109,4,49.9999976158143
253,126,93810,5,0,0:0:0:0:
309,182,93982,1,0,0:0:0:0:
380,218,94155,1,0,0:0:0:0:
456,232,94328,1,0,0:0:0:0:
387,79,94500,1,0,0:0:0:0:
296,310,94673,1,0,0:0:0:0:
206,86,94846,1,0,0:0:0:0:
249,189,95018,1,0,0:0:0:0:
344,162,95191,5,0,0:0:0:0:
287,105,95364,1,0,0:0:0:0:
206,86,95536,1,0,0:0:0:0:
136,137,95709,1,0,0:0:0:0:
180,208,95882,1,0,0:0:0:0:
242,263,96054,1,0,0:0:0:0:
324,254,96227,1,0,0:0:0:0:
375,193,96400,1,0,0:0:0:0:
258,171,96572,5,0,0:0:0:0:
184,96,96745,1,0,0:0:0:0:
162,243,96918,1,0,0:0:0:0:
275,248,97090,1,0,0:0:0:0:
362,247,97263,1,0,0:0:0:0:
397,171,97435,1,0,0:0:0:0:
401,92,97608,1,0,0:0:0:0:
317,51,97781,1,0,0:0:0:0:
238,117,97953,5,0,0:0:0:0:
289,182,98126,1,0,0:0:0:0:
352,237,98299,1,0,0:0:0:0:
406,179,98471,1,0,0:0:0:0:
349,126,98644,1,0,0:0:0:0:
298,70,98817,1,0,0:0:0:0:
226,132,99335,5,0,0:0:0:0:
315,164,99507,1,0,0:0:0:0:
373,232,99680,1,0,0:0:0:0:
293,296,99853,2,8,L|233:295,1,49.9999976158143
204,283,100716,5,0,0:0:0:0:
136,211,100889,1,0,0:0:0:0:
145,115,101061,1,0,0:0:0:0:
222,101,101234,2,8,L|292:101,1,49.9999976158143
316,118,102097,5,0,0:0:0:0:
254,183,102270,1,0,0:0:0:0:
161,213,102442,1,0,0:0:0:0:
109,142,102615,2,8,L|127:82,1,49.9999976158143
173,75,103478,5,0,0:0:0:0:
250,113,103651,1,0,0:0:0:0:
311,169,103824,1,0,0:0:0:0:
299,243,103996,2,8,L|241:263,1,49.9999976158143
255,190,104860,5,4,0:0:0:0:
