osu file format v14

[General]
AudioFilename: audio.mp3
AudioLeadIn: 0
PreviewTime: 92513
Countdown: 0
SampleSet: Soft
StackLeniency: 0.4
Mode: 0
LetterboxInBreaks: 0
WidescreenStoryboard: 0

[Editor]
Bookmarks: 14560,33760,43360,52960,62560,72160,81760,86560,92560,116560,119560,131560,143560,166070,175670,185270,190070,228470,247670,266870,271670,276470,295670,314870
DistanceSpacing: 0.5
BeatDivisor: 4
GridSize: 32
TimelineZoom: 6.500001

[Metadata]
Title:ADHD
TitleUnicode:ADHD
Artist:ToYou & DJ Raisei
ArtistUnicode:ToYou & DJ Raisei
Creator:Down
Version:KCSC GRAND FINAL
Source:
Tags:electronic instrumental korean community suiji cup kcsc gf tb grand finals tiebreaker featured artist fa
BeatmapID:4033196
BeatmapSetID:1948527

[Difficulty]
HPDrainRate:5
CircleSize:4
OverallDifficulty:9
ApproachRate:9.6
SliderMultiplier:2.4
SliderTickRate:1

[Events]
//Background and Video events
0,0,"bg.jpg",0,0
//Break Periods
2,185470,187161
//Storyboard Layer 0 (Background)
//Storyboard Layer 1 (Fail)
//Storyboard Layer 2 (Pass)
//Storyboard Layer 3 (Foreground)
//Storyboard Layer 4 (Overlay)
//Storyboard Sound Samples

[TimingPoints]
160,300,4,2,1,50,1,0
4960,-200,4,2,1,50,0,0
5710,-200,4,2,1,50,0,0
5860,-200,4,2,1,50,0,0
6310,-200,4,2,1,50,0,0
6460,-200,4,2,1,50,0,0
7510,-200,4,2,1,50,0,0
7660,-200,4,2,1,50,0,0
8110,-200,4,2,1,50,0,0
8260,-200,4,2,1,50,0,0
8710,-200,4,2,1,50,0,0
8860,-200,4,2,1,50,0,0
9610,-200,4,2,1,50,0,0
9760,-200,4,2,1,50,0,0
10510,-200,4,2,1,50,0,0
10660,-200,4,2,1,50,0,0
11110,-200,4,2,1,50,0,0
11260,-200,4,2,1,50,0,0
12310,-200,4,2,1,50,0,0
12460,-200,4,2,1,50,0,0
12910,-200,4,2,1,50,0,0
13060,-200,4,2,1,50,0,0
13510,-200,4,2,1,50,0,0
13660,-200,4,2,1,50,0,0
14560,-200,4,2,1,60,0,0
24310,-200,4,2,1,70,0,0
24460,-200,4,2,1,70,0,0
28960,-200,4,2,1,65,0,0
32560,-100,4,2,1,80,0,0
33010,-100,4,2,1,80,0,0
33160,-100,4,2,1,80,0,0
33760,-47.6190476190476,4,2,1,80,0,0
33984,-47.6190476190476,4,2,1,80,0,0
34060,-66.6666666666667,4,2,1,80,0,0
34210,-47.6190476190476,4,2,1,80,0,0
34434,-47.6190476190476,4,2,1,80,0,0
34510,-47.6190476190476,4,2,1,80,0,0
34960,-66.6666666666667,4,2,1,80,0,0
35110,-181.818181818181,4,2,0,80,0,0
35160,-181.818181818181,4,2,0,5,0,0
35210,-133.333333333333,4,2,0,80,0,0
35260,-133.333333333333,4,2,0,5,0,0
35310,-117.647058823529,4,2,0,80,0,0
35360,-117.647058823529,4,2,0,5,0,0
35410,-95.2380952380951,4,2,0,80,0,0
35460,-95.2380952380951,4,2,0,5,0,0
35510,-80,4,2,0,80,0,0
35560,-80,4,2,0,5,0,0
35610,-68.9655172413793,4,2,0,80,0,0
35660,-68.9655172413793,4,2,0,5,0,0
35710,-60.6060606060606,4,2,0,80,0,0
35760,-60.6060606060606,4,2,0,5,0,0
35860,-100,4,2,1,80,0,0
36160,-47.6190476190476,4,2,1,80,0,0
36384,-47.6190476190476,4,2,1,80,0,0
36460,-66.6666666666667,4,2,1,80,0,0
36610,-47.6190476190476,4,2,1,80,0,0
36834,-47.6190476190476,4,2,1,80,0,0
36910,-47.6190476190476,4,2,1,80,0,0
37360,-66.6666666666667,4,2,1,80,0,0
37885,-66.6666666666667,4,2,1,80,0,0
37960,-66.6666666666667,4,2,1,80,0,0
38110,-83.3333333333333,4,2,1,80,0,0
38260,-111.111111111111,4,2,1,80,0,0
38410,-166.666666666667,4,2,1,80,0,0
38560,-47.6190476190476,4,2,1,80,0,0
38784,-47.6190476190476,4,2,1,80,0,0
38860,-66.6666666666667,4,2,1,80,0,0
39010,-47.6190476190476,4,2,1,80,0,0
39234,-47.6190476190476,4,2,1,80,0,0
39310,-47.6190476190476,4,2,1,80,0,0
39760,-100,4,2,0,80,0,0
39860,-66.6666666666667,4,2,0,80,0,0
39960,-50,4,2,0,80,0,0
40160,-66.6666666666667,4,2,1,80,0,0
40310,-66.6666666666667,4,2,1,80,0,0
40360,-66.6666666666667,4,2,1,80,0,0
40810,-133.333333333333,4,2,1,80,0,0
40960,-47.6190476190476,4,2,1,80,0,0
41184,-47.6190476190476,4,2,1,80,0,0
41260,-66.6666666666667,4,2,1,80,0,0
41410,-47.6190476190476,4,2,1,80,0,0
41634,-47.6190476190476,4,2,1,80,0,0
41710,-47.6190476190476,4,2,1,80,0,0
43360,-83.3333333333333,4,2,1,65,0,0
52960,-83.3333333333333,4,2,1,70,0,0
61510,-133.333333333333,4,2,1,70,0,0
61960,-100,4,2,1,70,0,0
62560,-66.6666666666667,4,2,1,70,0,0
64660,-100,4,2,1,70,0,0
64960,-66.6666666666667,4,2,1,70,0,0
67060,-100,4,2,1,70,0,0
67360,-66.6666666666667,4,2,1,70,0,0
69460,-100,4,2,1,70,0,0
69910,-83.3333333333333,4,2,1,70,0,0
70622,-83.3333333333333,4,2,1,5,0,0
70660,-83.3333333333333,4,2,1,70,0,0
72160,-55.5555555555556,4,2,2,70,0,0
74260,-100,4,2,2,70,0,0
74560,-55.5555555555556,4,2,2,70,0,0
76660,-100,4,2,2,70,0,0
76960,-100,4,2,1,70,0,0
80710,-133.333333333333,4,2,1,70,0,0
81160,-100,4,2,1,70,0,0
81760,-100,4,2,1,60,0,0
85660,-200,4,2,1,70,0,0
86560,375,4,2,1,70,1,0
90310,-200,4,2,1,70,0,0
90356,-200,4,2,1,40,0,0
90403,-200,4,2,1,70,0,0
90450,-200,4,2,1,40,0,0
90497,-200,4,2,1,70,0,0
90544,-200,4,2,1,40,0,0
90591,-200,4,2,1,70,0,0
90638,-200,4,2,1,40,0,0
90685,-200,4,2,1,70,0,0
90731,-200,4,2,1,40,0,0
90778,-200,4,2,1,70,0,0
90825,-200,4,2,1,40,0,0
90872,-200,4,2,1,70,0,0
90919,-200,4,2,1,40,0,0
90966,-200,4,2,1,70,0,0
91013,-200,4,2,1,40,0,0
91060,-200,4,2,1,70,0,0
92560,-35.7142857142857,4,2,1,80,0,1
93028,-333.333333333333,4,2,1,80,0,1
93310,-50,4,2,1,80,0,1
94153,-100,4,2,1,80,0,1
94435,-50,4,2,1,80,0,1
94716,-66.6666666666667,4,2,1,80,0,1
94903,-250,4,2,1,80,0,1
94997,-166.666666666667,4,2,1,80,0,1
95091,-125,4,2,1,80,0,1
95560,-35.7142857142857,4,2,1,80,0,1
96028,-35.7142857142857,4,2,1,80,0,1
96122,-100,4,2,1,80,0,1
96310,-50,4,2,1,80,0,1
96497,-50,4,2,1,80,0,1
96591,-50,4,2,1,80,0,1
96778,-50,4,2,1,80,0,1
96872,-50,4,2,1,80,0,1
97387,-50,4,2,1,80,0,1
97435,-50,4,2,1,80,0,1
97528,-100,4,2,1,80,0,1
97810,-50,4,2,1,80,0,1
98278,-100,4,2,1,80,0,1
98560,-35.7142857142857,4,2,1,80,0,1
99028,-333.333333333333,4,2,1,80,0,1
99310,-50,4,2,1,80,0,1
99778,-50,4,2,1,80,0,1
99872,-66.6666666666667,4,2,1,80,0,1
100153,-50,4,2,1,80,0,1
100340,-50,4,2,1,80,0,1
100435,-50,4,2,1,80,0,1
100716,-66.6666666666667,4,2,1,80,0,1
101278,-100,4,2,1,80,0,1
101372,-133.333333333333,4,2,1,80,0,1
101466,-200,4,2,1,80,0,1
101653,-100,4,2,1,80,0,1
101935,-50,4,2,1,80,0,1
102216,-66.6666666666667,4,2,1,80,0,1
102778,-50,4,2,1,80,0,1
102965,-50,4,2,1,80,0,1
103060,-50,4,2,1,80,0,1
103622,-50,4,2,1,80,0,1
103716,-50,4,2,1,80,0,1
103903,-50,4,2,1,80,0,1
103997,-50,4,2,1,80,0,1
104278,-66.6666666666667,4,2,1,80,0,1
104465,-66.6666666666667,4,2,1,80,0,1
104560,-35.7142857142857,4,2,1,80,0,1
105028,-500,4,2,1,80,0,1
105215,-500,4,2,1,80,0,1
105310,-50,4,2,1,80,0,1
106247,-66.6666666666667,4,2,1,80,0,1
106341,-100,4,2,1,80,0,1
106528,-66.6666666666667,4,2,1,80,0,1
106997,-133.333333333333,4,2,1,80,0,1
107091,-100,4,2,1,80,0,1
107560,-35.7142857142857,4,2,1,80,0,1
108028,-35.7142857142857,4,2,1,80,0,1
108122,-100,4,2,1,80,0,1
108310,-50,4,2,1,80,0,1
108497,-50,4,2,1,80,0,1
108591,-50,4,2,1,80,0,1
108778,-50,4,2,1,80,0,1
108872,-50,4,2,1,80,0,1
110091,-66.6666666666667,4,2,1,80,0,1
110278,-100,4,2,1,80,0,1
110560,-58.8235294117647,4,2,1,80,0,1
110935,-66.6666666666667,4,2,1,80,0,1
111122,-66.6666666666667,4,2,1,80,0,1
111216,-66.6666666666667,4,2,1,80,0,1
111310,-50,4,2,1,80,0,1
112060,-66.6666666666667,4,2,1,80,0,1
112153,-100,4,2,1,80,0,1
112247,-133.333333333333,4,2,1,80,0,1
112435,-50,4,2,1,80,0,1
112622,-50,4,2,1,80,0,1
112716,-50,4,2,1,80,0,1
114685,-66.6666666666667,4,2,1,80,0,1
116560,-133.333333333333,4,2,1,70,0,0
119185,-133.333333333333,4,2,1,5,0,0
119560,375,4,2,1,100,1,0
119560,-66.6666666666667,4,2,1,70,0,0
122185,-133.333333333333,4,2,1,70,0,0
122560,-66.6666666666667,4,2,1,70,0,0
125185,-133.333333333333,4,2,1,70,0,0
125560,-66.6666666666667,4,2,1,70,0,0
131560,-66.6666666666667,4,2,1,60,0,0
134185,-100,4,2,1,60,0,0
142247,-100,4,2,1,60,0,0
142435,-100,4,2,1,60,0,0
142622,-100,4,2,1,60,0,0
142810,-100,4,2,1,60,0,0
143560,-133.333333333333,4,2,1,60,0,0
154810,-100,4,2,1,60,0,0
155560,363.636363636364,4,2,1,70,1,0
157014,352.941176470589,4,2,1,70,1,0
158425,342.857142857144,4,2,1,70,1,0
159796,333.333333333334,4,2,1,70,1,0
161129,320.000000000001,4,2,1,70,1,0
162409,312.5,4,2,1,70,1,0
163659,303.030303030303,4,2,1,70,1,0
164870,300,4,2,1,70,1,0
166070,300,4,2,1,100,1,0
166070,-66.6666666666667,4,2,1,80,0,1
166295,-66.6666666666667,4,2,1,80,0,1
166370,-66.6666666666667,4,2,1,80,0,1
166595,-66.6666666666667,4,2,1,80,0,1
166670,-66.6666666666667,4,2,1,80,0,1
168320,-100,4,2,1,80,0,1
168470,-66.6666666666667,4,2,1,80,0,1
168995,-66.6666666666667,4,2,1,80,0,1
169070,-66.6666666666667,4,2,1,80,0,1
170720,-100,4,2,1,80,0,1
170870,-66.6666666666667,4,2,1,80,0,1
171095,-66.6666666666667,4,2,1,80,0,1
171170,-66.6666666666667,4,2,1,80,0,1
173870,-100,4,2,1,80,0,1
174095,-100,4,2,1,80,0,1
174170,-66.6666666666667,4,2,1,80,0,1
174395,-66.6666666666667,4,2,1,80,0,1
174470,-66.6666666666667,4,2,1,80,0,1
175670,-66.6666666666667,4,2,1,70,0,0
178070,-83.3333333333333,4,2,1,70,0,0
180470,-100,4,2,1,70,0,0
184070,-50,4,2,1,60,0,0
184670,-66.6666666666667,4,2,1,50,0,0
184970,-100,4,2,1,40,0,0
190070,-66.6666666666667,4,2,1,85,0,1
198395,-66.6666666666667,4,2,1,85,0,1
198470,-66.6666666666667,4,2,1,85,0,1
198770,-100,4,2,1,85,0,1
199670,-200,4,2,1,85,0,1
199895,-200,4,2,1,85,0,1
199970,-66.6666666666667,4,2,1,85,0,1
207995,-66.6666666666667,4,2,1,85,0,1
208070,-66.6666666666667,4,2,1,85,0,1
208370,-100,4,2,1,85,0,1
209270,-66.6666666666667,4,2,1,85,0,1
217670,-100,4,2,1,85,0,1
218870,-200,4,2,1,85,0,1
219095,-200,4,2,1,85,0,1
219170,-66.6666666666667,4,2,1,85,0,1
227270,-100,4,2,1,85,0,1
228470,-83.3333333333333,4,2,1,70,0,0
238070,-200,4,2,1,70,0,0
238295,-200,4,2,1,70,0,0
238370,-83.3333333333333,4,2,1,70,0,0
247670,-100,4,2,1,60,0,0
266870,-47.6190476190476,4,2,1,80,0,0
267620,-100,4,2,1,80,0,0
267770,-47.6190476190476,4,2,1,80,0,0
268520,-100,4,2,1,80,0,0
268970,-66.6666666666667,4,2,1,80,0,0
269270,-47.6190476190476,4,2,1,80,0,0
269494,-47.6190476190476,4,2,1,80,0,0
269570,-66.6666666666667,4,2,1,80,0,0
269720,-47.6190476190476,4,2,1,80,0,0
269944,-47.6190476190476,4,2,1,80,0,0
270020,-66.6666666666667,4,2,1,80,0,0
270170,-47.6190476190476,4,2,1,80,0,0
270394,-47.6190476190476,4,2,1,80,0,0
270470,-66.6666666666667,4,2,1,80,0,0
270620,-47.6190476190476,4,2,1,80,0,0
270770,-200,4,2,1,80,0,0
271670,-200,4,2,1,70,0,0
274670,-200,4,2,1,70,0,0
274707,-200,4,2,1,40,0,0
274745,-200,4,2,1,70,0,0
274782,-200,4,2,1,40,0,0
274820,-200,4,2,1,70,0,0
274857,-200,4,2,1,40,0,0
274895,-200,4,2,1,70,0,0
274932,-200,4,2,1,40,0,0
274970,-200,4,2,1,70,0,0
275007,-200,4,2,1,40,0,0
275045,-200,4,2,1,70,0,0
275082,-200,4,2,1,40,0,0
275120,-200,4,2,1,70,0,0
275157,-200,4,2,1,40,0,0
275195,-200,4,2,1,70,0,0
275232,-200,4,2,1,40,0,0
275270,-200,4,2,1,70,0,0
276470,-66.6666666666667,4,2,1,85,0,1
276695,-66.6666666666667,4,2,1,85,0,1
276770,-66.6666666666667,4,2,1,85,0,1
276995,-66.6666666666667,4,2,1,85,0,1
277070,-66.6666666666667,4,2,1,85,0,1
278795,-66.6666666666667,4,2,1,85,0,1
278870,-66.6666666666667,4,2,1,85,0,1
281120,-100,4,2,1,85,0,1
281270,-66.6666666666667,4,2,1,85,0,1
281495,-66.6666666666667,4,2,1,85,0,1
281570,-66.6666666666667,4,2,1,85,0,1
283520,-100,4,2,1,85,0,1
283670,-66.6666666666667,4,2,1,85,0,1
284495,-66.6666666666667,4,2,1,85,0,1
284570,-66.6666666666667,4,2,1,85,0,1
284795,-66.6666666666667,4,2,1,85,0,1
284870,-66.6666666666667,4,2,1,85,0,1
285920,-100,4,2,1,85,0,1
286070,-66.6666666666667,4,2,1,85,0,1
286257,-66.6666666666667,4,2,1,85,0,1
286370,-66.6666666666667,4,2,1,85,0,1
286557,-66.6666666666667,4,2,1,85,0,1
286670,-66.6666666666667,4,2,1,85,0,1
287495,-66.6666666666667,4,2,1,85,0,1
287570,-66.6666666666667,4,2,1,85,0,1
291770,-133.333333333333,4,2,1,85,0,1
292070,-66.6666666666667,4,2,1,85,0,1
292970,-133.333333333333,4,2,1,85,0,1
294470,-50,4,2,1,50,0,1
295070,-66.6666666666667,4,2,1,40,0,1
295370,-100,4,2,1,30,0,1
295670,-66.6666666666667,4,2,1,35,0,0
305570,-500,4,2,1,35,0,0
314870,-400,4,2,1,5,0,0

[Colours]
Combo1 : 115,115,115
Combo2 : 26,71,255
Combo3 : 247,247,247

[HitObjects]
256,192,1360,12,2,4960,0:0:0:0:
120,323,5260,21,2,0:0:0:0:
120,323,5410,1,2,0:0:0:0:
169,257,5560,2,0,P|158:221|146:185,1,60,4|0,0:3|0:0,0:0:0:0:
237,208,5860,1,2,0:0:0:0:
105,45,6010,6,0,P|91:101|79:170,1,120,4|0,0:3|0:0,0:0:0:0:
275,139,6460,1,2,0:0:0:0:
275,139,6610,1,2,0:0:0:0:
323,202,6760,2,0,P|356:209|386:216,2,60,4|0|0,0:3|0:0|0:0,0:0:0:0:
176,316,7210,22,0,P|117:333|41:368,1,120,4|0,0:3|0:0,0:0:0:0:
335,359,7660,1,2,0:0:0:0:
335,359,7810,1,2,0:0:0:0:
245,364,7960,2,0,P|257:329|275:282,1,60,4|0,0:3|0:0,0:0:0:0:
162,184,8260,1,2,0:0:0:0:
356,118,8410,6,0,P|420:104|491:86,1,120,4|0,0:3|0:0,0:0:0:0:
308,186,8860,1,2,0:0:0:0:
308,186,9010,1,2,0:0:0:0:
186,106,9160,1,2,0:0:0:0:
186,106,9310,1,2,0:0:0:0:
63,150,9460,2,0,P|33:142|-10:131,1,60,4|0,0:3|0:0,0:0:0:0:
139,169,9760,21,2,0:0:0:0:
394,358,10060,1,2,0:0:0:0:
394,358,10210,1,2,0:0:0:0:
470,327,10360,2,0,P|483:290|497:261,1,60,4|0,0:3|0:0,0:0:0:0:
401,270,10660,1,2,0:0:0:0:
467,102,10810,6,0,P|415:124|341:148,1,120,4|0,0:3|0:0,0:0:0:0:
323,295,11260,1,2,0:0:0:0:
323,295,11410,1,2,0:0:0:0:
246,260,11560,2,0,P|239:235|222:196,2,60,4|0|0,0:3|0:0|0:0,0:0:0:0:
93,377,12010,22,0,P|45:327|-7:289,1,120,4|0,0:3|0:0,0:0:0:0:
162,267,12460,1,2,0:0:0:0:
162,267,12610,1,2,0:0:0:0:
227,324,12760,2,0,P|242:286|259:249,1,60,4|0,0:3|0:0,0:0:0:0:
408,207,13060,1,2,0:0:0:0:
262,98,13210,6,0,P|208:72|150:25,1,120,4|0,0:3|0:0,0:0:0:0:
409,30,13660,1,2,0:0:0:0:
409,30,13810,1,2,0:0:0:0:
324,42,13960,21,2,0:0:0:0:
377,103,14110,1,2,0:0:0:0:
371,183,14260,1,2,0:0:0:0:
310,235,14410,1,2,0:0:0:0:
230,228,14560,5,2,0:0:0:0:
219,241,14860,1,2,0:0:0:0:
280,96,15010,1,2,0:0:0:0:
141,109,15160,21,2,0:0:0:0:
69,77,15310,2,2,P|61:49|38:8,1,60,4|2,0:3|0:0,0:0:0:0:
225,2,15610,5,2,0:0:0:0:
238,13,15910,1,2,0:0:0:0:
373,44,16060,1,2,0:0:0:0:
212,143,16210,1,2,0:0:0:0:
286,289,16360,21,2,0:0:0:0:
216,324,16510,2,2,P|181:307|153:299,1,60,4|2,0:3|0:0,0:0:0:0:
382,376,16810,5,2,0:0:0:0:
394,365,17110,1,2,0:0:0:0:
495,208,17260,1,2,0:0:0:0:
327,294,17410,1,2,0:0:0:0:
512,363,17560,21,2,0:0:0:0:
452,311,17710,2,2,P|444:282|420:238,1,60,4|2,0:3|0:0,0:0:0:0:
322,68,18010,6,2,P|356:79|388:88,1,60,4|2,0:3|0:0,0:0:0:0:
356,222,18310,1,2,0:0:0:0:
440,35,18460,1,2,0:0:0:0:
321,148,18610,1,2,0:0:0:0:
431,255,18760,21,2,0:0:0:0:
404,331,18910,1,2,0:0:0:0:
332,366,19060,1,2,0:0:0:0:
256,339,19210,1,2,0:0:0:0:
222,266,19360,5,2,0:0:0:0:
208,277,19660,1,2,0:0:0:0:
146,105,19810,1,2,0:0:0:0:
291,191,19960,21,2,0:0:0:0:
363,159,20110,2,2,P|372:121|385:92,1,60,4|2,0:3|0:0,0:0:0:0:
191,44,20410,5,2,0:0:0:0:
181,32,20710,1,2,0:0:0:0:
148,222,20860,1,2,0:0:0:0:
51,100,21010,1,2,0:0:0:0:
227,241,21160,21,2,0:0:0:0:
172,295,21310,2,2,P|137:301|95:316,1,60,4|2,0:3|0:0,0:0:0:0:
342,354,21610,5,2,0:0:0:0:
329,347,21910,1,2,0:0:0:0:
465,228,22060,1,2,0:0:0:0:
326,122,22210,1,2,0:0:0:0:
512,166,22360,21,2,0:0:0:0:
481,97,22510,2,2,P|446:83|422:69,1,60,4|2,0:3|0:0,0:0:0:0:
281,189,22810,5,2,0:0:0:0:
273,200,23110,1,2,0:0:0:0:
193,215,23260,1,2,0:0:0:0:
127,170,23410,1,2,0:0:0:0:
112,91,23560,21,2,0:0:0:0:
188,117,23710,1,2,0:0:0:0:
223,189,23860,1,2,0:0:0:0:
196,265,24010,1,2,0:0:0:0:
123,299,24160,6,2,P|109:275|92:241,1,60,4|2,0:3|0:0,0:0:0:0:
292,371,24460,1,2,0:0:0:0:
424,252,24610,1,2,0:0:0:0:
233,316,24760,21,2,0:0:0:0:
278,251,24910,2,2,P|249:241|204:220,1,60,4|2,0:3|0:0,0:0:0:0:
426,380,25210,5,2,0:0:0:0:
438,372,25510,1,2,0:0:0:0:
512,189,25660,1,2,0:0:0:0:
414,52,25810,1,2,0:0:0:0:
301,201,25960,21,2,0:0:0:0:
226,178,26110,2,2,P|218:152|194:112,1,60,4|2,0:3|0:0,0:0:0:0:
352,263,26410,6,2,P|334:288|322:320,1,60,4|2,0:3|0:0,0:0:0:0:
505,212,26710,1,2,0:0:0:0:
337,131,26860,1,2,0:0:0:0:
407,324,27010,1,2,0:0:0:0:
259,364,27160,21,2,0:0:0:0:
189,332,27310,2,2,P|176:298|155:255,1,60,4|2,0:3|0:0,0:0:0:0:
33,269,27610,5,2,0:0:0:0:
43,257,27910,1,2,0:0:0:0:
191,201,28060,1,2,0:0:0:0:
339,145,28210,1,2,0:0:0:0:
163,126,28360,21,2,0:0:0:0:
117,21,28510,1,2,0:0:0:0:
193,50,28660,1,2,0:0:0:0:
88,96,28810,1,2,0:0:0:0:
191,201,28960,5,10,0:3:0:0:
120,369,29260,1,10,0:3:0:0:
191,201,29560,1,10,0:0:0:0:
262,33,29860,1,4,0:3:0:0:
262,33,30010,1,10,0:0:0:0:
191,201,30160,21,4,0:3:0:0:
78,145,30310,1,10,0:0:0:0:
304,257,30460,1,10,0:3:0:0:
78,145,30760,5,10,0:0:0:0:
304,257,31060,1,4,0:3:0:0:
304,257,31210,1,10,0:0:0:0:
191,201,31360,21,10,0:3:0:0:
262,33,31660,1,10,0:3:0:0:
191,201,31960,1,10,0:0:0:0:
120,369,32260,1,4,0:3:0:0:
120,369,32410,1,10,0:0:0:0:
191,201,32560,5,2,0:0:0:0:
279,263,32710,22,0,B|290:268|290:268|298:297,3,30,2|2|2|2,0:3|0:3|0:3|0:3,0:3:0:0:
268,270,32860,6,0,B|257:252|257:252|295:142,1,120,2|2,0:0|0:0,0:0:0:0:
444,16,33160,21,2,0:3:0:0:
458,18,33235,1,2,0:3:0:0:
472,24,33310,1,2,0:3:0:0:
483,34,33385,1,2,0:3:0:0:
490,47,33460,6,0,L|425:63,1,60,2|0,0:0|0:0,0:0:0:0:
289,158,33610,2,0,B|270:155|270:155|242:103,1,60,2|0,0:0|0:0,0:0:0:0:
324,90,33760,22,2,B|346:11|453:23|453:23|366:165|366:165|364:205|394:221,1,377.999988464356,2|0,3:1|0:1,0:1:0:0:
355,282,34060,6,0,B|369:296|369:296|444:273,1,90.0000034332277,2|0,0:0|0:0,0:0:0:0:
450,183,34210,22,2,B|348:121|275:123|275:123|265:145|265:145|170:191|170:191|191:111,1,377.999988464356,2|0,3:1|0:1,0:1:0:0:
222,63,34510,5,2,0:0:0:0:
222,63,34810,1,2,0:0:0:0:
109,98,34960,22,0,B|97:93|97:93|93:36,3,45.0000017166138,2|2|2|2,0:3|0:3|0:3|0:3,0:3:0:0:
123,103,35110,6,0,L|154:94,1,22.0000006713867,2|0,0:3|0:0,0:0:0:0:
113,131,35210,22,0,L|162:100,1,30.0000011444092,2|0,0:3|0:0,0:0:0:0:
128,160,35310,6,0,L|160:112,1,34.0000006484985,2|0,0:3|0:0,0:0:0:0:
159,180,35410,22,0,L|162:133,1,41.9999987182618,2|0,0:3|0:0,0:0:0:0:
200,191,35510,6,0,L|182:142,1,50,2|0,0:3|0:0,0:0:0:0:
249,184,35610,22,0,L|194:138,1,58.0000017700196,2|0,0:3|0:0,0:0:0:0:
291,157,35710,6,0,L|209:140,1,66.0000006294251,2|0,0:3|0:0,0:0:0:0:
305,82,35860,22,0,B|269:20|269:20|388:77,1,180,2|0,0:3|0:0,0:0:0:0:
440,88,36160,6,2,B|419:80|419:80|310:128|310:128|265:210|265:210|389:230|389:230|412:258,1,377.999988464356,2|0,3:1|0:1,0:1:0:0:
471,219,36460,22,0,B|482:203|482:203|397:139,1,90.0000034332277,2|0,0:0|0:0,0:0:0:0:
346,299,36610,6,2,B|336:321|336:321|101:370|101:370|71:362|71:362|123:278,1,377.999988464356,2|0,3:1|0:1,0:1:0:0:
192,273,36910,21,2,0:0:0:0:
79,223,37060,1,2,0:0:0:0:
192,273,37210,1,2,0:0:0:0:
136,92,37360,6,0,B|141:80|141:80|122:44,6,45.0000017166138,2|0|0|0|0|0|0,0:0|0:0|0:0|0:0|0:0|0:0|0:0,0:0:0:0:
130,103,37660,22,2,B|136:126|136:126|346:68|346:68|334:29,1,270.000010299683,0|0,0:0|0:0,0:1:0:0:
337,40,37960,6,0,L|431:66,1,90.0000034332277,2|0,0:0|0:0,0:0:0:0:
508,49,38110,22,0,L|488:118,1,71.9999978027344,2|0,0:0|0:0,0:0:0:0:
494,200,38260,6,0,L|412:177,1,53.9999983520508,2|0,0:0|0:0,0:0:0:0:
362,182,38410,22,0,L|378:126,1,35.9999989013672,2|0,0:0|0:0,0:0:0:0:
423,63,38560,6,2,B|412:130|326:144|281:168|311:25|208:21|131:151|179:215|298:178|312:121,1,377.999988464356,2|0,3:1|0:1,0:1:0:0:
349,47,38860,22,0,B|329:41|329:41|321:16|321:16|342:26|342:26|354:52,1,90.0000034332277,2|0,0:0|0:0,0:0:0:0:
442,185,39010,6,2,B|482:195|515:264|474:343|405:346|405:346|358:295|387:239|387:239|383:270|415:295,1,377.999988464356,2|0,3:1|0:1,0:1:0:0:
342,330,39310,21,2,0:0:0:0:
342,330,39610,1,2,0:0:0:0:
163,342,39760,6,0,B|151:359|151:359|158:328,1,40,2|0,1:3|0:0,0:0:0:0:
127,273,39860,22,0,B|98:269|98:269|153:258,1,60.0000022888184,2|0,0:3|0:0,0:0:0:0:
178,206,39960,6,0,B|154:171|154:171|200:209,1,80,2|0,0:3|0:0,0:0:0:0:
264,206,40060,21,2,0:0:0:0:
239,278,40160,2,0,B|264:294|264:294|336:248|409:241,1,180.000006866455,2|0,0:0|0:0,0:0:0:0:
416,223,40360,6,0,B|435:226|435:226|455:262,3,45.0000017166138,2|0|0|0,0:0|0:0|0:0|0:0,0:0:0:0:
395,220,40510,22,0,B|370:206|370:206|388:121,1,90.0000034332277,2|0,0:0|0:0,0:0:0:0:
460,156,40660,1,2,0:0:0:0:
333,82,40810,6,0,P|360:71|385:60,1,45.0000017166138,4|0,0:3|0:0,0:0:0:0:
460,156,40960,22,2,B|383:130|367:72|392:31|498:28|499:171|499:171|446:201|452:268,1,377.999988464356,2|0,3:1|0:1,0:1:0:0:
425,302,41260,6,0,B|397:299|397:299|356:205,1,90.0000034332277,2|0,0:0|0:0,0:0:0:0:
143,232,41410,22,2,B|125:220|125:197|125:197|84:248|127:309|217:302|278:174|156:128|156:128|187:99,1,377.999988464356,2|0,3:1|0:1,0:1:0:0:
257,105,41710,5,2,0:0:0:0:
257,105,42010,1,2,0:0:0:0:
124,51,42160,21,2,3:0:0:0:
256,192,42235,12,0,43060,0:0:0:0:
124,51,43360,6,0,B|126:70|126:70|256:104,1,143.999995605469,6|2,3:2|0:3,0:0:0:0:
258,182,43585,1,0,0:0:0:0:
258,182,43660,2,0,P|345:146|399:127,1,143.999995605469,10|2,3:2|0:3,0:0:0:0:
195,9,43960,21,2,3:0:0:0:
261,268,44110,1,2,0:3:0:0:
261,268,44185,1,0,0:0:0:0:
261,268,44260,2,0,L|86:219,1,143.999995605469,8|2,3:2|0:3,0:0:0:0:
379,359,44560,6,0,B|391:340|391:340|369:247|302:212,1,143.999995605469,0|2,3:0|0:3,0:0:0:0:
378,172,44785,1,0,0:0:0:0:
378,172,44860,2,0,P|428:125|394:53,1,143.999995605469,10|2,3:2|0:3,0:0:0:0:
221,52,45160,21,2,3:0:0:0:
96,136,45310,1,2,0:3:0:0:
96,136,45385,1,0,0:0:0:0:
96,136,45460,2,0,B|80:127|80:127|57:52,1,71.9999978027344,8|0,3:2|0:0,0:0:0:0:
185,126,45610,1,2,0:3:0:0:
185,126,45685,1,0,0:0:0:0:
185,126,45760,6,0,P|162:194|148:292,1,143.999995605469,0|0,3:0|0:3,0:0:0:0:
89,324,45985,1,0,0:0:0:0:
89,324,46060,2,0,P|158:301|271:284,1,143.999995605469,10|2,3:2|0:3,0:0:0:0:
74,240,46360,21,2,3:0:0:0:
299,351,46510,1,2,0:3:0:0:
299,351,46585,1,0,0:0:0:0:
299,351,46660,2,0,P|322:270|355:206,1,143.999995605469,8|2,3:2|0:3,0:0:0:0:
290,59,46960,5,0,3:0:0:0:
392,150,47110,1,2,0:3:0:0:
392,150,47185,1,0,0:0:0:0:
392,150,47260,2,0,P|354:138|306:126,1,71.9999978027344,10|0,3:2|0:0,0:0:0:0:
480,83,47410,2,0,B|502:75|502:75|518:-12,1,71.9999978027344,2|0,0:3|0:0,0:0:0:0:
428,23,47560,21,2,3:0:0:0:
477,162,47710,2,0,P|460:195|443:250,1,71.9999978027344,2|0,0:3|0:0,0:0:0:0:
406,351,47860,2,0,P|382:281|348:217,1,143.999995605469,12|2,3:2|0:3,0:0:0:0:
227,9,48160,6,0,P|184:40|221:118,1,143.999995605469,6|2,3:2|0:3,0:0:0:0:
276,177,48385,1,0,0:0:0:0:
276,177,48460,2,0,P|218:192|125:254,1,143.999995605469,10|2,3:2|0:3,0:0:0:0:
5,139,48760,21,2,3:0:0:0:
108,311,48910,1,2,0:3:0:0:
108,311,48985,1,0,0:0:0:0:
108,311,49060,2,0,P|158:323|220:347,1,71.9999978027344,8|0,3:2|0:0,0:0:0:0:
335,304,49210,2,0,B|345:290|345:290|302:236,1,71.9999978027344,2|0,0:3|0:0,0:0:0:0:
255,306,49360,6,0,P|278:227|297:158,1,143.999995605469,0|2,3:0|0:3,0:0:0:0:
320,95,49585,1,0,0:0:0:0:
320,95,49660,2,0,B|301:83|301:83|160:140,1,143.999995605469,10|2,3:2|0:3,0:0:0:0:
458,22,49960,21,2,3:0:0:0:
426,207,50110,2,0,B|447:211|447:211|472:269,2,71.9999978027344,2|0|8,0:3|0:0|3:2,0:0:0:0:
410,91,50410,1,2,0:3:0:0:
410,91,50485,1,0,0:0:0:0:
410,91,50560,6,0,L|260:131,1,143.999995605469,0|2,3:0|0:3,0:0:0:0:
171,122,50785,1,0,0:0:0:0:
171,122,50860,2,0,B|185:142|185:142|187:54|307:34,1,143.999995605469,10|2,3:2|0:3,0:0:0:0:
361,257,51160,21,2,3:0:0:0:
243,209,51310,1,2,0:3:0:0:
243,209,51385,1,0,0:0:0:0:
243,209,51460,2,0,P|210:231|173:342,1,143.999995605469,8|2,3:2|0:3,0:0:0:0:
103,370,51685,1,0,0:0:0:0:
103,370,51760,6,0,P|92:333|62:277,1,71.9999978027344,6|0,3:1|0:0,0:0:0:0:
299,263,51910,1,2,0:3:0:0:
409,370,52060,22,0,P|420:333|450:277,1,71.9999978027344,6|0,3:1|0:0,0:0:0:0:
213,263,52210,1,2,0:3:0:0:
148,140,52360,6,0,P|125:108|77:66,1,71.9999978027344,6|0,3:1|0:0,0:0:0:0:
300,89,52510,2,0,P|304:50|324:-9,1,71.9999978027344,2|0,0:1|0:0,0:0:0:0:
212,89,52660,22,0,P|207:50|187:-9,1,71.9999978027344,6|0,3:1|0:0,0:0:0:0:
364,140,52810,2,0,P|386:108|434:66,1,71.9999978027344,2|0,0:1|0:0,0:0:0:0:
256,192,52960,5,2,3:0:0:0:
256,192,53110,1,0,3:0:0:0:
76,192,53260,21,2,3:0:0:0:
435,192,53410,1,2,3:0:0:0:
109,119,53560,5,2,3:0:0:0:
403,265,53710,1,2,3:0:0:0:
182,85,53860,21,0,3:0:0:0:
330,299,54010,1,2,3:0:0:0:
256,192,54160,5,0,3:0:0:0:
256,192,54310,1,2,3:0:0:0:
330,85,54460,21,2,3:0:0:0:
182,299,54610,1,2,3:0:0:0:
403,119,54760,5,2,3:0:0:0:
109,265,54910,1,2,3:0:0:0:
435,192,55060,21,4,3:2:0:0:
76,192,55210,1,2,3:0:0:0:
256,192,55360,5,4,3:2:0:0:
256,192,55510,1,2,3:0:0:0:
256,54,55660,21,2,3:0:0:0:
256,330,55810,1,2,3:0:0:0:
331,36,55960,5,2,3:0:0:0:
181,348,56110,1,2,3:0:0:0:
405,16,56260,21,0,3:0:0:0:
107,368,56410,1,2,3:0:0:0:
256,192,56560,5,0,3:0:0:0:
256,192,56710,1,2,3:0:0:0:
107,16,56860,21,2,3:0:0:0:
405,368,57010,1,2,3:0:0:0:
181,36,57160,5,2,3:0:0:0:
331,348,57310,1,2,3:0:0:0:
256,54,57460,21,0,3:0:0:0:
256,330,57610,1,2,3:0:0:0:
256,192,57760,5,4,3:2:0:0:
255,187,57835,1,0,3:0:0:0:
254,182,57910,1,0,3:0:0:0:
254,177,57985,1,0,3:0:0:0:
253,172,58060,1,2,3:0:0:0:
252,168,58135,1,0,3:0:0:0:
251,163,58210,1,2,3:0:0:0:
250,158,58285,1,0,3:0:0:0:
248,154,58360,1,2,3:0:0:0:
247,149,58435,1,0,3:0:0:0:
245,145,58510,1,2,3:0:0:0:
244,140,58585,1,0,3:0:0:0:
242,136,58660,1,0,3:0:0:0:
240,131,58735,1,0,3:0:0:0:
238,127,58810,1,2,3:0:0:0:
236,123,58885,1,0,3:0:0:0:
223,102,58960,22,0,B|194:101|194:101|175:139,1,71.9999978027344,4|0,3:2|3:0,0:0:0:0:
113,293,59110,1,2,3:0:0:0:
103,297,59185,1,0,3:0:0:0:
91,296,59260,1,2,3:0:0:0:
78,289,59335,1,0,3:0:0:0:
65,275,59410,1,2,3:0:0:0:
63,254,59485,1,0,3:0:0:0:
75,233,59560,1,2,3:0:0:0:
99,220,59635,1,0,3:0:0:0:
130,223,59710,1,2,3:0:0:0:
154,243,59785,1,0,3:0:0:0:
165,276,59860,1,0,3:0:0:0:
191,300,59935,1,0,3:0:0:0:
233,303,60010,1,2,3:0:0:0:
269,274,60085,1,0,3:0:0:0:
283,223,60160,6,0,B|287:204|287:204|220:163,1,71.9999978027344,4|0,3:2|3:0,0:0:0:0:
95,91,60310,1,2,3:0:0:0:
117,61,60385,1,0,3:0:0:0:
154,57,60460,2,0,L|191:155,1,71.9999978027344,6|0,3:2|3:0,0:0:0:0:
283,223,60610,1,2,3:0:0:0:
305,253,60685,1,0,3:0:0:0:
342,257,60760,2,0,L|379:159,1,71.9999978027344,6|0,3:2|3:0,0:0:0:0:
476,66,60910,2,0,B|471:52|471:52|375:35,1,71.9999978027344,2|0,3:0|3:0,0:0:0:0:
330,120,61060,21,4,3:2:0:0:
255,111,61135,5,0,3:0:0:0:
185,141,61210,21,2,3:0:0:0:
140,202,61285,5,0,3:0:0:0:
130,276,61360,21,0,3:0:0:0:
120,282,61510,6,0,B|107:280|107:280|73:234,1,45.0000017166138,2|0,0:0|0:0,0:0:0:0:
193,339,61660,2,0,P|201:310|215:277,1,45.0000017166138,2|0,0:0|0:0,0:0:0:0:
90,356,61810,1,2,0:0:0:0:
153,209,61960,22,0,P|194:197|215:186,1,60,2|0,0:0|0:0,0:0:0:0:
172,67,62110,1,2,0:0:0:0:
172,67,62185,2,0,P|166:97|159:134,1,60,0|2,0:0|0:0,0:0:0:0:
283,237,62335,1,0,0:0:0:0:
283,237,62410,2,0,P|289:207|296:170,1,60,2|0,0:0|0:0,0:0:0:0:
364,74,62560,6,0,B|384:62|384:62|405:63|405:63|391:79|391:79|358:78,1,90.0000034332277,2|0,3:1|0:0,0:0:0:0:
244,118,62710,1,2,0:3:0:0:
364,74,62860,22,0,B|375:53|375:53|394:43|394:43|389:64|389:64|360:80,1,90.0000034332277,2|0,3:1|0:0,0:0:0:0:
294,178,63010,1,2,0:3:0:0:
364,74,63160,6,0,B|363:50|363:50|374:32|374:32|381:53|381:53|364:81,1,90.0000034332277,2|0,3:1|0:0,0:0:0:0:
317,253,63310,1,2,0:3:0:0:
364,74,63460,22,0,B|352:54|352:54|353:32|353:32|369:46|369:46|368:79,1,90.0000034332277,2|0,3:1|0:0,0:0:0:0:
298,329,63610,1,2,0:3:0:0:
364,74,63760,6,0,B|343:62|343:62|333:43|333:43|354:48|354:48|370:77,1,90.0000034332277,2|0,3:1|0:0,0:0:0:0:
317,253,63910,1,2,0:3:0:0:
366,69,64060,22,0,B|342:69|342:69|324:58|324:58|345:51|345:51|373:68,1,90.0000034332277,2|0,3:1|0:0,0:0:0:0:
294,178,64210,1,2,0:3:0:0:
364,74,64360,6,0,B|344:85|344:85|323:84|323:84|337:68|337:68|370:69,1,90.0000034332277,2|0,3:1|0:0,0:0:0:0:
244,118,64510,1,2,0:3:0:0:
349,320,64660,22,0,L|290:314,1,60,4|0,3:3|0:0,0:0:0:0:
207,249,64810,2,0,B|185:244|185:244|133:276,1,60,4|0,0:3|0:0,0:0:0:0:
204,326,64960,6,0,B|192:346|192:346|173:356|173:356|178:335|178:335|207:319,1,90.0000034332277,2|0,3:1|0:0,0:0:0:0:
280,214,65110,1,2,0:3:0:0:
204,326,65260,22,0,B|204:349|204:349|193:367|193:367|186:346|186:346|203:318,1,90.0000034332277,2|0,3:1|0:0,0:0:0:0:
212,171,65410,1,2,0:3:0:0:
204,326,65560,6,0,B|215:346|215:346|214:367|214:367|198:353|198:353|199:320,1,90.0000034332277,2|0,3:1|0:0,0:0:0:0:
185,98,65710,1,2,0:3:0:0:
204,326,65860,22,0,B|224:337|224:337|234:356|234:356|213:351|213:351|197:322,1,90.0000034332277,2|0,3:1|0:0,0:0:0:0:
214,25,66010,1,2,0:3:0:0:
204,326,66160,6,0,B|227:325|227:325|245:336|245:336|224:343|224:343|196:326,1,90.0000034332277,2|0,3:1|0:0,0:0:0:0:
185,98,66310,1,2,0:3:0:0:
204,331,66460,22,0,B|223:319|223:319|244:320|244:320|231:336|231:336|197:335,1,90.0000034332277,2|0,3:1|0:0,0:0:0:0:
212,171,66610,1,2,0:3:0:0:
204,326,66760,6,0,B|215:305|215:305|234:295|234:295|229:316|229:316|200:332,1,90.0000034332277,2|0,3:1|0:0,0:0:0:0:
280,214,66910,1,2,0:3:0:0:
127,81,67060,22,0,L|193:100,1,60,4|0,3:3|0:0,0:0:0:0:
279,17,67210,2,0,L|257:95,1,60,4|0,0:3|0:0,0:0:0:0:
256,192,67360,6,0,B|280:200|280:200|337:140,1,90.0000034332277,2|0,3:1|0:0,0:0:0:0:
445,113,67510,1,2,0:3:0:0:
256,192,67660,22,0,B|231:200|231:200|175:140,1,90.0000034332277,2|0,3:1|0:0,0:0:0:0:
67,113,67810,1,2,0:3:0:0:
256,192,67960,6,0,B|282:194|282:194|320:120,1,90.0000034332277,2|0,3:1|0:0,0:0:0:0:
409,43,68110,1,2,0:3:0:0:
256,192,68260,22,0,B|229:194|229:194|191:120,1,90.0000034332277,2|0,3:1|0:0,0:0:0:0:
103,43,68410,1,2,0:3:0:0:
256,192,68560,6,0,B|281:187|281:187|300:106,1,90.0000034332277,2|0,3:1|0:0,0:0:0:0:
337,3,68710,1,2,0:3:0:0:
256,192,68860,22,0,B|230:187|230:187|211:106,1,90.0000034332277,2|0,3:1|0:0,0:0:0:0:
175,3,69010,1,2,0:3:0:0:
256,192,69160,6,0,L|254:281,1,90.0000034332277,2|0,3:1|0:0,0:0:0:0:
256,377,69310,1,2,0:3:0:0:
180,246,69460,22,0,B|165:244|165:244|125:184,1,60,4|0,3:3|0:0,0:0:0:0:
332,246,69610,2,0,B|347:244|347:244|387:184,1,60,4|0,0:3|0:0,0:0:0:0:
256,192,69760,5,0,3:0:0:0:
173,18,69910,2,0,P|207:31|256:40,1,71.9999978027344,2|0,0:3|0:0,0:0:0:0:
341,29,70060,2,0,B|325:34|325:34|307:98,1,71.9999978027344,2|0,3:0|0:0,0:0:0:0:
194,146,70210,1,2,0:3:0:0:
371,206,70360,21,2,3:0:0:0:
231,314,70510,2,0,B|244:289|244:289|346:260,1,107.999996704102,2|0,0:3|0:0,0:0:0:0:
320,267,70660,6,0,L|396:294,1,71.9999978027344,0|0,3:0|0:0,0:0:0:0:
185,374,70810,2,0,B|162:362|162:362|131:293,1,71.9999978027344,2|0,3:3|0:0,0:0:0:0:
296,351,70960,21,0,3:0:0:0:
231,206,71110,1,2,0:3:0:0:
231,206,71185,1,0,0:0:0:0:
231,206,71260,2,0,P|261:122|298:34,1,143.999995605469,2|2,3:0|3:3,0:0:0:0:
106,23,71560,5,2,3:0:0:0:
60,39,71635,1,2,3:0:0:0:
47,85,71710,1,2,3:3:0:0:
0,259,71860,22,0,L|101:225,1,71.9999978027344,4|0,3:0|0:0,0:0:0:0:
183,160,72010,2,0,B|212:167|212:167|238:222,1,71.9999978027344,6|0,3:3|0:0,0:0:0:0:
243,346,72160,6,0,B|261:332|261:332|275:253|275:253|270:245|270:245|295:125,1,215.999993408203,10|0,3:1|0:0,0:0:0:0:
76,43,72460,2,0,B|94:57|94:57|108:135|108:135|103:144|103:144|128:264,1,215.999993408203,10|0,3:1|3:0,0:0:0:0:
359,226,72760,22,0,B|377:212|377:212|391:133|391:133|386:125|386:125|411:5,1,215.999993408203,10|0,3:1|0:0,0:0:0:0:
200,150,73060,1,10,3:1:0:0:
184,134,73135,1,4,3:3:0:0:
200,119,73210,1,4,3:3:0:0:
215,134,73285,1,4,3:3:0:0:
291,143,73360,6,0,B|277:161|277:161|198:175|198:175|190:170|190:170|70:195,1,215.999993408203,10|0,3:1|0:0,0:0:0:0:
277,312,73660,2,0,B|291:330|291:330|369:344|369:344|378:339|378:339|498:364,1,215.999993408203,10|0,3:1|3:0,0:0:0:0:
486,111,73960,22,0,B|495:97|495:97|421:6|421:6|376:48|376:48|384:87,1,215.999993408203,10|0,3:1|3:0,0:0:0:0:
412,144,74185,1,0,3:0:0:0:
412,144,74260,6,0,L|391:206,1,60,4|0,3:3|0:0,0:0:0:0:
277,312,74410,2,0,L|355:286,1,60,4|0,3:3|0:0,0:0:0:0:
367,366,74560,22,0,B|375:364|375:364|343:276|343:276|337:277|337:277|301:192|301:192|322:183,1,215.999993408203,10|0,3:1|0:0,0:0:0:0:
145,18,74860,2,0,B|136:19|136:19|168:107|168:107|174:106|174:106|210:191|210:191|189:200,1,215.999993408203,10|0,3:1|0:0,0:0:0:0:
397,215,75160,6,0,B|405:213|405:213|373:125|373:125|367:126|367:126|331:41|331:41|352:32,1,215.999993408203,10|0,3:1|0:0,0:0:0:0:
115,169,75460,2,0,B|106:170|106:170|138:258|138:258|144:257|144:257|180:342|180:342|159:351,1,215.999993408203,10|0,3:1|0:0,0:0:0:0:
508,265,75760,22,0,B|516:263|516:263|484:175|484:175|478:176|478:176|442:91|442:91|463:82,1,215.999993408203,10|0,3:1|0:0,0:0:0:0:
4,119,76060,2,0,B|-4:120|-4:120|27:208|27:208|33:207|33:207|69:292|69:292|48:301,1,215.999993408203,10|0,3:1|0:0,0:0:0:0:
244,277,76360,6,0,B|235:275|235:275|267:187|267:187|273:188|273:188|309:103|309:103|288:94,1,215.999993408203,10|0,3:1|0:0,0:0:0:0:
218,121,76585,1,0,0:0:0:0:
218,121,76660,22,0,B|201:123|201:123|145:64,1,60,4|0,3:3|0:0,0:0:0:0:
327,251,76810,2,0,B|344:249|344:249|400:308,1,60,4|0,0:3|0:0,0:0:0:0:
165,205,76960,5,2,3:1:0:0:
383,128,77110,1,0,3:0:0:0:
297,325,77260,1,2,3:1:0:0:
283,319,77335,1,0,0:0:0:0:
271,310,77410,1,0,3:0:0:0:
261,299,77485,1,0,0:0:0:0:
254,285,77560,21,2,3:1:0:0:
337,62,77710,1,0,3:0:0:0:
137,129,77860,1,2,3:1:0:0:
123,135,77935,1,0,0:0:0:0:
111,144,78010,1,0,3:0:0:0:
101,155,78085,1,0,0:0:0:0:
94,169,78160,5,2,3:1:0:0:
12,15,78310,1,0,3:0:0:0:
251,205,78460,1,2,3:1:0:0:
265,199,78535,1,0,0:0:0:0:
277,190,78610,1,0,3:0:0:0:
287,179,78685,1,0,0:0:0:0:
294,165,78760,21,2,3:1:0:0:
111,283,78910,1,0,3:0:0:0:
285,371,79060,6,0,B|296:358|296:358|250:306,1,60,4|0,3:3|0:0,0:0:0:0:
111,200,79210,2,0,L|185:227,1,60,4|0,3:3|0:0,0:0:0:0:
347,148,79360,21,0,3:0:0:0:
331,146,79435,1,0,3:0:0:0:
317,148,79510,1,2,3:0:0:0:
303,152,79585,1,0,3:0:0:0:
289,160,79660,1,2,3:0:0:0:
277,168,79735,1,0,3:0:0:0:
266,179,79810,1,2,3:0:0:0:
258,191,79885,1,0,3:0:0:0:
251,205,79960,5,2,3:0:0:0:
228,216,80035,1,0,3:0:0:0:
193,212,80110,1,2,3:0:0:0:
167,178,80185,1,0,3:0:0:0:
171,129,80260,1,0,3:0:0:0:
217,99,80335,1,0,3:0:0:0:
278,101,80410,1,2,3:0:0:0:
329,141,80485,1,0,3:0:0:0:
348,210,80560,21,0,0:0:0:0:
357,219,80710,6,0,L|300:202,1,45.0000017166138,2|0,0:0|0:0,0:0:0:0:
433,267,80860,2,0,B|427:259|427:259|445:213,1,45.0000017166138,10|0,0:0|0:0,0:0:0:0:
311,286,81010,1,2,0:0:0:0:
466,338,81160,21,2,0:0:0:0:
402,156,81310,1,2,0:0:0:0:
392,360,81460,5,10,0:0:0:0:
479,142,81610,1,2,0:0:0:0:
433,267,81760,22,0,L|181:238,2,240,6|2|10,3:2|3:0|0:3,0:0:0:0:
498,158,82510,1,2,0:0:0:0:
498,158,82810,1,2,0:0:0:0:
374,48,82960,5,6,3:2:0:0:
385,180,83110,2,0,B|406:178|406:178|448:65,2,120,2|2|2,0:0|3:0|0:0,0:0:0:0:
317,138,83560,1,10,0:3:0:0:
168,180,83710,1,2,0:0:0:0:
168,180,84010,1,2,0:0:0:0:
79,251,84160,22,0,B|17:370|17:370|126:320,2,240,4|2|10,3:2|3:0|0:3,0:0:0:0:
233,226,84910,1,2,0:0:0:0:
233,226,85210,1,2,0:0:0:0:
79,251,85360,5,2,3:0:0:0:
250,305,85510,1,2,0:0:0:0:
113,325,85660,22,0,P|116:337|121:337,16,15,2|0|0|0|0|0|0|0|0|0|0|0|0|0|0|0|0,0:0|0:0|0:0|0:0|0:0|0:0|0:0|0:0|0:0|0:0|0:0|0:0|0:0|0:0|0:0|0:0|0:0,0:0:0:0:
181,278,86560,5,0,1:0:0:0:
105,212,86747,1,0,3:0:0:0:
331,106,86935,21,0,1:0:0:0:
407,172,87122,1,0,3:0:0:0:
181,278,87310,5,0,1:0:0:0:
118,135,87497,1,0,3:0:0:0:
331,106,87685,21,0,1:0:0:0:
394,249,87872,1,0,3:0:0:0:
181,278,88060,5,0,1:0:0:0:
154,64,88247,1,0,3:0:0:0:
331,106,88435,21,0,1:0:0:0:
358,320,88622,1,0,3:0:0:0:
181,278,88810,5,0,1:0:0:0:
224,22,88997,1,0,3:0:0:0:
331,106,89185,21,0,1:0:0:0:
288,362,89372,1,0,3:0:0:0:
267,203,89560,5,0,1:0:0:0:
244,180,89653,1,0,3:0:0:0:
256,207,89747,21,0,1:0:0:0:
256,176,89841,1,0,3:0:0:0:
244,203,89935,5,0,1:0:0:0:
267,180,90028,1,0,3:0:0:0:
240,192,90122,21,0,1:0:0:0:
271,192,90216,1,0,3:0:0:0:
341,215,90310,6,0,L|359:219,1,15,0|0,1:0|3:0,0:0:0:0:
299,267,90403,22,0,L|309:283,1,15,0|0,1:0|3:0,0:0:0:0:
233,277,90497,6,0,L|227:295,1,15,0|0,1:0|3:0,0:0:0:0:
179,235,90591,22,0,L|163:244,1,15,0|0,1:0|3:0,0:0:0:0:
170,168,90685,6,0,L|152:163,1,15,0|0,1:0|3:0,0:0:0:0:
211,114,90778,22,0,L|202:98,1,15,0|0,1:0|3:0,0:0:0:0:
279,106,90872,6,0,L|283:88,1,15,0|0,1:0|3:0,0:0:0:0:
332,147,90966,22,0,L|348:138,1,15,0|0,1:0|3:0,0:0:0:0:
341,215,91060,5,0,3:0:0:0:
256,192,91153,12,0,92185,1:0:0:0:
341,215,92560,6,2,B|372:270|425:207|442:180|326:113|271:132|205:145|237:249|237:249|223:136|383:142|336:32|253:0|170:36|256:111,1,671.999979492188,6|0,3:1|0:1,0:1:0:0:
52,138,93028,22,0,L|8:129,1,35.9999989013672,2|0,0:0|0:0,0:0:0:0:
16,130,93310,6,0,B|-5:155|-5:155|62:96|147:117,1,120,2|0,1:0|0:0,0:0:0:0:
127,223,93497,1,0,0:0:0:0:
149,239,93591,2,0,B|139:250|139:250|205:230|185:156,1,120,2|0,0:0|0:0,0:0:0:0:
137,68,93778,1,0,0:0:0:0:
69,36,93872,2,0,B|94:27|94:27|57:72|74:124,1,120,2|0,0:0|0:0,0:0:0:0:
37,287,94060,21,2,3:0:0:0:
57,272,94153,2,0,B|71:273|71:273|54:309,1,30,2|0,0:0|0:0,0:0:0:0:
32,270,94247,2,0,B|22:262|22:262|50:219,1,60,2|0,0:0|0:0,0:0:0:0:
233,283,94435,6,0,B|246:303|246:303|325:316|373:363|373:363|401:353,1,180,2|0,0:0|0:0,0:0:0:0:
412,368,94622,2,0,P|456:349|498:340,1,60,2|0,0:0|0:0,0:0:0:0:
406,349,94716,2,0,P|425:323|467:309,1,45.0000017166138,2|0,0:0|0:0,0:0:0:0:
384,345,94810,21,2,1:0:0:0:
401,322,94903,6,0,L|417:320,1,12,2|0,0:0|0:0,0:0:0:0:
391,281,94997,22,0,L|408:259,1,17.9999994506836,2|0,0:0|0:0,0:0:0:0:
348,264,95091,6,0,L|338:225,1,24,2|0,0:0|0:0,0:0:0:0:
295,284,95185,21,4,0:3:0:0:
247,236,95278,1,4,0:3:0:0:
249,161,95372,1,4,0:3:0:0:
311,108,95466,1,4,0:3:0:0:
402,114,95560,6,2,B|201:72|201:72|200:57|200:57|245:11|245:11|332:29|332:29|339:36|339:36|240:205|240:205|242:221|242:221|341:250|341:250|359:245|359:245|399:198|399:198|392:185|392:185|335:172,1,839.999974365235,2|0,3:1|0:1,0:1:0:0:
154,173,96122,22,0,B|136:165|136:165|101:225,1,60,2|0,0:0|0:0,0:0:0:0:
116,199,96310,6,0,B|136:215|136:215|396:164,1,240,2|0,1:0|0:0,0:0:0:0:
305,50,96591,2,0,B|331:57|374:38|374:38|264:91|256:217,1,240,2|0,0:0|0:0,0:0:0:0:
246,351,96872,2,0,B|228:283|206:328|186:251,1,120,2|0,0:0|0:0,0:0:0:0:
265,239,97060,21,2,3:0:0:0:
265,160,97153,6,0,B|259:135|230:117|230:117|353:119|417:209|348:296,1,300,2|0,0:0|0:0,0:0:0:0:
385,270,97435,2,0,L|311:299,1,60,2|0,0:0|0:0,0:0:0:0:
405,275,97528,2,0,L|398:325,1,30,2|0,3:0|3:0,0:0:0:0:
420,255,97622,21,2,3:0:0:0:
479,207,97716,1,2,3:0:0:0:
444,140,97810,6,0,B|454:83|509:7|509:7|464:59|409:65,1,240,2|0,1:0|3:0,0:0:0:0:
265,160,98091,2,0,L|71:216,1,180,2|0,1:0|0:0,0:0:0:0:
87,223,98278,22,0,L|129:239,1,30,2|0,0:0|0:0,0:0:0:0:
73,236,98372,2,0,L|38:264,1,30,2|0,0:0|0:0,0:0:0:0:
71,223,98466,2,0,L|63:178,1,30,2|0,0:0|0:0,0:0:0:0:
104,310,98560,6,2,B|99:327|99:327|247:366|275:223|275:223|181:218|140:144|140:144|198:44|327:70|327:70|288:107,1,671.999979492188,2|0,3:1|0:1,0:1:0:0:
383,268,99028,22,0,L|430:284,1,35.9999989013672,2|0,0:0|0:0,0:0:0:0:
417,279,99310,6,0,B|408:303|408:303|395:236|334:217,1,120,2|0,1:0|0:0,0:0:0:0:
301,94,99497,1,2,0:0:0:0:
264,159,99591,2,0,B|242:160|242:160|200:247|200:247|277:184|277:184|269:153,1,240,2|0,0:0|0:0,0:0:0:0:
301,94,99872,22,0,B|307:89|307:89|263:41,1,45.0000017166138,2|0,0:0|0:0,0:0:0:0:
319,50,99966,2,0,B|314:44|314:44|264:70,1,45.0000017166138,2|0,0:0|0:0,0:0:0:0:
253,32,100060,5,2,3:0:0:0:
199,103,100153,22,0,B|224:104|224:104|298:280|298:280|327:285,1,240,2|0,0:0|0:0,0:0:0:0:
414,383,100435,2,0,B|400:379|400:379|464:260|464:260|429:245,1,180,2|0,0:0|0:0,0:0:0:0:
428,228,100622,2,0,L|455:163,1,60,2|0,0:0|0:0,0:0:0:0:
406,229,100716,2,0,L|334:207,1,45.0000017166138,2|0,0:0|0:0,0:0:0:0:
389,246,100810,5,2,1:0:0:0:
321,284,100903,1,2,0:0:0:0:
284,341,100997,1,2,0:0:0:0:
235,359,101091,1,2,0:0:0:0:
201,348,101185,22,0,L|229:295,1,45.0000017166138,2|0,0:0|0:0,0:0:0:0:
185,332,101278,6,0,L|167:300,1,30,2|0,0:0|0:0,0:0:0:0:
171,334,101372,22,0,L|132:340,1,22.5000008583069,2|0,0:0|0:0,0:0:0:0:
167,340,101466,6,0,L|151:354,1,15,2|0,0:0|0:0,0:0:0:0:
106,375,101560,21,4,3:3:0:0:
44,366,101653,2,0,B|35:374|35:374|45:359,1,30,4|0,0:3|0:0,0:0:0:0:
16,318,101747,2,0,B|7:311|7:311|30:256,1,60,4|0,0:3|0:0,0:0:0:0:
12,85,101935,6,0,B|-2:108|-2:108|103:105|137:196,1,180,2|0,0:0|0:0,0:0:0:0:
153,179,102122,2,0,P|146:229|115:230,1,60,2|0,0:0|0:0,0:0:0:0:
172,162,102216,2,0,P|207:175|224:201,1,45.0000017166138,2|0,0:0|0:0,0:0:0:0:
161,122,102310,21,2,1:0:0:0:
216,74,102403,1,2,0:0:0:0:
291,71,102497,2,0,P|318:124|340:169,1,90.0000034332277,2|0,0:0|0:0,0:0:0:0:
439,266,102685,5,2,3:0:0:0:
366,299,102778,2,0,B|291:338|291:338|401:183,1,240,2|0,0:0|0:0,0:0:0:0:
432,24,103060,22,0,B|498:77|460:151|460:151|397:119,1,180,2|0,0:0|0:0,0:0:0:0:
415,138,103247,2,0,B|406:123|406:123|283:163,1,120,2|0,3:0|0:0,0:0:0:0:
218,302,103435,2,0,B|182:246|78:252|78:252|138:240|160:193,1,240,2|0,1:0|0:0,0:0:0:0:
205,55,103716,6,0,B|173:-3|173:-3|315:50|315:50|327:89,1,240,2|0,3:0|0:0,0:0:0:0:
149,211,103997,2,0,B|132:220|132:220|62:98,1,120,2|0,3:0|0:0,0:0:0:0:
184,140,104185,21,2,1:0:0:0:
218,302,104278,2,0,B|243:312|243:312|291:147,1,180.000006866455,2|0,3:0|0:0,0:0:0:0:
184,140,104560,6,2,B|185:114|225:83|225:83|96:48|63:191|63:191|166:259|117:383|117:383|100:296|33:279|33:279|63:258,1,671.999979492188,2|0,3:1|0:1,0:1:0:0:
285,165,105028,22,0,L|260:152,1,24,2|0,0:0|0:0,0:0:0:0:
263,153,105310,6,0,B|245:189|245:189|284:149|338:147,1,120,2|0,1:0|0:0,0:0:0:0:
447,210,105497,1,2,0:0:0:0:
478,224,105591,2,0,B|497:228|497:228|443:166|480:117,1,120,2|0,0:0|0:0,0:0:0:0:
419,30,105778,1,2,0:0:0:0:
349,3,105872,2,0,B|330:-2|330:-2|301:63|356:85,1,120,2|0,0:0|0:0,0:0:0:0:
388,183,106060,21,2,3:0:0:0:
329,231,106153,1,2,0:0:0:0:
293,279,106247,2,0,L|226:257,1,45.0000017166138,2|0,0:0|0:0,0:0:0:0:
265,290,106341,2,0,L|240:249,1,30,2|0,0:0|0:0,0:0:0:0:
241,283,106435,5,2,0:0:0:0:
164,265,106528,2,0,P|118:280|48:345,1,135.000005149841,2|0,0:0|0:0,0:0:0:0:
37,344,106716,2,0,P|44:303|70:275,1,45.0000017166138,2|0,0:0|0:0,0:0:0:0:
164,265,106810,22,0,P|121:234|109:127,1,135.000005149841,2|0,1:0|0:0,0:0:0:0:
98,136,106997,6,0,L|64:123,1,22.5000008583069,2|0,0:0|0:0,0:0:0:0:
124,109,107091,22,0,L|117:66,1,30,2|0,0:0|0:0,0:0:0:0:
164,119,107185,5,4,0:3:0:0:
218,141,107278,1,4,0:3:0:0:
271,192,107372,1,4,0:3:0:0:
314,257,107466,1,4,0:3:0:0:
392,293,107560,22,2,B|351:270|270:326|270:326|278:316|278:316|281:193|407:175|407:175|435:39|312:39|312:39|298:30|298:30|395:82|409:199|409:199|436:241|467:238,1,839.999974365235,2|0,3:1|0:1,0:1:0:0:
243,170,108122,6,0,P|233:153|246:116,1,60,2|0,0:0|0:0,0:0:0:0:
245,117,108310,22,0,P|367:163|452:241,1,240,2|0,1:0|0:0,0:0:0:0:
282,261,108591,2,0,B|230:263|198:356|198:356|218:282|163:236,1,240,2|0,0:0|0:0,0:0:0:0:
152,59,108872,2,0,P|214:72|247:149,1,120,2|0,0:0|0:0,0:0:0:0:
232,193,109060,6,0,P|297:182|376:167,1,120,2|0,3:0|0:0,0:0:0:0:
471,69,109247,22,0,B|497:72|497:72|451:143,1,60,2|0,0:0|0:0,0:0:0:0:
468,107,109341,2,0,B|458:107|458:107|381:4,1,120,2|0,0:0|0:0,0:0:0:0:
350,172,109528,2,0,B|333:177|333:177|314:297,1,120,2|0,0:0|0:0,0:0:0:0:
408,227,109716,1,2,3:0:0:0:
473,187,109810,5,2,1:0:0:0:
350,172,109903,2,0,L|139:120,1,180,2|0,0:0|0:0,0:0:0:0:
170,139,110091,2,0,L|339:100,1,135.000005149841,2|0,0:1|0:0,0:0:0:0:
303,97,110278,22,0,L|273:87,1,30,2|0,0:0|0:0,0:0:0:0:
318,95,110372,6,0,L|357:25,1,60,2|0,0:1|0:0,0:0:0:0:
122,198,110560,22,0,B|111:197|111:197|92:144,6,51.0000009727478,6|0|0|0|0|0|0,3:2|0:0|0:0|0:0|0:0|0:0|0:0,0:0:0:0:
170,139,110935,6,0,L|104:344,1,180.000006866455,2|0,1:0|0:0,0:0:0:0:
179,349,111216,1,2,3:0:0:0:
255,333,111310,22,0,B|264:353|264:353|397:311,1,120,2|0,0:0|0:0,0:0:0:0:
512,251,111497,1,2,3:0:0:0:
446,213,111591,1,2,0:0:0:0:
491,150,111685,2,0,L|313:89,1,180,2|0,1:0|0:0,0:0:0:0:
333,80,111872,2,0,B|266:94|266:94|231:18,1,120,2|0,0:0|0:0,0:0:0:0:
81,96,112060,6,0,L|51:151,1,45.0000017166138,4|0,3:2|0:0,0:0:0:0:
124,121,112153,22,0,L|136:161,1,30,4|0,0:3|0:0,0:0:0:0:
161,108,112247,6,0,L|190:117,1,22.5000008583069,4|0,0:3|0:0,0:0:0:0:
171,91,112341,21,4,0:3:0:0:
160,80,112435,6,0,L|403:27,1,240,2|0,1:0|0:0,0:0:0:0:
333,80,112716,1,2,3:0:0:0:
387,135,112810,22,0,B|409:147|409:147|343:267,1,120,2|0,0:0|0:0,0:0:0:0:
268,348,112997,1,2,3:0:0:0:
213,296,113091,1,2,0:0:0:0:
256,233,113185,2,0,B|269:220|269:220|426:294,1,180,2|0,1:0|0:0,0:0:0:0:
419,298,113372,2,0,L|487:165,1,120,2|0,0:0|0:0,0:0:0:0:
387,135,113560,6,0,B|314:66|314:66|325:31,1,120,6|0,3:2|0:0,0:0:0:0:
402,38,113747,1,2,0:0:0:0:
402,38,113841,1,2,0:0:0:0:
319,47,113935,22,0,P|250:89|260:201,1,180,2|0,1:0|0:0,0:0:0:0:
256,175,114122,2,0,P|193:144|115:177,1,120,2|0,3:0|0:0,0:0:0:0:
41,365,114310,6,0,P|35:310|12:219,1,120,2|0,1:0|0:0,0:0:0:0:
146,152,114497,2,0,B|137:124|137:124|56:199,1,120,2|0,3:0|0:0,0:0:0:0:
0,50,114685,22,0,B|-13:66|-13:66|57:107,1,90.0000034332277,2|0,1:0|0:0,0:0:0:0:
138,231,114872,2,0,L|293:187,1,135.000005149841,2|0,3:0|0:0,0:0:0:0:
282,202,115060,5,2,1:0:0:0:
364,70,115153,2,0,L|341:8,4,45.0000017166138,2|0|0|0|0,3:0|0:0|0:0|0:0|3:0,0:0:0:0:
358,227,115435,21,2,1:0:0:0:
213,126,115528,2,0,L|236:64,4,45.0000017166138,2|0|0|0|0,3:0|0:0|0:0|0:0|3:0,0:0:0:0:
251,275,115810,5,2,1:0:0:0:
438,217,115903,2,0,L|415:155,4,45.0000017166138,2|0|0|0|0,3:0|0:0|0:0|0:0|3:0,0:0:0:0:
300,341,116185,22,0,L|244:361,2,45.0000017166138,2|0|0,1:0|0:0|0:0,0:0:0:0:
464,369,116372,2,0,L|520:389,2,45.0000017166138,2|0|0,0:1|0:0|0:0,0:0:0:0:
384,334,116560,22,0,L|372:297,1,22.5000008583069,6|0,0:2|0:0,0:0:0:0:
384,334,116935,6,0,L|391:356,1,22.5000008583069,6|0,0:2|0:0,0:0:0:0:
384,334,117310,22,0,L|377:312,1,22.5000008583069,6|0,0:2|0:0,0:0:0:0:
384,334,117497,6,0,L|390:355,1,22.5000008583069,6|0,0:2|0:0,0:0:0:0:
384,334,117685,22,0,L|372:297,1,22.5000008583069,6|0,0:2|0:0,0:0:0:0:
384,334,117778,6,0,L|362:340,1,22.5000008583069,6|0,0:2|0:0,0:0:0:0:
384,334,117872,22,0,L|396:371,1,22.5000008583069,6|0,0:2|0:0,0:0:0:0:
384,334,117966,6,0,L|405:327,1,22.5000008583069,6|0,0:2|0:0,0:0:0:0:
256,192,118060,12,0,119185,0:0:0:0:
384,334,119560,22,0,P|334:319|223:299,1,90.0000034332277,6|0,3:2|0:0,0:0:0:0:
217,85,119747,2,0,P|167:100|56:120,1,90.0000034332277,0|0,0:3|0:0,0:0:0:0:
0,199,119935,1,10,3:0:0:0:
25,273,120028,1,2,0:0:0:0:
117,361,120122,5,2,0:3:0:0:
144,288,120216,1,2,0:0:0:0:
218,320,120310,22,0,P|239:224|278:120,1,180.000006866455,2|2,3:0|0:3,0:0:0:0:
512,210,120685,1,10,3:0:0:0:
439,188,120778,1,2,0:0:0:0:
374,147,120872,1,2,0:3:0:0:
321,90,120966,1,2,0:0:0:0:
284,21,121060,1,2,3:0:0:0:
136,124,121247,6,0,P|92:107|28:89,1,90.0000034332277,2|0,0:3|0:0,0:0:0:0:
170,247,121435,1,10,3:0:0:0:
243,224,121528,1,2,0:0:0:0:
316,201,121622,1,2,0:3:0:0:
329,208,121810,21,4,3:3:0:0:
364,136,121903,1,4,0:3:0:0:
258,35,121997,5,4,0:3:0:0:
293,107,122090,1,6,0:3:0:0:
334,6,122185,22,0,L|397:22,3,45.0000017166138,10|0|2|0,3:0|0:0|0:3|0:0,0:0:0:0:
258,35,122560,6,0,P|227:45|146:71,1,90.0000034332277,2|0,3:0|0:0,0:0:0:0:
24,152,122747,2,0,P|83:167|136:188,1,90.0000034332277,0|0,0:3|0:0,0:0:0:0:
336,122,122935,1,10,3:0:0:0:
408,155,123028,1,2,0:0:0:0:
512,216,123122,21,2,0:3:0:0:
441,251,123216,1,2,0:0:0:0:
418,327,123310,6,0,P|322:348|218:387,1,180.000006866455,2|2,3:0|0:3,0:0:0:0:
256,207,123685,2,0,P|287:154|318:11,1,180.000006866455,10|2,3:0|0:3,0:0:0:0:
245,18,123966,1,2,0:0:0:0:
200,80,124060,22,0,P|141:103|27:141,1,180.000006866455,2|2,3:0|0:3,0:0:0:0:
256,207,124435,2,0,P|298:230|329:295,1,90.0000034332277,10|0,3:0|0:0,0:0:0:0:
438,366,124622,2,0,P|446:306|478:233,1,90.0000034332277,0|0,0:3|0:0,0:0:0:0:
496,171,124810,5,4,3:3:0:0:
428,208,124903,1,4,0:3:0:0:
318,107,124997,21,4,0:3:0:0:
386,144,125090,17,6,0:3:0:0:
264,158,125185,6,0,L|201:175,3,45.0000017166138,10|0|2|0,3:0|0:0|0:3|0:0,0:0:0:0:
226,87,125560,22,0,P|172:78|121:51,1,90.0000034332277,6|0,3:2|0:0,0:0:0:0:
273,237,125747,2,0,P|327:246|378:273,1,90.0000034332277,0|0,0:3|0:0,0:0:0:0:
170,313,125935,1,10,3:0:0:0:
95,339,126028,1,2,0:0:0:0:
81,229,126122,5,2,0:3:0:0:
8,199,126216,1,2,0:0:0:0:
53,135,126310,22,0,P|149:114|253:75,1,180.000006866455,2|2,3:0|0:3,0:0:0:0:
411,174,126685,1,10,3:0:0:0:
338,196,126778,1,2,0:0:0:0:
273,237,126872,1,2,0:3:0:0:
220,294,126966,1,2,0:0:0:0:
183,363,127060,1,2,3:0:0:0:
95,214,127247,6,0,P|79:179|47:127,1,90.0000034332277,0|0,0:3|0:0,0:0:0:0:
152,63,127435,1,10,3:0:0:0:
225,86,127528,1,2,0:0:0:0:
298,109,127622,1,2,0:3:0:0:
313,105,127810,22,0,P|289:163|268:283,1,180.000006866455,2|2,3:0|0:3,0:0:0:0:
442,144,128185,2,0,P|351:97|346:10,1,180.000006866455,10|2,3:0|0:3,0:0:0:0:
142,0,128560,6,0,P|101:17|18:41,1,90.0000034332277,2|0,3:0|0:0,0:0:0:0:
0,132,128747,2,0,P|38:154|74:189,1,90.0000034332277,0|0,0:3|0:0,0:0:0:0:
322,275,128935,1,10,3:0:0:0:
283,206,129028,1,2,0:0:0:0:
251,323,129122,21,2,0:3:0:0:
185,278,129216,1,2,0:0:0:0:
99,301,129310,6,0,P|116:197|135:106,1,180.000006866455,2|2,3:0|0:3,0:0:0:0:
324,12,129685,2,0,P|413:44|441:134,1,180.000006866455,10|2,3:0|0:3,0:0:0:0:
383,166,129966,1,2,0:0:0:0:
389,241,130060,22,0,P|342:256|188:333,1,180.000006866455,2|2,3:0|0:3,0:0:0:0:
65,175,130435,2,0,P|90:137|152:126,1,90.0000034332277,10|0,3:0|0:0,0:0:0:0:
242,12,130622,2,0,P|284:32|294:84,1,90.0000034332277,0|0,0:3|0:0,0:0:0:0:
130,123,130810,6,0,P|40:97|34:-15,2,180.000006866455,2|2|8,3:0|0:3|3:0,0:0:0:0:
240,182,131372,2,0,P|250:132|276:65,1,90.0000034332277,0|0,0:3|0:0,0:0:0:0:
185,66,131560,21,6,3:2:0:0:
331,165,131747,1,2,0:0:0:0:
512,69,131935,1,2,0:3:0:0:
491,58,132028,1,2,0:0:0:0:
471,50,132122,1,2,0:0:0:0:
449,43,132216,1,2,0:0:0:0:
399,103,132310,5,2,1:0:0:0:
403,238,132497,21,2,0:0:0:0:
373,243,132590,1,2,0:0:0:0:
344,250,132684,1,2,0:3:0:0:
316,260,132778,1,2,0:0:0:0:
288,272,132872,1,2,0:0:0:0:
262,287,132965,1,2,0:0:0:0:
213,227,133060,5,2,3:0:0:0:
42,184,133247,1,2,0:0:0:0:
10,333,133435,21,2,0:3:0:0:
31,322,133528,1,2,0:0:0:0:
51,314,133622,1,2,0:0:0:0:
73,307,133716,1,2,0:0:0:0:
104,237,133810,5,2,1:0:0:0:
32,74,133997,1,2,0:0:0:0:
104,237,134185,2,0,L|179:259,2,60,2|0|0,0:3|0:0|0:0,0:0:0:0:
24,218,134560,21,2,3:0:0:0:
151,363,134747,1,2,0:0:0:0:
274,287,134935,1,2,0:3:0:0:
253,298,135028,1,2,0:0:0:0:
233,306,135122,1,2,0:0:0:0:
211,313,135216,1,2,0:0:0:0:
161,253,135310,5,2,1:0:0:0:
320,222,135497,21,2,0:0:0:0:
315,191,135590,1,2,0:0:0:0:
308,163,135684,1,2,0:3:0:0:
298,135,135778,1,2,0:0:0:0:
286,107,135872,1,2,0:0:0:0:
271,81,135965,1,2,0:0:0:0:
331,32,136060,5,2,3:0:0:0:
512,89,136247,1,2,0:0:0:0:
414,208,136435,21,2,0:3:0:0:
403,229,136528,1,2,0:0:0:0:
395,249,136622,1,2,0:0:0:0:
388,271,136716,1,2,0:0:0:0:
318,302,136810,5,2,1:0:0:0:
225,164,136997,1,2,0:0:0:0:
318,302,137185,2,0,P|305:332|295:368,2,60,0|0|0,0:3|0:0|0:0,0:0:0:0:
330,223,137560,21,2,3:0:0:0:
321,221,137653,1,2,0:0:0:0:
312,221,137747,1,4,0:3:0:0:
304,223,137841,1,2,0:0:0:0:
296,225,137935,1,2,3:0:0:0:
288,229,138028,1,2,0:0:0:0:
281,233,138122,1,4,0:3:0:0:
274,239,138216,1,2,0:0:0:0:
223,295,138310,5,2,3:0:0:0:
234,271,138403,1,2,0:0:0:0:
244,248,138497,1,4,0:3:0:0:
253,224,138591,1,2,0:0:0:0:
260,199,138685,1,2,3:0:0:0:
267,174,138778,1,2,0:0:0:0:
271,149,138872,1,4,0:3:0:0:
275,123,138966,1,2,0:0:0:0:
293,50,139060,21,2,3:0:0:0:
274,87,139153,1,2,0:0:0:0:
247,121,139247,1,4,0:3:0:0:
214,148,139341,1,2,0:0:0:0:
176,168,139435,1,2,3:0:0:0:
135,180,139528,1,2,0:0:0:0:
92,184,139622,1,4,0:3:0:0:
50,179,139716,1,2,0:0:0:0:
12,114,139810,5,2,3:0:0:0:
71,121,139903,1,2,0:0:0:0:
129,135,139997,1,4,0:3:0:0:
186,155,140091,1,2,0:0:0:0:
240,180,140185,1,2,3:0:0:0:
292,211,140278,1,2,0:0:0:0:
340,246,140372,1,4,0:3:0:0:
385,286,140466,1,2,0:0:0:0:
368,360,140560,21,2,3:0:0:0:
296,349,140653,1,2,0:0:0:0:
251,292,140747,1,4,0:3:0:0:
262,221,140841,1,2,0:0:0:0:
318,176,140935,1,2,3:0:0:0:
390,187,141028,1,2,0:0:0:0:
435,243,141122,1,4,0:3:0:0:
424,315,141216,1,2,0:0:0:0:
352,282,141310,5,2,3:0:0:0:
338,203,141403,1,2,0:0:0:0:
287,141,141497,1,4,0:3:0:0:
212,113,141591,1,2,0:0:0:0:
132,125,141685,1,2,3:0:0:0:
70,175,141778,1,2,0:0:0:0:
40,249,141872,1,4,0:3:0:0:
52,327,141966,1,2,0:0:0:0:
108,382,142060,22,0,P|181:342|248:320,1,120,2|0,0:0|0:0,0:0:0:0:
429,291,142435,2,0,P|389:283|349:208,1,120,0|0,0:3|0:0,0:0:0:0:
202,157,142810,1,2,0:0:0:0:
372,44,142997,1,2,0:0:0:0:
275,272,143185,1,2,0:3:0:0:
275,272,143560,6,0,P|264:216|225:72,2,180.000006866455,6|2|0,3:2|0:3|1:0,0:0:0:0:
422,319,144685,1,2,0:3:0:0:
422,319,145060,2,0,P|437:229|463:125,1,180.000006866455,2|2,3:2|0:3,0:0:0:0:
90,65,145810,2,0,P|75:155|49:259,1,180.000006866455,2|2,1:2|0:3,0:0:0:0:
54,241,146560,22,0,P|164:203|155:129,2,180.000006866455,2|2|0,3:2|0:3|1:0,0:0:0:0:
11,68,147685,1,2,0:3:0:0:
11,68,148060,6,0,P|86:54|213:27,1,180.000006866455,2|2,3:2|0:3,0:0:0:0:
249,81,148528,1,0,1:0:0:0:
323,68,148622,2,0,P|342:88|360:109,1,45.0000017166138,0|0,3:0|0:0,0:0:0:0:
431,126,148810,2,0,P|355:139|229:167,1,180.000006866455,2|2,1:2|0:3,0:0:0:0:
254,160,149560,22,0,B|199:224|199:224|303:269,2,180.000006866455,2|2|0,3:2|0:3|1:0,0:0:0:0:
394,54,150685,1,0,0:2:0:0:
394,54,151060,6,0,P|311:40|209:9,1,180.000006866455,2|2,3:2|0:3,0:0:0:0:
118,330,151810,2,0,P|201:344|303:375,1,180.000006866455,2|2,1:2|0:3,0:0:0:0:
292,371,152560,22,0,B|352:335|352:335|287:233,2,180.000006866455,2|2|0,3:2|0:3|1:0,0:0:0:0:
141,230,153685,1,2,0:3:0:0:
141,230,154060,6,0,P|129:192|99:129,2,90.0000034332277,2|0|2,3:2|0:0|0:3,0:0:0:0:
216,263,154528,1,0,1:0:0:0:
292,242,154622,2,0,P|307:203|325:176,1,45.0000017166138,0|0,3:0|0:0,0:0:0:0:
275,84,154810,22,0,B|256:99|256:99|277:149,1,60,2|0,1:2|0:0,0:0:0:0:
347,115,154997,1,0,3:0:0:0:
339,40,155091,2,0,P|282:55|156:112,1,180,0|2,1:0|0:3,0:0:0:0:
62,262,155560,5,2,3:2:0:0:
62,262,155923,1,0,3:0:0:0:
450,262,156287,21,0,3:0:0:0:
450,262,156650,1,0,3:0:0:0:
126,314,157014,5,2,3:2:0:0:
126,314,157366,1,0,3:0:0:0:
386,314,157719,21,2,3:2:0:0:
386,314,158071,1,0,3:0:0:0:
174,254,158425,6,0,P|157:217|92:163,1,120,2|2,3:2|0:3,0:0:0:0:
338,254,158767,2,0,P|355:217|420:163,1,120,0|2,3:0|0:3,0:0:0:0:
174,254,159110,22,0,P|187:188|219:101,1,120,0|2,3:0|0:3,0:0:0:0:
338,254,159453,2,0,P|325:188|293:101,1,120,0|2,3:0|0:3,0:0:0:0:
154,5,159796,6,0,B|105:39|105:39|149:88,1,120,2|2,3:2|0:3,0:0:0:0:
358,5,160129,2,0,B|407:39|407:39|363:88,1,120,0|2,3:0|0:3,0:0:0:0:
154,5,160462,22,0,B|181:17|181:17|149:128,1,120,0|2,3:0|0:3,0:0:0:0:
358,5,160796,2,0,B|331:17|331:17|363:128,1,120,0|2,3:0|0:3,0:0:0:0:
256,192,161129,5,4,3:3:0:0:
212,311,161289,2,0,B|190:304|190:304|196:245,1,60,2|0,0:3|0:0,0:0:0:0:
256,192,161449,21,4,3:3:0:0:
300,311,161609,2,0,B|322:304|322:304|316:245,1,60,2|0,0:3|0:0,0:0:0:0:
256,192,161769,5,4,3:3:0:0:
193,267,161929,2,0,L|114:285,1,60,2|0,0:3|0:0,0:0:0:0:
256,192,162089,21,4,3:3:0:0:
319,267,162249,2,0,L|398:285,1,60,2|0,0:3|0:0,0:0:0:0:
256,192,162409,5,4,3:3:0:0:
134,280,162565,2,0,L|91:174,1,60,2|0,0:3|0:0,0:0:0:0:
256,192,162721,21,4,3:3:0:0:
378,280,162877,2,0,L|421:174,1,60,2|0,0:3|0:0,0:0:0:0:
256,192,163034,5,4,3:3:0:0:
111,224,163190,2,0,B|88:227|88:227|54:183,1,60,2|0,0:3|0:0,0:0:0:0:
256,192,163346,21,4,3:3:0:0:
401,224,163502,2,0,B|424:227|424:227|458:183,1,60,2|0,0:3|0:0,0:0:0:0:
256,192,163659,5,4,3:3:0:0:
191,36,163810,2,0,P|212:69|216:103,1,60,2|0,0:3|0:0,0:0:0:0:
256,192,163962,21,4,3:3:0:0:
321,36,164113,2,0,P|300:69|296:103,1,60,2|0,0:3|0:0,0:0:0:0:
256,192,164265,5,4,3:3:0:0:
216,89,164416,2,0,L|132:117,1,60,2|0,0:3|0:0,0:0:0:0:
256,192,164568,21,4,3:3:0:0:
296,89,164719,2,0,L|380:117,1,60,2|0,0:3|0:0,0:0:0:0:
256,192,164870,5,0,3:0:0:0:
256,192,164945,12,0,165770,0:0:0:0:
256,192,166070,6,2,B|270:224|270:224|370:189|339:64|339:64|290:79,1,270.000010299683,6|0,3:1|0:1,0:1:0:0:
175,175,166370,2,2,L|464:126,1,270.000010299683,2|0,1:1|0:1,0:1:0:0:
500,239,166670,22,0,B|482:247|482:247|415:206,1,90.0000034332277,2|0,3:0|0:0,0:0:0:0:
301,75,166820,1,2,0:3:0:0:
283,59,166895,1,2,0:0:0:0:
265,43,166970,2,0,L|244:140,1,90.0000034332277,2|0,1:2|0:0,0:0:0:0:
289,235,167120,2,0,B|282:259|282:259|165:307,1,135.000005149841,2|0,0:3|0:0,0:0:0:0:
175,314,167270,6,0,B|152:303|152:303|200:238,1,90.0000034332277,2|0,3:0|0:0,0:0:0:0:
80,216,167420,2,0,L|21:85,1,135.000005149841,2|0,0:3|0:0,0:0:0:0:
12,88,167570,22,0,B|33:73|33:73|125:112,1,90.0000034332277,2|0,1:2|0:0,0:0:0:0:
245,130,167720,1,2,0:3:0:0:
278,117,167795,1,2,0:0:0:0:
311,104,167870,5,2,3:0:0:0:
293,149,167945,1,2,0:0:0:0:
275,194,168020,1,2,0:3:0:0:
257,239,168095,1,2,0:0:0:0:
239,284,168170,2,0,L|344:258,1,90.0000034332277,2|0,1:2|0:0,0:0:0:0:
486,112,168320,22,0,L|401:133,1,60,4|0,0:3|0:0,0:0:0:0:
427,126,168470,6,0,B|402:114|402:114|444:32,1,90.0000034332277,2|0,3:2|0:0,0:0:0:0:
332,17,168620,2,0,B|357:29|357:29|315:111,1,90.0000034332277,2|0,3:2|0:0,0:0:0:0:
260,193,168770,22,2,B|172:225|172:225|151:302|151:302|53:333,1,270.000010299683,0|0,1:0|0:0,0:1:0:0:
22,202,169070,2,0,B|58:195|58:195|107:268,1,90.0000034332277,2|0,3:0|0:0,0:0:0:0:
217,373,169220,2,0,L|244:265,1,90.0000034332277,2|0,0:3|0:0,0:0:0:0:
205,130,169370,6,0,L|109:101,1,90.0000034332277,2|0,1:2|0:0,0:0:0:0:
336,225,169520,1,2,0:3:0:0:
354,208,169595,1,2,0:0:0:0:
372,191,169670,21,2,3:0:0:0:
349,154,169745,1,2,0:0:0:0:
326,117,169820,1,2,0:3:0:0:
303,80,169895,1,2,0:0:0:0:
280,43,169970,5,2,1:2:0:0:
337,71,170045,1,2,0:0:0:0:
394,99,170120,1,2,0:3:0:0:
451,127,170195,1,2,0:0:0:0:
508,155,170270,22,0,B|510:175|510:175|431:229,1,90.0000034332277,2|0,3:0|0:0,0:0:0:0:
318,351,170420,1,2,3:3:0:0:
298,307,170495,1,2,3:0:0:0:
278,263,170570,2,0,L|173:235,1,90.0000034332277,2|0,1:2|0:0,0:0:0:0:
71,239,170720,6,4,L|2:271,1,60,6|4,0:3|0:3,0:3:0:0:
16,264,170870,22,2,B|18:327|88:335|88:335|78:241|144:173,1,270.000010299683,6|0,3:1|0:1,0:1:0:0:
194,144,171170,2,0,B|200:127|200:127|113:104,1,90.0000034332277,2|0,1:0|0:0,0:0:0:0:
22,22,171320,2,0,B|-1:24|-6:59|-6:59|7:38|36:29,1,90.0000034332277,2|0,0:3|0:0,0:0:0:0:
130,187,171470,6,0,L|332:147,1,180.000006866455,2|2,3:0|0:3,0:0:0:0:
386,62,171695,1,2,0:0:0:0:
386,62,171770,2,0,B|410:74|410:74|379:149,1,90.0000034332277,2|0,1:2|0:0,0:0:0:0:
307,260,171920,2,0,B|284:273|284:273|352:291|384:342,1,135.000005149841,2|0,0:3|0:0,0:0:0:0:
379,341,172070,22,0,P|426:312|470:289,1,90.0000034332277,2|0,3:0|0:0,0:0:0:0:
307,260,172220,2,0,L|165:211,1,135.000005149841,2|0,0:3|0:0,0:0:0:0:
169,204,172370,6,0,B|155:204|155:204|131:247,2,45.0000017166138,2|0|0,1:2|0:0|0:0,0:0:0:0:
250,193,172520,2,0,B|261:181|261:181|197:108,1,90.0000034332277,2|0,0:3|0:0,0:0:0:0:
56,87,172670,21,2,3:0:0:0:
71,71,172745,1,2,0:0:0:0:
88,56,172820,1,2,0:3:0:0:
105,40,172895,1,2,0:0:0:0:
122,26,172970,5,2,1:2:0:0:
107,76,173045,1,2,0:0:0:0:
92,126,173120,1,2,0:3:0:0:
77,177,173195,1,2,0:0:0:0:
62,227,173270,22,0,B|66:246|66:246|136:249|176:291,1,135.000005149841,2|0,3:0|0:0,0:0:0:0:
187,288,173420,2,0,P|199:249|243:231,1,90.0000034332277,2|0,0:3|0:0,0:0:0:0:
388,240,173570,6,0,P|368:178|305:164,1,135.000005149841,2|0,1:2|0:0,0:0:0:0:
290,170,173720,2,0,B|276:164|276:164|295:79,1,90.0000034332277,2|0,0:3|0:0,0:0:0:0:
423,16,173870,22,2,L|474:223,1,180,2|0,3:1|0:1,0:1:0:0:
456,267,174170,6,2,B|430:256|430:256|520:78|520:78|468:62,1,270.000010299683,2|0,1:1|0:1,0:1:0:0:
290,170,174470,22,2,B|191:203|191:203|220:85,1,180.000006866455,2|0,3:1|0:1,0:1:0:0:
325,98,174695,1,2,3:0:0:0:
325,98,174770,2,0,B|351:102|351:102|380:174,1,90.0000034332277,2|0,1:0|0:0,0:0:0:0:
359,291,174920,2,0,L|257:251,1,90.0000034332277,2|0,0:3|0:0,0:0:0:0:
125,161,175070,6,0,B|100:162|100:162|53:255,1,90.0000034332277,2|0,1:0|0:0,0:0:0:0:
3,384,175220,2,0,L|114:352,1,90.0000034332277,2|0,3:3|0:0,0:0:0:0:
194,299,175370,21,2,1:0:0:0:
174,267,175445,1,2,3:0:0:0:
154,235,175520,1,2,3:3:0:0:
359,291,175670,21,4,3:2:0:0:
455,337,175820,5,2,0:3:0:0:
449,328,176120,1,2,0:3:0:0:
443,319,176420,1,2,0:3:0:0:
437,310,176720,1,2,0:3:0:0:
496,175,176870,21,4,0:3:0:0:
397,118,177020,5,2,0:3:0:0:
391,127,177320,1,2,0:3:0:0:
385,136,177620,1,2,0:3:0:0:
379,145,177920,1,2,0:3:0:0:
233,33,178070,22,0,B|151:51|151:51|191:130,1,143.999995605469,6|0,3:1|0:0,0:0:0:0:
211,250,178295,2,0,B|235:240|235:240|260:98,1,143.999995605469,6|0,3:1|0:0,0:0:0:0:
164,189,178520,2,0,B|119:143|57:142|57:142|87:122,1,143.999995605469,6|0,3:1|0:0,0:0:0:0:
94,32,178745,5,4,3:2:0:0:
115,45,178820,1,4,3:2:0:0:
127,66,178895,1,4,3:2:0:0:
76,128,178970,22,0,P|162:77|232:63,1,143.999995605469,6|0,3:1|3:0,0:0:0:0:
273,20,179195,1,4,3:2:0:0:
273,20,179270,6,0,L|415:57,1,143.999995605469,6|0,3:1|0:0,0:0:0:0:
348,166,179495,2,0,B|362:198|362:198|397:131|466:121,1,143.999995605469,6|0,3:1|0:0,0:0:0:0:
273,188,179720,2,0,B|252:193|252:193|198:129,1,71.9999978027344,6|0,3:1|0:0,0:0:0:0:
147,126,179870,22,0,B|142:108|142:108|210:72,1,71.9999978027344,6|0,3:1|0:0,0:0:0:0:
95,251,180020,2,0,B|100:269|100:269|32:305,1,71.9999978027344,6|0,3:1|0:0,0:0:0:0:
83,172,180170,6,0,L|33:151,4,35.9999989013672,4|0|0|0|0,3:2|3:0|3:0|3:0|3:0,0:0:0:0:
160,207,180395,1,0,3:0:0:0:
160,207,180470,22,0,L|207:335,1,120,4|0,3:2|3:0,0:0:0:0:
334,240,180770,1,2,3:0:0:0:
273,363,180920,1,2,3:0:0:0:
256,149,181070,5,2,3:0:0:0:
342,319,181220,1,2,3:0:0:0:
507,92,181370,21,0,3:0:0:0:
425,328,181520,1,2,3:0:0:0:
512,178,181670,6,0,P|458:156|389:120,1,120,4|2,3:2|3:0,0:0:0:0:
240,137,181970,1,2,3:0:0:0:
402,46,182120,1,2,3:0:0:0:
170,26,182270,21,2,3:0:0:0:
347,185,182420,1,2,3:0:0:0:
155,265,182570,5,0,3:0:0:0:
328,19,182720,1,2,3:0:0:0:
28,154,182870,21,4,3:2:0:0:
50,156,182945,1,0,3:0:0:0:
72,160,183020,1,2,3:0:0:0:
94,165,183095,1,0,3:0:0:0:
116,170,183170,1,2,3:0:0:0:
137,177,183245,1,0,3:0:0:0:
159,184,183320,1,2,3:0:0:0:
180,192,183395,1,0,3:0:0:0:
200,201,183470,5,6,3:2:0:0:
213,230,183545,1,0,3:0:0:0:
241,257,183620,1,2,3:0:0:0:
287,270,183695,1,0,3:0:0:0:
334,249,183770,1,0,3:0:0:0:
360,198,183845,1,0,3:0:0:0:
352,138,183920,1,2,3:0:0:0:
389,80,183995,1,0,3:0:0:0:
465,72,184070,22,0,P|490:103|492:146,14,60,6|0|0|0|2|0|0|0|2|0|0|0|2|0|0,3:2|3:0|3:0|3:0|3:0|3:0|3:0|3:0|3:0|3:0|3:0|3:0|3:0|3:0|3:0,0:0:0:0:
389,80,184670,6,0,P|378:100|339:130,6,45.0000017166138,6|0|0|0|2|0|0,3:2|3:0|3:0|3:0|3:0|3:0|3:0,0:0:0:0:
342,18,184970,22,0,P|324:17|292:-1,6,30,2|0|0|0|2|0|0,3:0|0:0|0:0|0:0|0:0|0:0|0:0,0:0:0:0:
419,10,185270,5,4,0:2:0:0:
256,192,187670,12,0,189770,1:0:0:0:
419,10,190070,6,0,B|399:17|399:17|355:243,1,180.000006866455,6|0,3:1|0:3,0:0:0:0:
400,248,190295,1,2,0:0:0:0:
400,248,190370,2,0,B|381:261|381:261|286:216,1,90.0000034332277,8|0,3:1|0:0,0:0:0:0:
232,109,190520,2,0,L|108:152,1,90.0000034332277,2|0,0:3|0:0,0:0:0:0:
49,307,190670,1,0,3:0:0:0:
49,307,190745,1,2,0:0:0:0:
49,307,190820,2,0,B|9:288|9:288|17:190,1,90.0000034332277,2|0,0:3|0:0,0:0:0:0:
92,243,190970,6,0,P|183:268|208:390,1,180.000006866455,10|0,3:1|0:3,0:0:0:0:
297,373,191195,1,2,0:0:0:0:
297,373,191270,2,0,P|309:317|328:260,1,90.0000034332277,0|0,3:0|0:0,0:0:0:0:
211,42,191420,2,0,B|181:60|181:60|218:134,1,90.0000034332277,2|0,0:3|0:0,0:0:0:0:
258,224,191570,2,0,P|309:205|365:191,1,90.0000034332277,8|0,3:1|0:0,0:0:0:0:
447,70,191720,2,0,B|479:57|477:36|477:36|447:41|438:84,1,90.0000034332277,2|0,0:3|0:0,0:0:0:0:
407,148,191870,22,0,B|386:109|311:97|311:97|379:46,1,180.000006866455,2|0,3:1|0:3,0:0:0:0:
240,20,192095,1,2,0:0:0:0:
240,20,192170,2,0,B|211:35|211:35|251:137,1,90.0000034332277,8|0,3:1|0:0,0:0:0:0:
160,214,192320,2,0,P|133:223|67:248,1,90.0000034332277,2|0,0:3|0:0,0:0:0:0:
16,195,192470,5,2,3:0:0:0:
149,346,192620,2,0,B|186:357|186:357|229:310,1,90.0000034332277,2|0,0:3|0:0,0:0:0:0:
160,214,192770,2,0,P|140:176|110:117,1,90.0000034332277,8|0,3:1|0:0,0:0:0:0:
308,68,192920,2,0,B|347:47|347:47|301:103,1,90.0000034332277,2|0,0:3|0:0,0:0:0:0:
231,88,193070,22,0,L|34:26,1,180.000006866455,2|0,3:1|0:3,0:0:0:0:
11,97,193295,1,2,0:0:0:0:
11,97,193370,2,0,L|52:183,1,90.0000034332277,8|0,3:1|0:0,0:0:0:0:
44,327,193520,2,0,B|58:306|58:306|143:270,1,90.0000034332277,2|0,0:3|0:0,0:0:0:0:
291,320,193670,5,0,3:0:0:0:
291,320,193745,1,2,0:0:0:0:
291,320,193820,2,0,L|319:211,1,90.0000034332277,2|0,0:3|0:0,0:0:0:0:
205,221,193970,2,0,B|174:221|174:221|127:146,1,90.0000034332277,8|0,3:1|0:0,0:0:0:0:
209,70,194120,2,0,L|310:31,1,90.0000034332277,2|0,0:3|0:0,0:0:0:0:
262,133,194270,22,0,L|53:54,1,180.000006866455,2|0,3:1|0:3,0:0:0:0:
30,191,194495,1,2,0:0:0:0:
30,191,194570,2,0,B|20:233|20:233|170:156,1,180.000006866455,8|2,3:1|0:3,0:0:0:0:
141,170,194870,6,0,B|179:191|179:191|133:336,1,180.000006866455,2|0,3:1|0:3,0:0:0:0:
220,342,195095,1,2,0:0:0:0:
220,342,195170,2,0,B|239:346|239:346|313:298,1,90.0000034332277,8|0,3:1|0:0,0:0:0:0:
450,163,195320,2,0,L|336:141,1,90.0000034332277,2|0,0:3|0:0,0:0:0:0:
267,22,195470,1,0,3:0:0:0:
267,22,195545,1,2,0:0:0:0:
267,22,195620,2,0,B|291:0|291:0|373:39,1,90.0000034332277,2|0,0:3|0:0,0:0:0:0:
301,88,195770,22,0,L|386:317,1,180.000006866455,10|0,3:1|0:3,0:0:0:0:
428,327,195995,1,2,0:0:0:0:
428,327,196070,2,0,P|443:274|461:212,1,90.0000034332277,0|0,3:0|0:0,0:0:0:0:
254,197,196220,2,0,B|218:199|218:199|155:134,1,90.0000034332277,2|0,0:3|0:0,0:0:0:0:
301,88,196370,2,0,P|340:97|405:107,1,90.0000034332277,8|0,3:1|0:0,0:0:0:0:
241,340,196520,2,0,B|206:365|206:365|240:307,1,90.0000034332277,2|0,0:3|0:0,0:0:0:0:
319,323,196670,6,0,P|248:295|122:241,1,180.000006866455,2|0,3:1|0:3,0:0:0:0:
97,309,196895,1,2,0:0:0:0:
97,309,196970,2,0,B|69:302|69:302|33:218,1,90.0000034332277,8|0,3:1|0:0,0:0:0:0:
0,115,197120,2,0,L|91:75,1,90.0000034332277,2|0,0:3|0:0,0:0:0:0:
163,19,197270,21,0,3:0:0:0:
163,19,197345,1,2,0:0:0:0:
163,19,197420,2,0,B|189:33|189:33|139:136,1,90.0000034332277,2|0,0:3|0:0,0:0:0:0:
300,191,197570,6,0,B|365:172|365:172|394:125|394:125|487:142,1,180.000006866455,10|0,3:1|0:3,0:0:0:0:
438,217,197795,1,2,0:0:0:0:
438,217,197870,2,0,L|408:329,1,90.0000034332277,0|0,3:0|0:0,0:0:0:0:
312,106,198020,2,0,L|261:11,1,90.0000034332277,2|0,0:3|0:0,0:0:0:0:
143,201,198170,21,8,3:1:0:0:
143,201,198245,2,0,B|73:179|73:179|146:153|160:97,1,180.000006866455,2|0,0:1|0:0,0:0:0:0:
217,170,198470,5,2,3:0:0:0:
261,170,198545,1,2,0:0:0:0:
300,191,198620,1,2,0:3:0:0:
328,226,198695,1,2,0:0:0:0:
336,270,198770,2,0,L|271:285,1,60,8|0,3:1|0:0,0:0:0:0:
435,354,198920,2,0,L|463:270,1,60,2|0,0:3|0:0,0:0:0:0:
393,175,199070,21,2,3:0:0:0:
393,131,199145,1,2,0:0:0:0:
414,92,199220,1,2,0:3:0:0:
449,64,199295,1,2,3:0:0:0:
493,56,199370,2,0,L|508:121,1,60,2|0,3:0|0:0,0:0:0:0:
309,17,199520,1,2,3:3:0:0:
475,185,199670,6,2,L|371:167,1,90,2|2,0:1|0:1,0:1:0:0:
386,169,199970,22,0,B|360:187|360:187|399:260,1,90.0000034332277,12|0,3:1|0:0,0:0:0:0:
319,326,200120,2,0,P|281:338|232:363,1,90.0000034332277,2|0,0:3|0:0,0:0:0:0:
66,332,200270,1,0,3:0:0:0:
66,332,200345,1,2,0:0:0:0:
66,332,200420,2,0,B|45:320|45:320|93:233,1,90.0000034332277,2|0,0:3|0:0,0:0:0:0:
158,243,200570,6,0,P|57:193|59:127,1,180.000006866455,10|0,3:1|0:3,0:0:0:0:
32,45,200795,1,2,0:0:0:0:
32,45,200870,2,0,P|76:63|124:77,1,90.0000034332277,0|0,3:0|0:0,0:0:0:0:
259,152,201020,2,0,B|274:136|274:136|253:50,1,90.0000034332277,2|0,0:3|0:0,0:0:0:0:
427,49,201170,2,0,P|386:66|339:94,1,90.0000034332277,8|0,3:1|0:0,0:0:0:0:
185,117,201320,2,0,B|170:133|170:133|191:219,1,90.0000034332277,2|0,0:3|0:0,0:0:0:0:
113,233,201470,22,0,P|219:261|362:313,1,180.000006866455,2|0,3:1|0:3,0:0:0:0:
321,356,201695,1,2,0:0:0:0:
321,356,201770,2,0,B|353:349|353:349|376:273,1,90.0000034332277,8|0,3:1|0:0,0:0:0:0:
500,222,201920,2,0,P|480:184|461:128,1,90.0000034332277,2|0,0:3|0:0,0:0:0:0:
512,77,202070,5,2,3:0:0:0:
410,219,202220,1,2,0:3:0:0:
410,219,202295,1,0,0:0:0:0:
410,219,202370,2,0,P|364:196|301:186,1,90.0000034332277,8|0,3:1|0:0,0:0:0:0:
236,98,202520,2,0,B|208:80|208:80|235:15,1,90.0000034332277,2|0,0:3|0:0,0:0:0:0:
316,110,202670,22,0,P|250:125|108:179,1,180.000006866455,2|0,3:1|0:3,0:0:0:0:
66,160,202895,1,2,0:0:0:0:
66,160,202970,2,0,B|58:130|58:130|132:67,1,90.0000034332277,8|0,3:1|0:0,0:0:0:0:
245,271,203120,2,0,P|232:304|220:373,1,90.0000034332277,2|0,0:3|0:0,0:0:0:0:
56,289,203270,5,0,3:0:0:0:
56,289,203345,1,2,0:0:0:0:
56,289,203420,2,0,L|167:310,1,90.0000034332277,2|0,0:3|0:0,0:0:0:0:
396,354,203570,2,0,L|285:333,1,90.0000034332277,8|0,3:1|0:0,0:0:0:0:
190,214,203720,2,0,B|163:201|163:201|190:125,1,90.0000034332277,2|0,0:3|0:0,0:0:0:0:
246,89,203870,22,0,L|43:144,1,180.000006866455,2|0,3:1|0:3,0:0:0:0:
258,169,204095,1,2,0:0:0:0:
258,169,204170,2,0,B|283:170|283:170|351:218,1,90.0000034332277,8|0,3:1|0:0,0:0:0:0:
458,87,204320,2,0,P|473:43|513:-6,1,90.0000034332277,2|0,0:3|0:0,0:0:0:0:
378,82,204470,6,0,P|408:90|480:237,1,180.000006866455,6|0,3:1|0:3,0:0:0:0:
361,314,204695,1,2,0:0:0:0:
361,314,204770,2,0,P|385:270|443:255,1,90.0000034332277,8|0,3:1|0:0,0:0:0:0:
258,169,204920,2,0,P|245:119|230:64,1,90.0000034332277,2|0,0:3|0:0,0:0:0:0:
94,6,205070,1,0,3:0:0:0:
94,6,205145,1,2,0:0:0:0:
94,6,205220,2,0,B|63:21|63:21|102:99,1,90.0000034332277,2|0,0:3|0:0,0:0:0:0:
163,42,205370,22,0,L|397:105,1,180.000006866455,10|0,3:1|0:3,0:0:0:0:
362,166,205595,1,2,0:0:0:0:
362,166,205670,2,0,B|387:162|387:162|424:101,1,90.0000034332277,4|0,3:2|0:0,0:0:0:0:
170,264,205820,2,0,L|219:372,1,90.0000034332277,2|0,0:3|0:0,0:0:0:0:
370,377,205970,2,0,B|401:367|401:367|381:299,1,90.0000034332277,8|0,3:1|0:0,0:0:0:0:
224,197,206120,2,0,L|109:169,1,90.0000034332277,2|0,0:3|0:0,0:0:0:0:
9,161,206270,6,0,B|52:177|52:177|201:81,1,180.000006866455,2|0,3:1|0:3,0:0:0:0:
63,35,206495,1,2,0:0:0:0:
63,35,206570,2,0,B|20:47|20:47|62:130,1,90.0000034332277,8|0,3:1|0:0,0:0:0:0:
95,246,206720,2,0,L|63:354,1,90.0000034332277,2|0,0:3|0:0,0:0:0:0:
6,258,206870,21,6,3:2:0:0:
199,384,207020,2,0,L|160:280,1,90.0000034332277,2|0,0:3|0:0,0:0:0:0:
341,266,207170,2,0,L|414:38,1,180.000006866455,10|0,3:1|0:3,0:0:0:0:
336,39,207395,1,2,0:0:0:0:
336,39,207470,2,0,L|230:96,1,90.0000034332277,4|0,3:2|0:0,0:0:0:0:
98,137,207620,2,0,B|51:134|51:134|31:40,1,90.0000034332277,2|0,0:3|0:0,0:0:0:0:
117,62,207770,5,8,3:1:0:0:
117,62,207845,2,0,P|196:81|225:211,1,180.000006866455,2|0,0:1|0:0,0:0:0:0:
298,213,208070,21,6,3:2:0:0:
342,213,208145,1,2,0:0:0:0:
381,192,208220,1,2,0:3:0:0:
409,157,208295,1,2,0:0:0:0:
417,113,208370,2,0,L|352:98,1,60,8|0,0:1|0:0,0:0:0:0:
270,1,208520,2,0,L|298:74,1,60,2|0,0:3|0:0,0:0:0:0:
236,164,208670,5,2,0:0:0:0:
209,223,208745,1,2,0:0:0:0:
162,249,208820,1,2,0:3:0:0:
109,244,208895,1,2,0:0:0:0:
79,215,208970,1,2,1:0:0:0:
77,179,209045,1,2,0:0:0:0:
96,159,209120,1,2,0:0:0:0:
122,153,209195,1,2,0:0:0:0:
136,161,209270,22,0,P|95:288|84:341,1,180.000006866455,6|0,3:1|0:3,0:0:0:0:
169,349,209495,1,2,0:0:0:0:
169,349,209570,2,0,B|181:364|181:364|271:324,1,90.0000034332277,8|0,3:1|0:0,0:0:0:0:
320,226,209720,2,0,L|284:134,1,90.0000034332277,2|0,0:3|0:0,0:0:0:0:
414,23,209870,1,0,3:0:0:0:
414,23,209945,1,2,0:0:0:0:
414,23,210020,2,0,B|440:12|440:12|509:82,1,90.0000034332277,2|0,0:3|0:0,0:0:0:0:
413,102,210170,6,0,L|216:42,1,180.000006866455,10|0,3:1|0:3,0:0:0:0:
163,75,210395,1,2,0:0:0:0:
163,75,210470,2,0,B|145:51|145:51|25:72,1,90.0000034332277,0|0,3:0|0:0,0:0:0:0:
43,250,210620,2,0,B|29:279|29:279|96:328,1,90.0000034332277,2|0,0:3|0:0,0:0:0:0:
279,341,210770,2,0,P|289:291|304:242,1,90.0000034332277,8|0,3:1|0:0,0:0:0:0:
243,142,210920,21,2,0:3:0:0:
198,146,210995,1,2,0:0:0:0:
159,168,211070,1,2,3:0:0:0:
133,204,211145,1,2,0:0:0:0:
124,248,211220,2,0,P|182:261|239:279,1,90.0000034332277,2|0,0:3|0:0,0:0:0:0:
276,71,211370,2,0,B|306:76|306:76|334:152,1,90.0000034332277,8|0,3:1|0:0,0:0:0:0:
480,242,211520,2,0,P|491:197|513:145,1,90.0000034332277,2|0,0:3|0:0,0:0:0:0:
454,95,211670,6,0,P|382:117|348:217,1,180.000006866455,2|2,3:1|0:3,0:0:0:0:
409,275,211895,1,0,0:0:0:0:
409,275,211970,2,0,P|370:286|308:311,1,90.0000034332277,8|0,3:1|0:0,0:0:0:0:
165,221,212120,2,0,B|137:213|137:213|97:128,1,90.0000034332277,2|0,0:3|0:0,0:0:0:0:
195,150,212270,22,0,L|22:78,1,180.000006866455,2|0,3:1|0:3,0:0:0:0:
246,88,212495,1,2,0:0:0:0:
246,88,212570,2,0,L|353:45,1,90.0000034332277,8|0,3:1|0:0,0:0:0:0:
165,221,212720,2,0,L|114:327,1,90.0000034332277,2|0,0:3|0:0,0:0:0:0:
256,373,212870,5,0,3:0:0:0:
256,373,212945,1,2,0:0:0:0:
256,373,213020,2,0,B|296:364|296:364|333:296,1,90.0000034332277,2|0,0:3|0:0,0:0:0:0:
165,221,213170,2,0,L|41:175,1,90.0000034332277,8|0,3:1|0:0,0:0:0:0:
0,75,213320,2,0,B|35:67|35:67|78:144,1,90.0000034332277,2|0,0:3|0:0,0:0:0:0:
237,183,213470,21,2,3:0:0:0:
282,179,213545,1,2,0:0:0:0:
321,157,213620,1,2,0:3:0:0:
347,121,213695,1,2,0:0:0:0:
356,77,213770,2,0,P|298:64|241:46,1,90.0000034332277,8|0,3:1|0:0,0:0:0:0:
434,174,213920,2,0,B|470:180|470:180|479:244,1,90.0000034332277,2|0,0:3|0:0,0:0:0:0:
393,240,214070,6,0,L|457:40,1,180.000006866455,2|0,3:1|0:3,0:0:0:0:
394,10,214295,1,2,0:0:0:0:
394,10,214370,2,0,B|378:-3|378:-3|262:74,1,90.0000034332277,8|0,3:1|0:0,0:0:0:0:
252,173,214520,2,0,L|141:130,1,90.0000034332277,2|0,0:3|0:0,0:0:0:0:
64,81,214670,1,0,3:0:0:0:
64,81,214745,1,2,0:0:0:0:
64,81,214820,2,0,B|32:76|32:76|54:3,1,90.0000034332277,2|0,0:3|0:0,0:0:0:0:
130,38,214970,22,0,P|102:90|75:269,1,180.000006866455,10|0,3:1|0:3,0:0:0:0:
34,296,215195,1,2,0:0:0:0:
34,296,215270,2,0,B|45:306|45:306|167:246,1,90.0000034332277,0|0,3:0|0:0,0:0:0:0:
280,348,215420,2,0,L|225:264,1,90.0000034332277,2|0,0:3|0:0,0:0:0:0:
280,138,215570,2,0,B|302:102|302:102|214:167,1,90.0000034332277,8|0,3:1|0:0,0:0:0:0:
171,215,215720,1,2,0:3:0:0:
350,288,215870,5,2,3:0:0:0:
350,288,215945,1,2,0:0:0:0:
350,288,216020,2,0,P|370:183|402:76,1,180.000006866455,2|8,0:1|3:1,0:0:0:0:
67,2,216320,2,0,P|97:54|110:114,1,90.0000034332277,2|0,0:3|0:0,0:0:0:0:
86,159,216470,21,2,3:0:0:0:
86,159,216545,1,2,0:0:0:0:
86,159,216620,2,0,B|105:170|105:170|190:127,1,90.0000034332277,2|0,0:3|0:0,0:0:0:0:
389,112,216770,2,0,B|395:88|395:88|351:33,1,90.0000034332277,8|0,3:1|0:0,0:0:0:0:
220,200,216920,2,0,L|186:312,1,90.0000034332277,2|0,0:3|0:0,0:0:0:0:
287,258,217070,6,0,P|332:244|408:226,1,90.0000034332277,2|0,3:0|0:0,0:0:0:0:
310,108,217220,1,2,0:3:0:0:
310,108,217295,2,0,P|276:85|178:62,1,90.0000034332277,2|8,0:0|3:1,0:0:0:0:
178,8,217445,1,2,0:0:0:0:
178,8,217520,2,0,B|147:24|147:24|147:95,1,90.0000034332277,2|0,0:3|0:0,0:0:0:0:
122,225,217670,21,2,3:0:0:0:
78,221,217745,1,2,0:0:0:0:
41,196,217820,1,2,0:3:0:0:
16,159,217895,1,2,0:0:0:0:
12,115,217970,2,0,L|78:105,1,60,8|0,3:1|0:0,0:0:0:0:
216,217,218120,2,0,L|188:301,1,60,2|0,0:3|0:0,0:0:0:0:
311,339,218270,5,2,3:0:0:0:
363,376,218345,1,2,0:0:0:0:
417,374,218420,1,2,0:3:0:0:
460,344,218495,1,2,3:0:0:0:
472,303,218570,1,2,3:0:0:0:
456,271,218645,1,2,0:0:0:0:
429,264,218720,1,2,3:3:0:0:
407,273,218795,1,2,0:0:0:0:
398,285,218870,22,0,P|363:273|341:223,1,90,2|0,0:1|0:0,0:0:0:0:
340,227,219170,6,4,B|361:207|361:207|327:128,1,90.0000034332277,8|0,3:1|0:0,0:2:0:0:
103,59,219320,2,0,L|202:39,1,90.0000034332277,2|0,0:3|0:0,0:0:0:0:
148,278,219470,1,0,3:0:0:0:
148,278,219545,1,2,0:0:0:0:
148,278,219620,2,0,B|113:290|113:290|44:207,1,90.0000034332277,2|0,0:3|0:0,0:0:0:0:
175,358,219770,22,0,P|193:261|223:143,1,180.000006866455,10|0,3:1|0:3,0:0:0:0:
324,106,219995,1,2,0:0:0:0:
324,106,220070,2,0,B|338:135|338:135|264:202,1,90.0000034332277,0|0,3:0|0:0,0:0:0:0:
103,59,220220,2,0,P|69:41|6:12,1,90.0000034332277,2|0,0:3|0:0,0:0:0:0:
263,42,220370,2,0,P|306:22|358:-10,1,90.0000034332277,8|0,3:1|0:0,0:0:0:0:
131,134,220520,5,2,0:3:0:0:
127,179,220595,1,2,0:0:0:0:
105,218,220670,1,2,3:0:0:0:
69,244,220745,1,2,0:0:0:0:
25,253,220820,2,0,P|12:195|-6:138,1,90.0000034332277,2|0,0:3|0:0,0:0:0:0:
224,211,220970,2,0,P|210:251|198:318,1,90.0000034332277,8|0,3:1|0:0,0:0:0:0:
386,88,221120,2,0,B|407:68|407:68|355:-27,1,90.0000034332277,2|0,0:3|0:0,0:0:0:0:
304,72,221270,22,0,P|361:100|405:215,1,180.000006866455,2|2,3:1|0:3,0:0:0:0:
473,259,221495,1,0,0:0:0:0:
473,259,221570,2,0,P|423:276|369:303,1,90.0000034332277,8|0,3:1|0:0,0:0:0:0:
269,139,221720,2,0,B|239:135|239:135|207:62,1,90.0000034332277,2|0,0:3|0:0,0:0:0:0:
143,260,221870,6,0,B|132:331|57:355|57:355|80:240,1,180.000006866455,2|0,3:1|0:3,0:0:0:0:
57,234,222095,1,2,0:0:0:0:
57,234,222170,2,0,B|27:199|27:199|79:225,1,90.0000034332277,8|0,3:1|0:0,0:0:0:0:
193,353,222320,2,0,B|217:354|217:354|245:269,1,90.0000034332277,2|0,0:3|0:0,0:0:0:0:
328,195,222470,21,2,3:0:0:0:
132,50,222620,2,0,L|172:147,1,90.0000034332277,2|0,0:3|0:0,0:0:0:0:
316,282,222770,2,0,L|503:201,1,180.000006866455,10|0,3:1|0:3,0:0:0:0:
495,295,222995,1,0,0:0:0:0:
495,295,223070,2,0,B|506:316|506:316|446:374,1,90.0000034332277,2|0,3:0|0:0,0:0:0:0:
278,350,223220,5,2,0:3:0:0:
233,346,223295,1,2,0:0:0:0:
194,324,223370,1,8,3:1:0:0:
168,288,223445,1,2,0:0:0:0:
159,244,223520,2,0,P|217:231|274:213,1,90.0000034332277,2|0,0:3|0:0,0:0:0:0:
384,113,223670,22,0,B|316:141|259:146|259:146|301:159|315:181,1,180.000006866455,6|0,3:1|0:3,0:0:0:0:
323,256,223895,1,2,0:0:0:0:
323,256,223970,2,0,B|349:258|349:258|385:189,1,90.0000034332277,8|0,3:1|0:0,0:0:0:0:
278,66,224120,2,0,P|228:57|180:48,1,90.0000034332277,2|0,0:3|0:0,0:0:0:0:
66,151,224270,1,0,3:0:0:0:
66,151,224345,1,2,0:0:0:0:
66,151,224420,2,0,B|26:143|26:143|32:34,1,90.0000034332277,2|0,0:3|0:0,0:0:0:0:
137,109,224570,6,0,P|97:165|62:291,1,180.000006866455,10|0,3:1|0:3,0:0:0:0:
64,351,224795,1,2,0:0:0:0:
64,351,224870,2,0,B|35:357|35:357|-18:285,1,90.0000034332277,4|0,3:2|0:0,0:0:0:0:
227,307,225020,2,0,P|235:260|261:202,1,90.0000034332277,2|0,0:3|0:0,0:0:0:0:
137,109,225170,2,0,B|132:139|132:139|201:188,1,90.0000034332277,8|0,3:1|0:0,0:0:0:0:
319,273,225320,1,2,0:3:0:0:
221,99,225470,21,2,3:0:0:0:
221,99,225545,1,2,0:0:0:0:
221,99,225620,2,0,P|317:72|402:45,1,180.000006866455,2|8,0:1|3:1,0:0:0:0:
457,325,225920,2,0,B|422:316|422:316|410:218,1,90.0000034332277,2|0,0:3|0:0,0:0:0:0:
466,188,226070,5,4,3:2:0:0:
466,188,226145,1,2,0:0:0:0:
466,188,226220,2,0,P|407:175|360:153,1,90.0000034332277,2|0,0:3|0:0,0:0:0:0:
146,322,226370,2,0,P|205:309|252:287,1,90.0000034332277,8|0,3:1|0:0,0:0:0:0:
285,33,226520,2,0,B|316:43|316:43|340:136,1,90.0000034332277,2|0,0:3|0:0,0:0:0:0:
303,352,226670,22,0,P|314:295|326:239,1,90.0000034332277,6|0,3:2|0:0,0:0:0:0:
191,25,226820,1,2,0:3:0:0:
191,25,226895,2,0,P|210:70|226:118,1,90.0000034332277,2|8,0:0|3:1,0:0:0:0:
79,284,227045,1,2,0:0:0:0:
79,284,227120,2,0,P|98:239|114:191,1,90.0000034332277,2|0,0:3|0:0,0:0:0:0:
110,44,227270,5,6,3:2:0:0:
66,48,227345,1,2,0:0:0:0:
29,73,227420,1,2,0:3:0:0:
4,110,227495,1,2,0:0:0:0:
0,154,227570,2,0,P|15:191|23:214,1,60,8|0,0:1|0:0,0:0:0:0:
171,268,227720,2,0,P|211:249|254:230,1,60,2|0,0:3|0:0,0:0:0:0:
346,181,227870,21,2,0:0:0:0:
373,122,227945,1,2,0:0:0:0:
420,96,228020,1,2,0:3:0:0:
473,101,228095,1,2,0:0:0:0:
503,130,228170,1,2,1:0:0:0:
505,166,228245,1,2,0:0:0:0:
486,186,228320,1,2,0:3:0:0:
460,192,228395,1,2,0:0:0:0:
446,184,228470,6,0,P|417:176|370:170,1,71.9999978027344,6|0,3:2|0:0,0:0:0:0:
304,108,228620,1,2,0:3:0:0:
294,98,228695,1,0,0:0:0:0:
274,95,228770,1,8,3:2:0:0:
257,97,228845,1,0,0:0:0:0:
228,109,228920,1,2,0:3:0:0:
188,121,228995,1,0,0:0:0:0:
138,111,229070,5,0,3:0:0:0:
158,89,229145,1,0,0:0:0:0:
160,53,229220,1,2,0:3:0:0:
137,24,229295,1,0,0:0:0:0:
85,14,229370,1,8,3:2:0:0:
36,37,229445,1,0,0:0:0:0:
11,95,229520,1,2,0:3:0:0:
29,155,229595,1,0,0:0:0:0:
93,192,229670,21,2,3:2:0:0:
164,210,229745,1,0,0:0:0:0:
198,259,229820,1,2,0:3:0:0:
197,310,229895,1,0,0:0:0:0:
175,350,229970,1,8,3:2:0:0:
139,370,230045,1,0,0:0:0:0:
103,376,230120,1,2,0:3:0:0:
72,367,230195,1,0,0:0:0:0:
60,348,230270,5,0,3:0:0:0:
50,318,230345,1,0,0:0:0:0:
68,284,230420,1,2,0:3:0:0:
125,281,230495,1,0,0:0:0:0:
173,311,230570,1,10,3:2:0:0:
198,354,230645,1,0,0:0:0:0:
240,353,230720,1,2,0:3:0:0:
264,328,230795,1,0,0:0:0:0:
261,305,230870,22,0,P|305:292|346:281,1,71.9999978027344,2|0,3:2|0:0,0:0:0:0:
494,243,231020,1,2,0:3:0:0:
438,244,231095,1,0,0:0:0:0:
404,219,231170,1,8,3:2:0:0:
392,183,231245,1,0,0:0:0:0:
400,152,231320,1,2,0:3:0:0:
421,139,231395,1,0,0:0:0:0:
446,142,231470,5,0,3:0:0:0:
448,126,231545,1,0,0:0:0:0:
433,105,231620,1,2,0:3:0:0:
401,94,231695,1,0,0:0:0:0:
361,103,231770,1,8,3:2:0:0:
333,134,231845,1,0,0:0:0:0:
281,139,231920,1,2,0:3:0:0:
236,103,231995,1,0,0:0:0:0:
264,48,232070,22,0,P|236:32|198:-3,1,71.9999978027344,2|0,3:2|0:0,0:0:0:0:
108,83,232220,2,0,P|72:101|44:139,1,71.9999978027344,2|0,0:3|0:0,0:0:0:0:
142,215,232370,2,0,P|175:277|234:340,1,143.999995605469,8|2,3:2|0:3,0:0:0:0:
307,369,232595,1,0,0:0:0:0:
307,369,232670,6,0,P|336:336|383:303,1,71.9999978027344,0|0,3:0|0:0,0:0:0:0:
505,314,232820,1,2,0:3:0:0:
449,301,232895,1,0,0:0:0:0:
435,254,232970,1,8,3:2:0:0:
449,217,233045,1,0,0:0:0:0:
432,187,233120,1,2,0:3:0:0:
409,176,233195,1,0,0:0:0:0:
390,185,233270,22,0,B|369:191|369:191|330:130,1,71.9999978027344,2|0,3:2|0:0,0:0:0:0:
402,60,233420,1,2,0:3:0:0:
394,43,233495,1,0,0:0:0:0:
405,21,233570,1,8,3:2:0:0:
439,18,233645,1,0,0:0:0:0:
466,44,233720,1,2,0:3:0:0:
466,87,233795,1,0,0:0:0:0:
418,114,233870,5,0,3:0:0:0:
360,87,233945,1,0,0:0:0:0:
306,78,234020,1,2,0:3:0:0:
260,81,234095,1,0,0:0:0:0:
227,95,234170,1,8,3:2:0:0:
204,112,234245,1,0,0:0:0:0:
195,132,234320,1,2,0:3:0:0:
200,148,234395,1,0,0:0:0:0:
211,158,234470,21,2,3:2:0:0:
233,169,234545,1,0,0:0:0:0:
264,185,234620,1,2,0:3:0:0:
291,216,234695,1,0,0:0:0:0:
304,259,234770,1,8,3:2:0:0:
295,310,234845,1,0,0:0:0:0:
255,352,234920,1,2,0:3:0:0:
181,347,234995,1,0,0:0:0:0:
130,291,235070,5,0,3:0:0:0:
157,254,235145,1,0,0:0:0:0:
156,201,235220,1,2,0:3:0:0:
126,149,235295,1,0,0:0:0:0:
79,111,235370,21,10,3:2:0:0:
130,125,235445,1,0,0:0:0:0:
174,104,235520,1,2,0:3:0:0:
189,65,235595,1,0,0:0:0:0:
183,37,235670,6,0,P|138:25|86:-16,1,71.9999978027344,2|0,3:2|0:0,0:0:0:0:
250,145,235820,1,2,0:3:0:0:
285,128,235895,1,0,0:0:0:0:
316,103,235970,2,0,P|325:58|351:4,1,71.9999978027344,8|0,3:2|0:0,0:0:0:0:
446,98,236120,2,0,P|466:131|511:155,1,71.9999978027344,2|0,0:3|0:0,0:0:0:0:
286,247,236270,22,0,P|256:259|193:295,1,71.9999978027344,0|0,3:0|0:0,0:0:0:0:
331,358,236420,1,2,0:3:0:0:
388,373,236495,1,0,0:0:0:0:
431,353,236570,1,8,3:2:0:0:
449,317,236645,1,0,0:0:0:0:
443,290,236720,1,2,0:3:0:0:
424,278,236795,1,0,0:0:0:0:
405,281,236870,6,0,P|353:210|320:117,1,143.999995605469,2|2,3:2|0:3,0:0:0:0:
205,86,237095,1,0,0:0:0:0:
205,86,237170,2,0,B|169:126|169:126|230:133|277:188,1,143.999995605469,8|2,3:2|0:3,0:0:0:0:
187,383,237470,22,0,B|200:350|258:339|258:339|228:276,1,143.999995605469,2|2,3:2|0:3,0:0:0:0:
193,220,237695,2,0,P|91:246|12:295,1,143.999995605469,0|0,3:0|0:0,0:0:0:0:
0,214,237920,2,0,B|-19:188|-19:188|30:128,1,71.9999978027344,2|0,3:3|0:0,0:0:0:0:
205,86,238070,6,2,P|159:66|153:23,1,90,2|2,0:1|0:1,0:1:0:0:
151,30,238370,22,0,L|56:12,1,71.9999978027344,12|0,3:2|0:0,0:0:0:0:
7,75,238520,1,2,0:3:0:0:
34,107,238595,1,0,0:0:0:0:
67,107,238670,5,0,3:0:0:0:
54,120,238745,1,0,0:0:0:0:
46,146,238820,1,2,0:3:0:0:
46,177,238895,1,0,0:0:0:0:
63,210,238970,21,8,3:2:0:0:
86,175,239045,1,0,0:0:0:0:
119,157,239120,1,2,0:3:0:0:
171,145,239195,1,0,0:0:0:0:
239,144,239270,6,0,P|264:103|304:77,1,71.9999978027344,0|0,3:0|0:0,0:0:0:0:
459,116,239420,1,2,0:3:0:0:
495,95,239495,1,0,0:0:0:0:
510,58,239570,2,0,P|467:39|429:15,1,71.9999978027344,10|0,3:2|0:0,0:0:0:0:
324,162,239720,2,0,P|361:203|385:260,1,71.9999978027344,2|0,0:3|0:0,0:0:0:0:
505,280,239870,21,0,3:0:0:0:
471,335,239945,1,0,0:0:0:0:
420,358,240020,1,2,0:3:0:0:
377,356,240095,1,0,0:0:0:0:
349,327,240170,1,10,3:2:0:0:
320,313,240245,1,0,0:0:0:0:
289,316,240320,1,2,0:3:0:0:
275,330,240395,1,0,0:0:0:0:
270,345,240470,5,0,3:0:0:0:
212,368,240545,1,0,0:0:0:0:
160,342,240620,1,2,0:3:0:0:
130,301,240695,1,0,0:0:0:0:
142,256,240770,1,8,3:2:0:0:
149,212,240845,1,0,0:0:0:0:
132,179,240920,1,2,0:3:0:0:
107,167,240995,1,0,0:0:0:0:
89,173,241070,21,0,3:0:0:0:
86,188,241145,1,0,0:0:0:0:
112,203,241220,1,2,0:3:0:0:
160,204,241295,1,0,0:0:0:0:
198,177,241370,1,8,3:2:0:0:
221,129,241445,1,0,0:0:0:0:
210,74,241520,1,2,0:3:0:0:
161,38,241595,1,0,0:0:0:0:
86,43,241670,6,0,P|57:48|-7:72,1,71.9999978027344,2|0,3:2|0:0,0:0:0:0:
295,131,241820,2,0,P|324:160|370:181,1,71.9999978027344,2|0,0:3|0:0,0:0:0:0:
131,115,241970,2,0,P|99:177|73:282,1,143.999995605469,8|2,3:2|0:3,0:0:0:0:
117,325,242195,1,0,0:0:0:0:
117,325,242270,22,0,P|163:285|197:275,1,71.9999978027344,0|0,3:0|0:0,0:0:0:0:
309,324,242420,1,2,0:3:0:0:
319,342,242495,1,0,0:0:0:0:
344,357,242570,1,8,3:2:0:0:
388,362,242645,1,0,0:0:0:0:
431,334,242720,1,2,0:3:0:0:
451,279,242795,1,0,0:0:0:0:
428,226,242870,6,0,P|408:199|386:148,1,71.9999978027344,6|0,3:2|0:0,0:0:0:0:
271,154,243020,1,2,0:3:0:0:
239,116,243095,1,0,0:0:0:0:
253,74,243170,1,8,3:2:0:0:
289,59,243245,1,0,0:0:0:0:
314,37,243320,1,2,0:3:0:0:
312,14,243395,1,0,0:0:0:0:
292,4,243470,21,0,3:0:0:0:
266,13,243545,1,0,0:0:0:0:
254,44,243620,1,2,0:3:0:0:
279,77,243695,1,0,0:0:0:0:
322,93,243770,1,8,3:2:0:0:
348,137,243845,1,0,0:0:0:0:
340,191,243920,1,2,0:3:0:0:
288,224,243995,1,0,0:0:0:0:
221,214,244070,6,0,P|189:207|135:186,1,71.9999978027344,6|0,3:2|0:0,0:0:0:0:
17,293,244220,1,2,0:3:0:0:
13,324,244295,1,0,0:0:0:0:
41,359,244370,1,8,3:2:0:0:
87,374,244445,1,0,0:0:0:0:
141,348,244520,22,0,P|161:294|181:267,1,71.9999978027344,2|0,0:2|0:0,0:0:0:0:
280,159,244670,1,0,3:0:0:0:
284,128,244745,1,0,0:0:0:0:
256,93,244820,1,2,0:3:0:0:
210,78,244895,1,0,0:0:0:0:
156,104,244970,6,0,P|123:113|72:125,1,71.9999978027344,10|0,3:2|0:0,0:0:0:0:
33,248,245120,1,2,0:3:0:0:
7,286,245195,1,0,0:0:0:0:
31,325,245270,22,0,P|76:336|110:351,1,71.9999978027344,6|0,3:2|0:0,0:0:0:0:
293,349,245420,1,2,0:3:0:0:
343,330,245495,1,0,0:0:0:0:
363,281,245570,6,0,P|351:250|320:207,1,71.9999978027344,8|0,3:2|0:0,0:0:0:0:
215,41,245720,2,0,P|245:59|323:82,1,71.9999978027344,2|0,0:3|0:0,0:0:0:0:
476,162,245870,22,0,P|443:185|423:211,1,71.9999978027344,4|0,3:2|0:0,0:0:0:0:
277,287,246020,1,2,0:3:0:0:
220,302,246095,1,0,0:0:0:0:
177,282,246170,1,8,3:2:0:0:
159,246,246245,1,0,0:0:0:0:
165,219,246320,1,2,0:3:0:0:
184,207,246395,1,0,0:0:0:0:
203,210,246470,6,0,P|255:139|288:46,1,143.999995605469,6|2,3:2|0:3,0:0:0:0:
213,15,246695,1,0,0:0:0:0:
213,15,246770,2,0,B|142:47|142:47|209:125,1,143.999995605469,0|2,0:0|0:3,0:0:0:0:
190,301,247070,22,0,P|231:283|295:267,1,71.9999978027344,2|0,0:0|0:0,0:0:0:0:
416,191,247220,1,2,0:3:0:0:
389,132,247295,1,0,0:0:0:0:
342,106,247370,1,0,1:0:0:0:
289,111,247445,1,0,0:0:0:0:
259,140,247520,1,0,0:0:0:0:
257,176,247595,1,0,0:0:0:0:
276,196,247670,5,6,3:2:0:0:
69,152,247820,1,2,0:3:0:0:
302,376,247970,2,0,P|314:310|329:260,1,120,8|2,3:2|0:3,0:0:0:0:
258,21,248270,1,2,3:2:0:0:
476,131,248420,1,2,0:3:0:0:
242,277,248570,1,8,3:2:0:0:
433,60,248720,1,2,0:3:0:0:
217,93,248870,22,0,P|169:64|107:38,1,120,2|2,3:2|0:3,0:0:0:0:
30,217,249170,1,8,3:2:0:0:
272,27,249320,1,2,0:3:0:0:
46,85,249470,1,2,3:2:0:0:
222,301,249620,1,2,0:3:0:0:
331,85,249770,1,8,3:2:0:0:
162,245,249920,1,2,0:3:0:0:
330,363,250070,6,0,P|400:343|454:335,1,120,2|2,3:2|0:3,0:0:0:0:
347,231,250370,1,8,3:2:0:0:
510,120,250520,1,2,0:3:0:0:
288,36,250670,1,0,3:0:0:0:
288,36,250745,1,0,0:0:0:0:
288,36,250820,1,2,0:3:0:0:
424,262,250970,1,8,3:2:0:0:
287,179,251120,1,2,0:3:0:0:
396,71,251270,22,0,P|450:59|526:37,1,120,2|2,3:2|0:3,0:0:0:0:
232,235,251570,2,0,P|178:223|102:201,1,120,8|2,3:2|0:3,0:0:0:0:
424,262,251870,6,0,P|436:316|458:392,1,120,0|2,3:0|0:3,0:0:0:0:
229,124,252170,2,0,P|241:70|263:-6,1,120,8|2,3:2|0:3,0:0:0:0:
287,179,252470,21,2,3:2:0:0:
149,302,252620,1,2,0:3:0:0:
52,86,252770,2,0,P|107:64|161:38,1,120,8|2,3:2|0:3,0:0:0:0:
315,104,253070,1,0,3:0:0:0:
222,266,253220,1,2,0:3:0:0:
398,375,253370,1,8,3:2:0:0:
287,179,253520,1,2,0:3:0:0:
444,110,253670,6,0,P|464:56|494:-4,1,120,2|2,3:2|0:3,0:0:0:0:
506,219,253970,1,8,3:2:0:0:
335,327,254120,1,2,0:3:0:0:
485,359,254270,1,2,3:2:0:0:
485,359,254345,1,0,0:0:0:0:
485,359,254420,1,2,0:3:0:0:
365,205,254570,2,0,P|349:151|316:71,1,120,8|2,3:2|0:3,0:0:0:0:
157,296,254870,21,2,3:2:0:0:
43,127,255020,2,0,B|75:108|75:108|116:119,1,60,2|0,0:1|0:0,0:0:0:0:
157,296,255170,5,8,3:2:0:0:
133,46,255320,2,0,B|165:65|165:65|176:105,1,60,2|0,0:1|0:0,0:0:0:0:
157,296,255470,21,0,3:0:0:0:
251,78,255620,2,0,B|251:116|251:116|221:145,1,60,2|0,0:1|0:0,0:0:0:0:
157,296,255770,5,8,3:2:0:0:
283,192,255920,2,0,B|250:211|250:211|209:199,1,60,2|0,0:1|0:0,0:0:0:0:
80,273,256070,21,0,3:0:0:0:
224,347,256220,2,0,L|246:269,1,60,2|0,0:1|0:0,0:0:0:0:
80,273,256370,5,8,3:2:0:0:
141,113,256520,2,0,L|163:191,1,60,2|0,0:1|0:0,0:0:0:0:
80,273,256670,21,0,3:0:0:0:
296,372,256820,2,0,L|318:294,1,60,2|0,0:1|3:0,0:0:0:0:
220,101,256970,2,0,L|242:179,1,60,10|0,3:1|0:0,0:0:0:0:
157,296,257120,1,2,3:3:0:0:
369,252,257270,5,4,3:2:0:0:
157,170,257420,1,2,0:3:0:0:
329,12,257570,2,0,P|390:30|484:54,1,120,8|2,3:2|0:3,0:0:0:0:
323,184,257870,1,2,3:2:0:0:
198,24,258020,1,2,0:3:0:0:
397,148,258170,1,8,3:2:0:0:
111,236,258320,1,2,0:3:0:0:
346,369,258470,22,0,P|355:307|380:215,1,120,2|2,3:2|0:3,0:0:0:0:
158,94,258770,1,8,3:2:0:0:
271,306,258920,1,2,0:3:0:0:
331,17,259070,1,2,3:2:0:0:
208,251,259220,1,2,0:3:0:0:
461,131,259370,1,8,3:2:0:0:
198,27,259520,1,2,0:3:0:0:
408,190,259670,6,0,P|428:234|454:305,1,120,2|2,3:2|0:3,0:0:0:0:
512,65,259970,1,8,3:2:0:0:
512,65,260045,1,0,0:0:0:0:
512,65,260120,1,2,0:3:0:0:
348,264,260270,1,0,3:0:0:0:
277,55,260420,1,2,0:3:0:0:
160,188,260570,1,8,3:2:0:0:
6,125,260720,1,2,0:3:0:0:
102,91,260870,22,0,P|87:139|69:220,1,120,2|2,3:2|0:3,0:0:0:0:
25,301,261170,1,8,3:2:0:0:
184,361,261320,1,2,0:3:0:0:
249,199,261470,1,0,3:0:0:0:
249,199,261545,1,0,0:0:0:0:
249,199,261620,1,2,0:3:0:0:
412,372,261770,2,0,P|427:306|449:247,1,120,12|2,3:2|0:3,0:0:0:0:
479,183,261995,1,0,0:0:0:0:
479,183,262070,6,0,P|453:169|424:113,1,60,6|0,3:2|0:0,0:0:0:0:
33,201,262220,2,0,P|59:215|88:271,1,60,0|0,3:0|0:0,0:0:0:0:
357,164,262370,22,0,P|356:134|390:81,1,60,2|0,3:0|0:0,0:0:0:0:
155,220,262520,2,0,P|155:249|121:302,1,60,2|0,3:0|0:0,0:0:0:0:
314,49,262670,6,0,P|339:33|402:36,1,60,2|0,3:0|0:0,0:0:0:0:
198,335,262820,2,0,P|172:350|109:347,1,60,2|0,3:0|0:0,0:0:0:0:
256,192,262970,21,6,3:1:0:0:
198,49,263270,6,0,P|172:33|109:36,1,60,4|0,3:2|0:0,0:0:0:0:
314,335,263420,2,0,P|339:350|402:347,1,60,2|0,3:0|0:0,0:0:0:0:
155,164,263570,22,0,P|155:134|121:81,1,60,2|0,3:0|0:0,0:0:0:0:
357,220,263720,2,0,P|356:249|390:302,1,60,2|0,3:0|0:0,0:0:0:0:
33,183,263870,6,0,P|59:169|88:113,1,60,2|0,3:0|0:0,0:0:0:0:
479,201,264020,2,0,P|453:215|424:271,1,60,2|0,3:0|0:0,0:0:0:0:
256,192,264170,21,6,3:1:0:0:
473,82,264470,5,4,3:2:0:0:
451,84,264545,1,0,3:0:0:0:
429,88,264620,1,2,3:0:0:0:
407,93,264695,1,0,3:0:0:0:
385,98,264770,1,2,3:0:0:0:
364,105,264845,1,0,3:0:0:0:
342,112,264920,1,2,3:0:0:0:
321,120,264995,1,0,3:0:0:0:
301,129,265070,21,6,3:2:0:0:
288,158,265145,1,0,3:0:0:0:
260,185,265220,1,2,3:0:0:0:
214,198,265295,1,0,3:0:0:0:
167,177,265370,1,0,3:0:0:0:
141,126,265445,1,0,3:0:0:0:
149,66,265520,1,2,3:0:0:0:
112,8,265595,1,0,3:0:0:0:
36,0,265670,5,6,3:2:0:0:
103,86,265820,1,2,0:2:0:0:
204,126,265970,1,2,0:2:0:0:
311,110,266120,1,2,0:2:0:0:
395,42,266270,21,4,0:3:0:0:
512,243,266420,1,4,0:3:0:0:
311,360,266570,1,4,1:3:0:0:
194,159,266720,1,4,0:3:0:0:
340,223,266870,6,0,B|354:246|343:276|343:276|353:242|412:225,1,125.999996154785,6|0,3:1|0:0,0:0:0:0:
451,291,267020,2,0,B|492:264|492:264|349:180|349:180|385:146,1,251.999992309571,6|0,3:1|0:0,0:0:0:0:
454,84,267245,1,0,0:0:0:0:
454,84,267320,2,0,B|463:68|463:68|388:24|388:24|327:46|324:89|324:89|317:55|270:32,1,251.999992309571,6|0,3:1|0:0,0:0:0:0:
296,48,267620,22,0,B|288:40|288:40|213:77,1,60,2|0,0:0|0:0,0:0:0:0:
125,86,267770,6,0,B|106:68|106:68|173:71|198:141,1,125.999996154785,6|0,3:1|0:0,0:0:0:0:
126,260,267920,2,0,B|104:242|104:242|117:175|224:181|224:181|219:156|172:98,1,251.999992309571,6|0,3:1|0:0,0:0:0:0:
47,179,268145,1,0,0:0:0:0:
47,179,268220,2,0,B|41:149|41:149|188:145|212:279,1,251.999992309571,6|0,3:1|0:0,0:0:0:0:
208,261,268520,22,0,P|196:293|181:335,1,60,2|0,0:0|0:0,0:0:0:0:
283,344,268670,6,0,B|272:338|272:338|264:307,6,30,2|0|0|0|0|0|0,0:0|0:0|0:0|0:0|0:0|0:0|0:0,0:0:0:0:
286,356,268970,22,0,P|358:324|441:312,1,135.000005149841,2|0,0:0|0:0,0:0:0:0:
425,321,269120,2,0,B|437:306|437:306|397:244,1,90.0000034332277,2|0,0:0|0:0,0:0:0:0:
298,87,269270,6,0,B|289:66|244:57|244:57|349:37|411:91|411:91|322:136|339:215,1,377.999988464356,6|0,3:1|0:0,0:0:0:0:
268,233,269570,22,0,B|216:226|216:226|214:164,1,90.0000034332277,10|0,0:0|0:0,0:0:0:0:
398,246,269720,6,0,B|386:214|386:214|202:280|202:280|125:201|125:201|159:136,1,377.999988464356,14|0,3:1|0:0,0:0:0:0:
214,188,270020,22,0,B|266:195|266:195|268:257,1,90.0000034332277,10|0,0:2|0:0,0:0:0:0:
257,338,270170,6,0,B|252:140|252:140|303:116|303:116|292:66|292:66|206:45,1,377.999988464356,6|0,3:1|0:0,0:0:0:0:
124,93,270470,22,0,B|102:84|102:84|63:148,1,90.0000034332277,2|0,0:0|0:0,0:0:0:0:
142,167,270620,6,0,L|350:195,1,188.999994232178,6|0,3:1|0:0,0:0:0:0:
340,202,270770,22,0,L|349:225,16,15,2|0|0|0|0|0|0|0|0|0|0|0|0|0|0|0|0,0:0|0:0|0:0|0:0|0:0|0:0|0:0|0:0|0:0|0:0|0:0|0:0|0:0|0:0|0:0|0:0|0:0,0:0:0:0:
405,151,271670,5,4,1:2:0:0:
107,233,271820,1,0,3:0:0:0:
405,233,271970,21,0,1:0:0:0:
107,151,272120,1,0,3:0:0:0:
405,69,272270,5,4,1:2:0:0:
107,315,272420,1,0,3:0:0:0:
405,315,272570,21,0,1:0:0:0:
107,69,272720,1,0,3:0:0:0:
323,69,272870,5,4,1:2:0:0:
189,315,273020,1,0,3:0:0:0:
323,315,273170,21,0,1:0:0:0:
189,69,273320,1,0,3:0:0:0:
107,315,273470,5,4,1:2:0:0:
405,69,273620,1,0,3:0:0:0:
107,69,273770,21,0,1:0:0:0:
405,315,273920,1,0,3:0:0:0:
245,203,274070,5,4,1:2:0:0:
268,180,274145,1,0,3:0:0:0:
256,207,274220,21,0,1:0:0:0:
256,176,274295,1,0,3:0:0:0:
268,203,274370,5,0,1:0:0:0:
245,180,274445,1,0,3:0:0:0:
272,192,274520,21,0,1:0:0:0:
241,192,274595,1,0,3:0:0:0:
318,155,274670,6,0,L|332:146,1,15,0|0,1:0|3:0,0:0:0:0:
274,121,274745,22,0,L|279:106,1,15,0|0,1:0|3:0,0:0:0:0:
219,128,274820,6,0,L|211:115,1,15,0|0,1:0|3:0,0:0:0:0:
185,172,274895,22,0,L|169:167,1,15,0|0,1:0|3:0,0:0:0:0:
193,227,274970,6,0,L|179:233,1,15,0|0,1:0|3:0,0:0:0:0:
237,261,275045,22,0,L|232:278,1,15,0|0,1:0|3:0,0:0:0:0:
291,253,275120,6,0,L|299:266,1,15,0|0,1:0|3:0,0:0:0:0:
325,210,275195,22,0,L|344:218,1,15,0|0,1:0|3:0,0:0:0:0:
318,155,275270,5,2,3:0:0:0:
256,192,275345,12,2,276170,0:0:0:0:
318,155,276470,6,2,B|195:182|195:182|282:138|271:40,1,270.000010299683,6|0,3:1|0:1,0:1:0:0:
131,63,276770,2,2,B|113:39|113:39|9:21|9:21|59:123|59:123|97:125,1,270.000010299683,2|0,1:1|0:1,0:1:0:0:
272,69,277070,22,0,P|235:63|199:26,1,90.0000034332277,2|0,3:0|0:0,0:0:0:0:
0,174,277220,1,2,0:3:0:0:
25,200,277295,1,2,0:0:0:0:
51,226,277370,2,0,L|163:205,1,90.0000034332277,2|0,1:2|0:0,0:0:0:0:
275,364,277520,2,0,L|310:214,1,135.000005149841,0|0,0:3|0:0,0:0:0:0:
292,240,277670,6,0,L|322:344,1,90.0000034332277,2|0,3:0|0:0,0:0:0:0:
504,149,277820,2,0,B|487:163|487:163|413:146|378:65,1,135.000005149841,2|0,0:3|0:0,0:0:0:0:
400,85,277970,22,2,B|370:75|370:75|250:174,1,180.000006866455,2|2,1:2|0:2,0:2:0:0:
111,99,278195,1,2,0:0:0:0:
43,72,278270,2,0,B|45:50|45:50|128:-6,1,90.0000034332277,2|0,3:0|0:0,0:0:0:0:
120,206,278420,2,0,L|222:235,1,90.0000034332277,2|0,0:3|0:0,0:0:0:0:
275,364,278570,6,2,B|244:294|244:294|257:278|257:278|189:113,1,270.000010299683,2|0,1:1|0:1,0:1:0:0:
186,44,278870,22,0,B|204:30|204:30|267:80,1,90.0000034332277,2|0,3:0|0:0,0:0:0:0:
333,297,279020,2,0,B|374:244|374:244|360:226,1,90.0000034332277,0|0,3:3|0:0,0:0:0:0:
503,61,279170,5,2,1:2:0:0:
459,74,279245,1,2,0:0:0:0:
416,86,279320,1,2,0:3:0:0:
372,98,279395,1,2,0:0:0:0:
329,110,279470,22,0,L|358:22,1,90.0000034332277,2|0,3:0|0:0,0:0:0:0:
360,226,279620,2,0,L|417:368,1,135.000005149841,2|0,0:3|0:0,0:0:0:0:
425,358,279770,6,0,B|409:371|409:371|333:334,1,90.0000034332277,2|0,1:2|0:0,0:0:0:0:
275,166,279920,21,2,0:3:0:0:
233,183,279995,1,2,0:0:0:0:
191,200,280070,2,0,B|169:183|169:183|188:116,1,90.0000034332277,2|0,3:0|0:0,0:0:0:0:
174,335,280220,5,2,0:3:0:0:
132,318,280295,1,2,0:0:0:0:
90,301,280370,1,2,1:2:0:0:
48,284,280445,2,0,L|18:190,1,90.0000034332277,2|2,0:0|0:3,0:0:0:0:
247,260,280595,1,2,0:0:0:0:
317,229,280670,22,0,L|415:261,1,90.0000034332277,2|0,3:0|0:0,0:0:0:0:
261,144,280820,1,2,3:3:0:0:
185,123,280895,1,2,3:0:0:0:
110,102,280970,2,0,L|75:0,1,90.0000034332277,2|0,1:2|0:0,0:0:0:0:
175,292,281120,6,0,L|148:373,1,60,4|0,3:3|0:0,0:0:0:0:
156,348,281270,22,2,B|216:293|216:293|120:255|120:255|152:334,1,270.000010299683,6|0,3:1|0:1,0:1:0:0:
80,360,281570,2,0,L|35:261,1,90.0000034332277,2|0,1:2|0:0,0:0:0:0:
245,222,281720,2,0,L|161:188,1,90.0000034332277,2|0,0:2|0:0,0:0:0:0:
251,9,281870,6,0,L|72:82,1,180.000006866455,2|2,3:2|0:3,0:0:0:0:
14,117,282095,1,2,0:0:0:0:
14,117,282170,2,0,B|30:141|30:141|110:168,1,90.0000034332277,2|0,1:2|0:0,0:0:0:0:
245,222,282320,2,0,B|261:198|261:198|192:113,1,135.000005149841,2|0,0:3|0:0,0:0:0:0:
185,127,282470,22,0,P|166:176|152:227,1,90.0000034332277,2|0,3:0|0:0,0:0:0:0:
13,340,282620,2,0,P|99:297|174:280,1,135.000005149841,2|0,0:3|0:0,0:0:0:0:
150,294,282770,6,0,L|171:344,2,45.0000017166138,2|0|0,1:2|0:0|0:0,0:0:0:0:
240,295,282920,2,0,L|345:324,1,90.0000034332277,2|0,0:3|0:0,0:0:0:0:
481,360,283070,21,2,3:0:0:0:
465,318,283145,1,2,0:0:0:0:
449,276,283220,2,0,L|502:170,1,90.0000034332277,2|0,0:3|0:0,0:0:0:0:
356,77,283370,2,0,B|344:97|344:97|210:147,1,135.000005149841,2|0,1:2|0:0,0:0:0:0:
228,147,283520,6,0,L|304:170,1,60,4|0,0:3|0:0,0:0:0:0:
285,164,283670,22,2,B|318:130|318:130|238:24,1,180.000006866455,2|2,3:0|0:3,0:0:0:0:
178,75,283895,1,2,0:0:0:0:
117,126,283970,2,0,L|12:156,1,90.0000034332277,2|0,1:2|0:0,0:0:0:0:
295,284,284120,2,0,B|323:297|323:297|282:365,1,90.0000034332277,2|0,0:3|0:0,0:0:0:0:
171,306,284270,6,2,B|132:312|115:373|115:373|47:357|113:245|113:245|110:212,1,270.000010299683,2|0,3:1|0:1,0:1:0:0:
31,230,284570,2,2,L|310:288,1,270.000010299683,2|0,1:1|0:1,0:1:0:0:
306,361,284870,22,0,B|327:372|327:372|387:304,1,90.0000034332277,2|0,3:0|0:0,0:0:0:0:
331,164,285020,1,2,0:3:0:0:
288,178,285095,1,2,0:0:0:0:
245,192,285170,2,0,B|276:127|276:127|264:105|264:105|306:20,1,180.000006866455,2|2,1:2|0:3,0:0:0:0:
379,24,285395,1,2,0:0:0:0:
358,97,285470,6,0,L|165:132,1,180.000006866455,2|2,3:0|0:3,0:0:0:0:
105,145,285695,1,2,3:0:0:0:
102,72,285770,22,0,B|77:67|77:67|20:123,1,90.0000034332277,2|0,1:2|0:0,0:0:0:0:
4,238,285920,6,0,L|85:259,1,60,4|0,3:3|0:0,0:0:0:0:
62,253,286070,22,2,B|102:323|102:323|125:209|240:198,1,270.000010299683,6|0,3:1|0:1,0:1:0:0:
360,286,286370,2,2,B|328:284|328:284|296:186|180:166|180:166|180:119,1,270.000010299683,2|0,1:1|0:1,0:1:0:0:
254,93,286670,5,2,3:0:0:0:
296,79,286745,1,2,0:0:0:0:
339,65,286820,1,2,0:3:0:0:
382,51,286895,1,2,0:0:0:0:
425,38,286970,21,2,1:2:0:0:
412,69,287045,1,2,0:0:0:0:
399,100,287120,1,2,0:3:0:0:
386,131,287195,1,2,0:0:0:0:
373,162,287270,5,2,3:0:0:0:
453,182,287345,2,2,L|269:235,1,180.000006866455,2|0,0:2|0:2,0:2:0:0:
217,182,287570,21,2,1:2:0:0:
175,165,287645,1,2,0:0:0:0:
133,148,287720,2,0,B|111:165|111:165|130:232,1,90.0000034332277,2|0,0:3|0:0,0:0:0:0:
221,353,287870,5,2,3:0:0:0:
251,338,287945,1,2,0:0:0:0:
282,324,288020,1,2,0:3:0:0:
312,309,288095,1,2,0:0:0:0:
343,295,288170,21,2,1:2:0:0:
357,240,288245,1,2,0:0:0:0:
371,186,288320,1,2,0:3:0:0:
386,131,288395,1,2,0:0:0:0:
400,77,288470,6,0,B|401:57|401:57|315:14,1,90.0000034332277,2|0,3:0|0:0,0:0:0:0:
137,192,288620,2,0,B|166:179|166:179|189:59,1,135.000005149841,2|0,0:3|0:0,0:0:0:0:
197,67,288770,22,0,B|184:57|184:57|99:101,1,90.0000034332277,2|0,1:2|0:0,0:0:0:0:
61,213,288920,2,0,P|125:228|210:274,1,135.000005149841,2|0,0:3|0:0,0:0:0:0:
194,271,289070,6,0,B|185:297|185:297|241:346,1,90.0000034332277,2|0,3:0|0:0,0:0:0:0:
349,256,289220,1,2,0:3:0:0:
421,226,289295,1,2,0:0:0:0:
493,196,289370,1,2,1:2:0:0:
463,124,289445,1,2,0:0:0:0:
433,52,289520,2,0,L|337:30,1,90.0000034332277,2|0,0:3|0:0,0:0:0:0:
138,139,289670,22,0,B|117:149|117:149|95:78|176:29,1,135.000005149841,2|0,3:0|0:0,0:0:0:0:
163,45,289820,6,0,P|229:80|233:112,1,90.0000034332277,2|0,0:3|0:0,0:0:0:0:
199,185,289970,21,2,1:2:0:0:
138,233,290045,2,0,P|97:225|42:213,1,90.0000034332277,2|2,0:0|0:3,0:0:0:0:
349,248,290195,5,2,0:0:0:0:
419,218,290270,2,0,B|431:199|431:199|389:134,1,90.0000034332277,2|0,3:0|0:0,0:0:0:0:
194,290,290420,2,0,L|161:380,1,90.0000034332277,2|0,0:3|0:0,0:0:0:0:
96,92,290570,22,0,L|54:-19,1,90.0000034332277,6|0,1:2|0:0,0:0:0:0:
255,227,290720,2,0,L|297:338,1,90.0000034332277,2|0,0:3|0:0,0:0:0:0:
377,58,290870,6,0,B|347:59|347:59|309:129,1,90.0000034332277,6|0,3:2|0:0,0:0:0:0:
105,271,291020,2,0,L|203:292,1,90.0000034332277,2|0,3:0|0:0,0:0:0:0:
407,271,291170,22,0,L|309:292,1,90.0000034332277,2|0,1:2|0:0,0:0:0:0:
135,58,291320,2,0,B|165:59|165:59|203:129,1,90.0000034332277,2|0,3:0|0:0,0:0:0:0:
466,172,291470,6,0,B|444:179|444:179|373:107,1,90.0000034332277,2|0,3:0|0:0,0:0:0:0:
46,172,291620,2,0,B|68:179|68:179|139:107,1,90.0000034332277,2|0,3:0|0:0,0:0:0:0:
259,170,291770,22,0,L|254:206,6,22.5000008583069,6|0|0|0|0|0|0,1:2|0:0|0:0|0:0|0:0|0:0|0:0,0:0:0:0:
318,289,292070,6,0,B|350:276|350:276|325:216,1,90.0000034332277,6|0,3:2|0:0,0:0:0:0:
122,52,292220,2,0,L|232:79,1,90.0000034332277,2|0,3:0|0:0,0:0:0:0:
390,52,292370,22,0,L|280:79,1,90.0000034332277,2|0,1:2|0:0,0:0:0:0:
194,289,292520,2,0,B|161:276|161:276|187:216,1,90.0000034332277,2|0,3:0|0:0,0:0:0:0:
425,121,292670,6,0,B|453:121|453:121|488:39,1,90.0000034332277,2|0,3:0|0:0,0:0:0:0:
87,121,292820,2,0,B|59:121|59:121|24:39,1,90.0000034332277,2|0,3:0|0:0,0:0:0:0:
259,170,292970,22,0,L|265:202,6,22.5000008583069,6|0|0|0|0|0|0,1:2|0:0|0:0|0:0|3:0|0:0|0:0,0:0:0:0:
484,230,293270,5,6,3:2:0:0:
462,228,293345,1,2,3:0:0:0:
440,224,293420,1,2,3:0:0:0:
418,219,293495,1,2,3:0:0:0:
396,214,293570,1,2,1:2:0:0:
375,207,293645,1,2,3:0:0:0:
353,200,293720,1,2,3:0:0:0:
332,192,293795,1,2,3:0:0:0:
312,183,293870,21,6,3:2:0:0:
299,154,293945,1,2,3:0:0:0:
271,127,294020,1,2,3:0:0:0:
225,114,294095,1,2,3:0:0:0:
178,135,294170,1,2,1:2:0:0:
152,186,294245,1,2,3:0:0:0:
160,246,294320,1,2,3:0:0:0:
123,304,294395,1,2,3:0:0:0:
47,312,294470,6,0,P|22:281|20:238,14,60,6|0|0|0|0|0|0|0|0|0|0|0|0|0|0,0:2|0:0|0:0|0:0|0:0|0:0|0:0|0:0|1:0|0:0|0:0|0:0|0:0|0:0|0:0,0:0:0:0:
123,304,295070,22,0,P|134:284|173:254,6,45.0000017166138,2|0|0|0|0|0|0,0:0|0:0|0:0|0:0|0:0|3:0|3:0,0:0:0:0:
170,366,295370,6,0,P|188:367|220:385,6,30,2|0|0|0|0|0|0,1:2|0:0|0:0|0:0|0:0|0:0|0:0,0:0:0:0:
93,374,295670,21,2,3:0:0:0:
256,192,295745,12,0,300470,0:0:0:0:
256,192,300545,12,0,305270,0:0:0:0:
201,206,305570,22,0,B|186:207|186:207|145:182|145:182|145:140|74:87|74:87|111:94|111:94|170:75|227:116|227:116|242:139|242:139|240:125|240:125|265:83|265:83|307:84|360:13|360:13|353:50|353:50|372:108|331:166|331:166|307:180|307:180|322:179|322:179|363:203|363:203|363:246|434:299|434:299|397:291|397:291|338:311|281:269|281:269|267:247|267:247|269:261|269:261|244:302|244:302|202:302|149:373|149:373|156:336|156:336|137:278|178:220|178:220|205:215,1,1488
