osu file format v14

[General]
AudioFilename: audioOni185.5BPM.mp3
AudioLeadIn: 0
PreviewTime: 46498
Countdown: 0
SampleSet: None
StackLeniency: 0.7
Mode: 1
LetterboxInBreaks: 0
WidescreenStoryboard: 0

[Editor]
DistanceSpacing: 2.2
BeatDivisor: 4
GridSize: 4
TimelineZoom: 4.270004

[Metadata]
Title:Tardes Negras
TitleUnicode:Tardes Negras
Artist:Tiziano Ferro
ArtistUnicode:Tiziano Ferro
Creator:Ulqui
Version:Oni
Source:
Tags:
BeatmapID:1857271
BeatmapSetID:888580

[Difficulty]
HPDrainRate:6
CircleSize:5
OverallDifficulty:2
ApproachRate:7
SliderMultiplier:1.4
SliderTickRate:1

[Events]
//Background and Video events
0,0,"Konachan.com - 273300 sample.jpg",0,70
//Break Periods
//Storyboard Layer 0 (Background)
//Storyboard Layer 1 (Fail)
//Storyboard Layer 2 (Pass)
//Storyboard Layer 3 (Foreground)
//Storyboard Sound Samples

[TimingPoints]
1123,322.0612,4,1,0,60,1,0
4941,322.0612,4,1,0,60,1,0
11372,322.234156820623,4,1,0,60,1,0
11372,-125,4,1,0,60,0,0
26839,-100,4,1,0,60,0,0
46176,322.0612,4,1,0,60,1,0
46498,-125,4,1,0,60,0,0
47462,322.0612,4,1,0,60,1,8
47478,321.888412017167,4,1,0,60,1,1
47478,-90.9090909090909,4,1,0,60,0,1
68073,323.4501,4,1,0,60,1,0
68073,-86.5800865800866,4,1,0,60,0,0
78410,322.2342,4,1,0,60,1,0
97736,322.0612,4,1,0,60,1,0
99049,321.888412017167,4,1,0,60,1,1
119642,323.2758,4,1,0,60,1,0
129982,322.0612,4,1,0,60,1,0
142851,322.2342,4,1,0,60,1,0
151873,322.0612,4,1,0,60,1,0
153181,321.888412017167,4,1,0,60,1,1
173784,323.4501,4,1,0,60,1,0

[HitObjects]
157,200,11372,5,0,0:0:0:0:
171,178,11694,1,0,0:0:0:0:
160,190,12016,1,8,0:0:0:0:
171,178,12338,1,0,0:0:0:0:
171,178,12983,1,0,0:0:0:0:
171,178,13305,1,8,0:0:0:0:
171,178,13949,1,0,0:0:0:0:
171,178,14272,1,0,0:0:0:0:
171,178,14433,1,0,0:0:0:0:
171,178,14594,1,8,0:0:0:0:
174,158,15077,1,8,0:0:0:0:
174,158,15399,1,0,0:0:0:0:
174,158,15561,1,0,0:0:0:0:
174,158,15883,1,8,0:0:0:0:
200,170,16527,1,0,0:0:0:0:
200,170,16849,1,0,0:0:0:0:
208,153,17011,1,0,0:0:0:0:
201,175,17172,1,8,0:0:0:0:
217,153,17494,1,0,0:0:0:0:
228,158,18138,1,0,0:0:0:0:
228,158,18461,1,8,0:0:0:0:
228,158,19105,1,0,0:0:0:0:
228,158,19427,1,0,0:0:0:0:
228,158,19588,1,0,0:0:0:0:
229,163,19750,1,8,0:0:0:0:
228,158,20072,1,0,0:0:0:0:
228,158,20233,1,0,0:0:0:0:
192,159,20555,1,0,0:0:0:0:
192,159,20716,1,0,0:0:0:0:
192,159,21039,1,8,0:0:0:0:
192,159,21683,1,0,0:0:0:0:
192,159,22005,1,0,0:0:0:0:
192,159,22166,1,0,0:0:0:0:
192,159,22327,1,8,0:0:0:0:
187,112,22650,1,0,0:0:0:0:
187,112,22972,1,0,0:0:0:0:
131,133,23133,1,8,0:0:0:0:
131,133,23294,1,0,0:0:0:0:
131,133,23455,1,0,0:0:0:0:
131,133,23616,1,8,0:0:0:0:
130,157,24261,1,0,0:0:0:0:
141,163,24583,1,8,0:0:0:0:
141,163,24744,1,0,0:0:0:0:
175,118,26194,1,8,0:0:0:0:
171,97,26839,1,0,0:0:0:0:
159,118,27161,1,0,0:0:0:0:
159,118,27322,1,0,0:0:0:0:
159,118,27483,1,8,0:0:0:0:
150,164,27805,1,0,0:0:0:0:
150,164,27967,1,0,0:0:0:0:
144,160,28047,1,0,0:0:0:0:
150,164,28128,1,0,0:0:0:0:
150,164,28289,1,8,0:0:0:0:
150,164,28450,1,0,0:0:0:0:
154,158,28772,1,8,0:0:0:0:
185,172,29094,1,8,0:0:0:0:
185,172,29417,1,0,0:0:0:0:
175,176,29739,1,0,0:0:0:0:
175,176,29900,1,0,0:0:0:0:
175,176,30061,1,8,0:0:0:0:
175,166,30383,1,0,0:0:0:0:
175,166,30544,1,8,0:0:0:0:
174,166,30706,1,0,0:0:0:0:
166,107,30867,1,8,0:0:0:0:
166,107,30947,1,0,0:0:0:0:
166,107,31028,1,0,0:0:0:0:
179,101,31108,1,0,0:0:0:0:
141,110,31189,1,0,0:0:0:0:
141,110,31350,1,8,0:0:0:0:
166,138,31672,1,8,0:0:0:0:
166,138,31833,1,8,0:0:0:0:
166,138,31994,1,0,0:0:0:0:
160,152,32317,1,0,0:0:0:0:
160,152,32478,1,0,0:0:0:0:
160,152,32639,1,8,0:0:0:0:
164,122,32961,1,0,0:0:0:0:
164,122,33122,1,0,0:0:0:0:
164,122,33283,1,0,0:0:0:0:
186,119,33445,1,8,0:0:0:0:
186,123,33606,1,0,0:0:0:0:
186,123,33928,1,8,0:0:0:0:
187,129,34250,1,8,0:0:0:0:
187,129,34411,1,8,0:0:0:0:
186,130,34572,1,0,0:0:0:0:
180,106,34895,1,0,0:0:0:0:
180,107,35056,1,0,0:0:0:0:
179,108,35217,1,8,0:0:0:0:
186,125,35539,1,0,0:0:0:0:
186,125,35700,1,8,0:0:0:0:
186,125,35861,1,0,0:0:0:0:
178,103,36022,1,8,0:0:0:0:
181,100,36103,1,0,0:0:0:0:
178,103,36184,1,0,0:0:0:0:
151,74,36264,1,8,0:0:0:0:
151,74,36345,1,0,0:0:0:0:
195,99,36506,1,8,0:0:0:0:
209,92,36667,1,0,0:0:0:0:
204,96,36989,1,8,0:0:0:0:
91,168,37150,5,0,0:0:0:0:
160,140,37472,1,0,0:0:0:0:
160,140,37634,1,0,0:0:0:0:
160,140,37795,1,8,0:0:0:0:
185,92,38117,1,0,0:0:0:0:
185,92,38278,1,8,0:0:0:0:
185,92,38439,1,0,0:0:0:0:
197,82,38600,1,8,0:0:0:0:
197,82,38681,1,0,0:0:0:0:
197,82,38761,1,0,0:0:0:0:
190,51,38923,1,0,0:0:0:0:
190,51,39084,1,8,0:0:0:0:
176,82,39406,1,0,0:0:0:0:
176,82,39567,1,8,0:0:0:0:
176,82,39728,1,0,0:0:0:0:
182,76,40050,1,0,0:0:0:0:
182,76,40211,1,0,0:0:0:0:
181,77,40373,1,8,0:0:0:0:
179,88,40695,1,0,0:0:0:0:
179,88,40856,1,0,0:0:0:0:
181,89,40936,1,0,0:0:0:0:
179,88,41017,1,0,0:0:0:0:
181,89,41178,1,8,0:0:0:0:
172,73,41259,1,8,0:0:0:0:
178,93,41339,1,0,0:0:0:0:
174,97,41420,1,8,0:0:0:0:
172,73,41500,1,0,0:0:0:0:
173,103,41581,1,0,0:0:0:0:
171,74,41662,1,8,0:0:0:0:
136,112,41823,1,0,0:0:0:0:
136,112,42145,1,8,0:0:0:0:
133,138,42306,5,0,0:0:0:0:
132,143,42628,1,0,0:0:0:0:
131,147,42789,1,0,0:0:0:0:
131,148,42950,1,8,0:0:0:0:
184,98,43273,1,0,0:0:0:0:
184,98,43434,1,8,0:0:0:0:
166,74,43514,1,0,0:0:0:0:
184,98,43595,1,0,0:0:0:0:
166,74,43756,1,8,0:0:0:0:
166,74,43917,1,0,0:0:0:0:
174,49,44078,1,0,0:0:0:0:
174,49,44239,1,8,0:0:0:0:
174,62,44562,1,8,0:0:0:0:
174,62,44723,1,0,0:0:0:0:
174,66,44884,1,0,0:0:0:0:
166,55,45206,1,0,0:0:0:0:
166,62,45367,1,0,0:0:0:0:
166,55,45528,1,8,0:0:0:0:
166,55,45689,1,0,0:0:0:0:
166,74,45851,1,0,0:0:0:0:
166,64,46012,1,8,0:0:0:0:
181,148,46498,5,0,0:0:0:0:
181,148,46820,1,8,0:0:0:0:
181,148,47142,1,0,0:0:0:0:
213,119,47478,1,0,0:0:0:0:
146,106,47638,1,8,0:0:0:0:
146,106,47719,1,8,0:0:0:0:
146,106,47799,1,0,0:0:0:0:
199,65,47960,1,0,0:0:0:0:
199,65,48121,1,8,0:0:0:0:
180,58,48282,1,0,0:0:0:0:
180,59,48363,1,0,0:0:0:0:
180,58,48443,1,0,0:0:0:0:
180,59,48604,1,8,0:0:0:0:
180,59,48765,1,0,0:0:0:0:
181,47,48926,1,8,0:0:0:0:
181,47,49006,1,0,0:0:0:0:
182,47,49087,1,0,0:0:0:0:
162,40,49248,1,0,0:0:0:0:
162,40,49409,1,8,0:0:0:0:
173,75,49570,1,0,0:0:0:0:
173,75,49650,1,0,0:0:0:0:
173,75,49731,1,8,0:0:0:0:
173,75,49811,1,8,0:0:0:0:
173,75,49892,1,8,0:0:0:0:
173,75,49972,1,8,0:0:0:0:
173,75,50053,1,0,0:0:0:0:
126,203,50214,1,0,0:0:0:0:
126,203,50294,1,0,0:0:0:0:
126,203,50374,1,8,0:0:0:0:
138,121,50535,1,0,0:0:0:0:
138,121,50696,1,8,0:0:0:0:
139,139,50857,1,0,0:0:0:0:
139,141,50938,1,0,0:0:0:0:
139,139,51018,1,0,0:0:0:0:
139,141,51179,1,8,0:0:0:0:
139,142,51340,1,0,0:0:0:0:
139,142,51421,1,0,0:0:0:0:
139,139,51501,1,8,0:0:0:0:
148,111,51582,1,8,0:0:0:0:
138,143,51662,1,0,0:0:0:0:
120,134,51823,1,0,0:0:0:0:
120,134,51984,1,8,0:0:0:0:
143,132,52064,1,0,0:0:0:0:
172,111,52145,1,0,0:0:0:0:
143,132,52225,1,0,0:0:0:0:
172,111,52306,1,8,0:0:0:0:
181,87,52467,1,0,0:0:0:0:
181,70,52547,1,8,0:0:0:0:
181,87,52628,1,0,0:0:0:0:
151,98,52789,1,8,0:0:0:0:
153,97,52950,1,0,0:0:0:0:
160,117,53111,1,0,0:0:0:0:
160,117,53191,1,0,0:0:0:0:
161,119,53271,1,8,0:0:0:0:
145,126,53432,1,0,0:0:0:0:
138,133,53513,1,0,0:0:0:0:
145,126,53593,1,0,0:0:0:0:
138,135,53754,1,8,0:0:0:0:
138,135,53915,1,0,0:0:0:0:
146,98,54076,1,8,0:0:0:0:
163,96,54157,1,8,0:0:0:0:
146,98,54237,1,0,0:0:0:0:
161,105,54398,1,0,0:0:0:0:
161,105,54559,1,8,0:0:0:0:
171,134,54720,1,0,0:0:0:0:
171,134,54800,1,0,0:0:0:0:
130,127,54881,1,8,0:0:0:0:
152,115,54961,1,0,0:0:0:0:
152,115,55042,1,8,0:0:0:0:
151,115,55122,1,8,0:0:0:0:
151,115,55203,1,0,0:0:0:0:
162,119,55364,1,8,0:0:0:0:
164,122,55444,1,0,0:0:0:0:
165,87,55525,1,0,0:0:0:0:
145,172,55605,1,8,0:0:0:0:
137,107,55686,1,0,0:0:0:0:
137,107,55847,1,8,0:0:0:0:
157,117,56008,1,0,0:0:0:0:
162,119,56088,1,0,0:0:0:0:
162,119,56168,1,0,0:0:0:0:
209,63,56249,1,0,0:0:0:0:
157,117,56329,1,8,0:0:0:0:
157,117,56490,1,0,0:0:0:0:
141,133,56651,1,8,0:0:0:0:
138,175,56812,1,0,0:0:0:0:
138,175,56893,1,0,0:0:0:0:
138,175,56973,1,0,0:0:0:0:
138,175,57054,1,0,0:0:0:0:
138,175,57134,1,8,0:0:0:0:
177,153,57295,1,0,0:0:0:0:
177,153,57376,1,0,0:0:0:0:
177,153,57456,1,0,0:0:0:0:
177,153,57617,1,8,0:0:0:0:
177,153,57778,1,0,0:0:0:0:
163,130,57939,1,8,0:0:0:0:
163,130,58019,1,8,0:0:0:0:
163,130,58100,1,0,0:0:0:0:
166,106,58261,1,0,0:0:0:0:
171,115,58422,1,8,0:0:0:0:
166,106,58583,1,0,0:0:0:0:
158,122,58663,1,0,0:0:0:0:
161,112,58744,1,0,0:0:0:0:
158,122,58905,1,8,0:0:0:0:
155,124,59065,1,0,0:0:0:0:
138,137,59146,1,0,0:0:0:0:
142,133,59226,1,8,0:0:0:0:
138,137,59307,1,8,0:0:0:0:
138,137,59387,1,0,0:0:0:0:
127,97,59548,1,0,0:0:0:0:
127,97,59629,1,0,0:0:0:0:
146,79,59709,1,8,0:0:0:0:
138,107,59870,1,0,0:0:0:0:
136,110,59951,1,0,0:0:0:0:
138,107,60031,1,8,0:0:0:0:
136,110,60112,1,8,0:0:0:0:
136,111,60192,1,8,0:0:0:0:
136,110,60273,1,8,0:0:0:0:
136,110,60353,1,0,0:0:0:0:
149,87,60514,1,8,0:0:0:0:
150,87,60594,1,0,0:0:0:0:
139,103,60675,1,0,0:0:0:0:
139,103,60836,1,0,0:0:0:0:
138,104,60997,1,8,0:0:0:0:
139,71,61158,1,0,0:0:0:0:
138,73,61238,1,0,0:0:0:0:
139,71,61319,1,0,0:0:0:0:
123,82,61399,1,0,0:0:0:0:
136,93,61480,1,8,0:0:0:0:
123,82,61641,1,0,0:0:0:0:
123,86,61802,1,8,0:0:0:0:
123,87,61962,1,0,0:0:0:0:
134,88,62123,1,0,0:0:0:0:
136,93,62204,1,0,0:0:0:0:
147,77,62284,1,8,0:0:0:0:
153,130,62445,1,0,0:0:0:0:
153,130,62526,1,0,0:0:0:0:
153,130,62606,1,8,0:0:0:0:
161,112,62687,1,8,0:0:0:0:
171,57,62767,1,0,0:0:0:0:
158,115,62928,1,0,0:0:0:0:
149,82,63009,1,8,0:0:0:0:
159,77,63089,1,0,0:0:0:0:
159,77,63170,1,0,0:0:0:0:
149,82,63250,1,8,0:0:0:0:
171,57,63331,1,8,0:0:0:0:
170,42,63411,1,0,0:0:0:0:
168,45,63491,1,0,0:0:0:0:
170,43,63572,1,8,0:0:0:0:
169,70,63733,1,0,0:0:0:0:
169,70,63813,1,0,0:0:0:0:
169,70,63894,1,8,0:0:0:0:
159,67,64055,1,0,0:0:0:0:
161,75,64216,1,0,0:0:0:0:
161,75,64296,1,0,0:0:0:0:
161,75,64377,1,8,0:0:0:0:
161,75,64457,1,0,0:0:0:0:
161,76,64538,1,8,0:0:0:0:
153,69,64618,1,8,0:0:0:0:
152,70,64699,1,0,0:0:0:0:
152,70,64779,1,0,0:0:0:0:
152,70,64859,1,8,0:0:0:0:
176,77,65020,1,0,0:0:0:0:
174,82,65101,1,0,0:0:0:0:
174,82,65181,1,0,0:0:0:0:
173,84,65342,1,8,0:0:0:0:
173,87,65503,1,0,0:0:0:0:
152,70,65584,1,8,0:0:0:0:
163,97,65664,1,0,0:0:0:0:
153,72,65745,1,0,0:0:0:0:
163,97,65825,1,8,0:0:0:0:
163,98,65906,1,8,0:0:0:0:
162,98,65986,1,0,0:0:0:0:
163,97,66067,1,0,0:0:0:0:
163,97,66147,1,8,0:0:0:0:
201,28,66227,1,8,0:0:0:0:
201,28,66308,1,0,0:0:0:0:
194,33,66388,1,0,0:0:0:0:
193,33,66469,1,8,0:0:0:0:
151,52,66549,1,0,0:0:0:0:
151,52,66630,1,8,0:0:0:0:
151,52,66710,1,8,0:0:0:0:
151,52,66791,1,0,0:0:0:0:
182,75,66952,1,0,0:0:0:0:
182,75,67032,1,0,0:0:0:0:
182,75,67113,1,8,0:0:0:0:
201,45,67274,1,0,0:0:0:0:
198,63,67435,1,8,0:0:0:0:
179,47,67596,1,0,0:0:0:0:
179,48,67676,1,0,0:0:0:0:
178,52,67756,1,0,0:0:0:0:
176,56,67917,1,8,0:0:0:0:
176,56,68073,1,0,0:0:0:0:
