osu file format v14

[General]
AudioFilename: WarpDrive.mp3
AudioLeadIn: 0
PreviewTime: 67529
Countdown: 0
SampleSet: Soft
StackLeniency: 0.7
Mode: 0
LetterboxInBreaks: 0
EpilepsyWarning: 1
WidescreenStoryboard: 1

[Editor]
DistanceSpacing: 1.4
BeatDivisor: 4
GridSize: 4
TimelineZoom: 1.7

[Metadata]
Title:Warp Drive
TitleUnicode:Warp Drive
Artist:Titancube
ArtistUnicode:Titancube
Creator:DTM9 Nowa
Version:Another
Source:VOEZ
Tags:paydayzcool electro electronic techno ios android mobile Rayark
BeatmapID:1053845
BeatmapSetID:472890

[Difficulty]
HPDrainRate:6.5
CircleSize:4
OverallDifficulty:8
ApproachRate:9
SliderMultiplier:1.8
SliderTickRate:1

[Events]
//Background and Video events
0,0,"WDWP.jpg",0,0
//Break Periods
2,45494,55028
//Storyboard Layer 0 (Background)
//Storyboard Layer 1 (Fail)
//Storyboard Layer 2 (Pass)
//Storyboard Layer 3 (Foreground)
Sprite,Foreground,Centre,"SB BS\hl.png",320,240 F,0,65009,65059,0,0.2 C,2,65009,66039,128,255,255 P,0,65009,66039,A M,0,65059,,398,332 S,0,65059,,1 F,0,65059,66039,0.2,0
Sprite,Foreground,Centre,"SB BS\hl.png",320,240 F,0,65185,65235,0,0.25 C,2,65185,66215,128,255,255 P,0,65185,66215,A M,0,65235,,307,394 S,0,65235,,1 F,0,65235,66215,0.25,0
Sprite,Foreground,Centre,"SB BS\hl.png",320,240 F,0,65362,65412,0,0.3 C,2,65362,66392,0,0,234 P,0,65362,66392,A M,0,65412,,363,254 S,0,65412,,1 F,0,65412,66392,0.3,0
Sprite,Foreground,Centre,"SB BS\hl.png",320,240 F,0,65538,65588,0,0.35 C,2,65538,66568,0,0,234 P,0,65538,66568,A M,0,65588,,242,351 S,0,65588,,1 F,0,65588,66568,0.35,0
Sprite,Foreground,Centre,"SB BS\hl.png",320,240 F,0,65715,65765,0,0.4 C,2,65715,66745,128,128,255 P,0,65715,66745,A M,0,65765,,326,186 S,0,65765,,1 F,0,65765,66745,0.4,0
Sprite,Foreground,Centre,"SB BS\hl.png",320,240 F,0,65891,65941,0,0.45 C,2,65891,66921,128,128,255 P,0,65891,66921,A M,0,65941,,179,302 S,0,65941,,1 F,0,65941,66921,0.45,0
Sprite,Foreground,Centre,"SB BS\hl.png",320,240 F,0,66067,66117,0,0.5 C,2,66067,67097,0,128,255 P,0,66067,67097,A M,0,66117,,294,117 S,0,66117,,1 F,0,66117,67097,0.5,0
Sprite,Foreground,Centre,"SB BS\hl.png",320,240 F,0,66244,66294,0,0.55 C,2,66244,67274,0,128,255 P,0,66244,67274,A M,0,66294,,117,255 S,0,66294,,1 F,0,66294,67274,0.55,0
Sprite,Foreground,Centre,"SB BS\hl.png",320,240 F,0,66420,66470,0,0.6 C,2,66420,67450,128,255,255 P,0,66420,67450,A M,0,66470,,403,172 S,0,66470,,1 F,0,66470,67450,0.6,0
Sprite,Foreground,Centre,"SB BS\hl.png",320,240 F,0,67567,67617,0,0.6299664 C,2,67567,68597,0,0,234 P,0,67567,68597,A M,0,67617,,241,281 S,0,67617,,1 F,0,67617,67882,0.4,0 F,0,67617,68059,0.6299664,0
Sprite,Foreground,Centre,"SB BS\hl.png",320,240 F,0,67479,67529,0,0.8048815 C,2,67479,68509,0,0,234 P,0,67479,68509,A M,0,67529,,193,279 S,0,67529,,1 F,0,67529,67970,0.8048815,0
Sprite,Foreground,Centre,"SB BS\hl.png",320,240 F,0,67655,67705,0,0.4 C,2,67655,68685,0,0,234 P,0,67655,68685,A M,0,67705,,290,285 F,0,67705,,0.4 S,0,67705,,1 F,0,67706,68147,0.6832542,0
Sprite,Foreground,Centre,"SB BS\hl.png",320,240 F,0,67743,67793,0,0.4 C,2,67743,68773,0,0,234 P,0,67743,68773,A F,0,67793,,0.4 S,0,67793,,1 M,0,67793,67794,339,289,339.4339,289 F,0,67794,68235,0.5010169,0
//Storyboard Sound Samples

[TimingPoints]
118,352.941176470588,4,2,1,60,1,0
11412,-100,4,2,1,65,0,0
21294,-100,4,2,1,65,0,0
22706,-100,4,2,1,60,0,0
34000,-125,4,2,1,60,0,0
34353,-100,4,2,1,60,0,0
56588,-200,4,2,1,60,0,0
62235,-133.333333333333,4,2,1,60,0,0
65059,-133.333333333333,4,2,2,60,0,0
67882,-86.9565217391304,4,2,1,65,0,1
78470,-86.9565217391304,4,2,1,65,0,0
79176,-86.9565217391304,4,2,1,65,0,1
89765,-100,4,2,1,65,0,0
91176,-100,4,2,1,60,0,0
91529,-100,4,2,1,55,0,0
91882,-100,4,2,1,50,0,0
92235,-100,4,2,1,45,0,0
92588,-100,4,2,1,40,0,0
92941,-100,4,2,1,35,0,0
93294,-100,4,2,1,30,0,0
93647,-100,4,2,1,25,0,0
94000,-100,4,2,1,20,0,0
94353,-100,4,2,1,15,0,0
94706,-100,4,2,1,5,0,0

[Colours]
Combo1 : 128,255,255
Combo2 : 0,0,234
Combo3 : 128,128,255
Combo4 : 0,128,255

[HitObjects]
161,255,118,6,0,L|158:166,1,90
290,94,470,2,0,L|293:183,1,90,8|0,0:0|0:0,0:0:0:0:
172,240,823,2,0,L|169:151,1,90
300,78,1176,1,8,0:0:0:0:
389,199,1353,1,0,0:0:0:0:
389,199,1441,1,0,0:0:0:0:
389,199,1529,6,0,P|397:247|385:295,1,90
271,331,1882,2,0,B|234:339|202:329|202:329|172:314|126:326,1,135,8|0,0:0|0:0,0:0:0:0:
95,335,2235,1,0,0:0:0:0:
117,211,2412,1,0,0:0:0:0:
56,103,2588,2,0,P|105:117|159:110,1,90,8|0,0:0|0:0,0:0:0:0:
178,105,2853,1,0,0:0:0:0:
210,90,2941,5,0,0:0:0:0:
323,134,3117,1,0,0:0:0:0:
357,124,3206,1,0,0:0:0:0:
394,130,3294,2,0,B|414:212|414:212|395:307,1,180,8|0,0:0|0:0,0:0:0:0:
283,355,3823,1,0,0:0:0:0:
283,355,3912,1,0,0:0:0:0:
283,355,4000,1,8,0:0:0:0:
159,333,4176,2,0,P|164:354|161:377,1,45
144,306,4353,6,0,P|136:259|153:208,1,90
304,175,4706,1,8,0:0:0:0:
347,332,4882,1,0,0:0:0:0:
347,332,4970,1,0,0:0:0:0:
347,332,5059,2,0,P|305:352|257:350,1,90
143,268,5412,1,8,0:0:0:0:
143,268,5500,1,0,0:0:0:0:
143,268,5588,1,0,0:0:0:0:
226,148,5765,6,0,L|325:158,1,90
416,259,6117,2,0,L|326:268,1,90,8|0,0:0|0:0,0:0:0:0:
238,160,6470,2,0,L|337:170,1,90
431,269,6823,1,8,0:0:0:0:
329,349,7000,1,0,0:0:0:0:
329,349,7088,1,0,0:0:0:0:
329,349,7176,6,0,P|282:335|221:352,1,90
130,376,7529,2,0,P|137:308|117:238,1,135,8|0,0:0|0:0,0:0:0:0:
102,214,7882,1,0,0:0:0:0:
18,118,8059,1,0,0:0:0:0:
95,18,8235,2,0,P|167:30|197:22,1,90,8|0,0:0|0:0,0:0:0:0:
217,16,8500,1,0,0:0:0:0:
251,6,8588,6,0,B|395:22,1,135
400,28,8941,1,8,0:0:0:0:
335,135,9117,1,0,0:0:0:0:
364,257,9294,2,0,P|324:245|268:243,1,90
135,298,9647,1,8,0:0:0:0:
133,309,9735,1,0,0:0:0:0:
131,320,9823,1,0,0:0:0:0:
130,331,9911,1,0,0:0:0:0:
128,342,9999,5,0,0:0:0:0:
87,218,10176,1,0,0:0:0:0:
240,261,10353,1,8,0:0:0:0:
24,275,10529,1,0,0:0:0:0:
24,275,10617,1,0,0:0:0:0:
23,274,10706,2,0,P|3:235|6:191,1,90
97,103,11059,1,8,0:0:0:0:
97,103,11147,1,0,0:0:0:0:
97,103,11235,1,0,0:0:0:0:
200,176,11412,6,0,P|262:179|304:162,1,90,4|0,0:0|0:0,0:0:0:0:
408,109,11765,2,0,P|405:158|416:208,1,90,8|0,0:0|0:0,0:0:0:0:
445,267,12029,1,0,0:0:0:0:
451,278,12117,2,0,P|455:320|447:366,1,90
313,321,12470,1,8,0:0:0:0:
281,314,12558,1,0,0:0:0:0:
247,312,12646,1,0,0:0:0:0:
213,315,12734,1,0,0:0:0:0:
181,323,12823,6,0,L|168:375,2,45
185,187,13176,2,0,L|173:95,1,90,8|0,0:0|0:0,0:0:0:0:
289,59,13529,1,0,0:0:0:0:
289,59,13617,1,0,0:0:0:0:
289,59,13706,1,0,0:0:0:0:
323,176,13882,1,8,0:0:0:0:
324,198,13970,1,0,0:0:0:0:
325,220,14058,1,0,0:0:0:0:
326,243,14146,1,0,0:0:0:0:
328,268,14235,6,0,L|334:375,1,90
203,318,14588,2,0,P|154:321|108:343,1,90,8|0,0:0|0:0,0:0:0:0:
8,254,14941,1,0,0:0:0:0:
12,239,15029,1,0,0:0:0:0:
15,225,15117,1,0,0:0:0:0:
35,89,15294,1,8,0:0:0:0:
59,85,15382,1,0,0:0:0:0:
82,80,15470,1,0,0:0:0:0:
106,76,15558,1,0,0:0:0:0:
130,72,15647,6,0,L|224:56,1,90
308,174,16000,2,0,L|214:190,1,90,8|0,0:0|0:0,0:0:0:0:
102,257,16353,2,0,L|49:254,2,45
228,305,16706,1,8,0:0:0:0:
260,315,16794,1,0,0:0:0:0:
293,316,16882,1,0,0:0:0:0:
326,309,16970,1,0,0:0:0:0:
356,295,17059,6,0,L|450:293,1,90
429,145,17412,2,0,P|383:134|335:142,1,90,8|0,0:0|0:0,0:0:0:0:
271,166,17676,1,0,0:0:0:0:
271,166,17765,2,0,P|226:171|183:160,1,90
46,115,18117,1,8,0:0:0:0:
46,149,18205,1,0,0:0:0:0:
44,183,18293,1,0,0:0:0:0:
42,217,18381,1,0,0:0:0:0:
41,251,18470,6,0,L|43:306,2,45
140,337,18823,2,0,P|186:325|238:328,1,90,8|0,0:0|0:0,0:0:0:0:
264,339,19088,1,0,0:0:0:0:
301,347,19176,1,0,0:0:0:0:
338,344,19264,1,0,0:0:0:0:
374,331,19352,1,0,0:0:0:0:
451,242,19529,1,8,0:0:0:0:
463,210,19617,1,0,0:0:0:0:
466,177,19705,1,0,0:0:0:0:
460,144,19793,1,0,0:0:0:0:
445,114,19882,6,0,L|440:55,2,45
345,184,20235,2,0,L|236:175,1,90,8|0,2:0|2:0,2:0:0:0:
230,161,20500,1,0,2:0:0:0:
205,147,20588,2,0,L|96:138,1,90,0|0,2:0|2:0,2:0:0:0:
73,276,20941,1,8,0:0:0:0:
104,285,21029,1,0,0:0:0:0:
137,289,21117,1,0,0:0:0:0:
172,288,21205,1,0,0:0:0:0:
203,280,21294,5,0,0:0:0:0:
235,270,21382,1,0,0:0:0:0:
268,265,21470,1,0,0:0:0:0:
302,267,21558,1,0,0:0:0:0:
333,277,21647,2,0,P|391:286|444:269,1,90,8|0,0:0|0:0,0:0:0:0:
491,183,22000,2,0,P|494:159|492:133,1,45,8|0,0:0|0:0,0:0:0:0:
475,72,22176,2,0,P|472:45|476:22,1,45,8|0,0:0|0:0,0:0:0:0:
395,16,22353,6,0,L|369:13,6,22.5,8|0|0|0|8|0|0,0:0|0:0|0:0|0:0|0:0|0:0|0:0,0:0:0:0:
355,37,22706,6,0,L|255:44,1,90,4|0,0:0|0:0,0:0:0:0:
209,115,23059,2,0,P|162:127|109:122,1,90,8|0,0:0|0:0,0:0:0:0:
38,101,23323,1,0,0:0:0:0:
38,101,23412,2,0,L|35:208,1,90
112,313,23765,2,0,L|115:206,1,90,8|0,0:0|0:0,0:0:0:0:
231,155,24117,5,0,0:0:0:0:
362,188,24294,1,0,0:0:0:0:
384,185,24382,1,0,0:0:0:0:
406,182,24470,1,8,0:0:0:0:
445,52,24647,1,0,0:0:0:0:
423,49,24735,1,0,0:0:0:0:
401,46,24823,1,0,0:0:0:0:
379,43,24912,1,0,0:0:0:0:
357,40,25000,1,0,0:0:0:0:
234,92,25176,1,8,0:0:0:0:
287,216,25353,1,0,0:0:0:0:
410,164,25529,6,0,B|417:202|417:202|407:224|407:224|413:258,1,90
433,366,25882,1,8,0:0:0:0:
322,325,26059,1,0,0:0:0:0:
322,325,26147,1,0,0:0:0:0:
322,325,26235,1,0,0:0:0:0:
192,360,26412,1,0,0:0:0:0:
66,311,26588,2,0,L|58:220,1,90,8|0,0:0|0:0,0:0:0:0:
116,126,26941,5,0,0:0:0:0:
116,114,27029,1,0,0:0:0:0:
117,103,27117,1,0,0:0:0:0:
117,92,27205,1,0,0:0:0:0:
118,81,27293,1,8,0:0:0:0:
119,69,27382,1,0,0:0:0:0:
119,58,27470,1,0,0:0:0:0:
120,47,27558,1,0,0:0:0:0:
120,36,27646,5,0,0:0:0:0:
151,45,27735,1,0,0:0:0:0:
185,51,27823,1,0,0:0:0:0:
218,49,27911,1,0,0:0:0:0:
250,41,27999,1,8,0:0:0:0:
284,33,28088,1,0,0:0:0:0:
317,32,28176,1,0,0:0:0:0:
349,38,28264,1,0,0:0:0:0:
380,49,28353,6,0,P|428:57|472:49,1,90
497,154,28706,2,0,B|505:199|505:199|490:244|490:244|498:287,1,135,8|0,0:0|0:0,0:0:0:0:
474,361,29059,1,0,0:0:0:0:
383,247,29235,1,0,0:0:0:0:
318,355,29412,2,0,P|272:363|222:349,1,90,8|0,0:0|0:0,0:0:0:0:
134,280,29765,5,0,0:0:0:0:
111,277,29853,1,0,0:0:0:0:
89,275,29941,1,0,0:0:0:0:
66,272,30029,1,0,0:0:0:0:
44,270,30117,2,0,L|0:267,3,45,8|0|0|0,0:0|0:0|0:0|0:0,0:0:0:0:
68,180,30470,5,0,0:0:0:0:
100,183,30559,1,0,0:0:0:0:
134,186,30646,1,0,0:0:0:0:
167,191,30734,1,0,0:0:0:0:
203,197,30823,2,0,L|247:202,3,45,8|0|0|0,0:0|0:0|0:0|0:0,0:0:0:0:
218,112,31176,6,0,P|210:67|220:23,1,90
373,76,31529,2,0,P|380:120|371:164,1,90,8|0,0:0|0:0,0:0:0:0:
357,190,31794,1,0,0:0:0:0:
335,209,31882,1,0,0:0:0:0:
368,330,32059,1,0,0:0:0:0:
247,298,32235,2,0,P|201:293|150:300,1,90,8|0,0:0|0:0,0:0:0:0:
36,236,32588,6,0,L|40:185,3,45
65,147,32941,2,0,L|69:96,3,45,8|0|0|0,0:0|0:0|0:0|0:0,0:0:0:0:
164,152,33294,5,0,0:0:0:0:
164,152,33382,2,0,P|207:160|268:143,1,90
332,168,33647,2,0,P|356:166|379:171,2,45,8|0|0,0:0|0:0|0:0,0:0:0:0:
280,291,34000,5,0,0:0:0:0:
280,291,34088,1,0,0:0:0:0:
280,291,34176,2,0,L|276:340,1,36
180,259,34353,6,0,L|171:158,1,90,12|0,0:0|0:0,0:0:0:0:
125,42,34706,2,0,P|174:53|230:46,1,90
346,23,35059,2,0,P|335:72|342:128,1,90,8|0,0:0|0:0,0:0:0:0:
355,245,35412,5,0,0:0:0:0:
329,235,35500,1,0,0:0:0:0:
303,228,35588,1,0,0:0:0:0:
276,225,35676,1,0,0:0:0:0:
248,225,35764,1,8,0:0:0:0:
222,229,35853,1,0,0:0:0:0:
196,236,35941,1,0,0:0:0:0:
171,247,36029,1,0,0:0:0:0:
147,260,36117,6,0,L|102:302,3,45
80,224,36470,2,0,L|34:246,3,45,8|0|0|0,0:0|0:0|0:0|0:0,0:0:0:0:
52,155,36823,6,0,P|62:109|50:63,1,90
180,112,37176,2,0,P|170:158|182:204,1,90,8|0,0:0|0:0,0:0:0:0:
153,331,37529,1,0,0:0:0:0:
153,331,37617,1,0,0:0:0:0:
153,331,37706,1,0,0:0:0:0:
278,282,37882,2,0,P|326:277|374:288,1,90,8|0,0:0|0:0,0:0:0:0:
489,342,38235,5,0,0:0:0:0:
484,331,38323,1,0,0:0:0:0:
481,320,38411,1,0,0:0:0:0:
478,310,38499,1,0,0:0:0:0:
476,298,38587,1,8,0:0:0:0:
475,287,38676,1,0,0:0:0:0:
475,276,38764,1,0,0:0:0:0:
476,265,38852,1,0,0:0:0:0:
477,253,38941,5,0,0:0:0:0:
443,254,39029,1,0,0:0:0:0:
410,249,39117,1,0,0:0:0:0:
378,238,39205,1,0,0:0:0:0:
349,220,39293,1,8,0:0:0:0:
324,197,39382,1,0,0:0:0:0:
305,170,39470,1,0,0:0:0:0:
291,139,39558,1,0,0:0:0:0:
284,106,39647,6,0,L|281:55,2,45
349,220,40000,2,0,L|343:309,1,90,8|0,0:0|0:0,0:0:0:0:
222,271,40353,2,0,L|207:211,2,45
113,339,40706,2,0,P|59:349|14:331,1,90,8|0,0:0|0:0,0:0:0:0:
48,218,41059,5,0,0:0:0:0:
53,185,41147,1,0,0:0:0:0:
58,152,41235,1,0,0:0:0:0:
63,118,41323,1,0,0:0:0:0:
70,89,41412,2,0,L|69:32,3,45,8|0|0|0,0:0|0:0|0:0|0:0,0:0:0:0:
196,108,41765,5,0,0:0:0:0:
227,120,41853,1,0,0:0:0:0:
261,123,41941,1,0,0:0:0:0:
294,119,42029,1,0,0:0:0:0:
326,107,42117,2,0,L|378:91,3,45,8|0|0|0,0:0|0:0|0:0|0:0,0:0:0:0:
447,173,42470,5,0,0:0:0:0:
461,307,42647,1,0,0:0:0:0:
329,345,42823,2,0,L|342:227,1,90,8|0,0:0|0:0,0:0:0:0:
266,141,43176,1,0,0:0:0:0:
218,268,43353,1,0,0:0:0:0:
122,173,43529,2,0,L|111:80,1,90,8|0,0:0|0:0,0:0:0:0:
243,52,43882,6,0,L|274:18,3,45
332,76,44235,2,0,L|377:67,3,45,8|0|0|0,0:0|0:0|0:0|0:0,0:0:0:0:
317,153,44588,5,0,0:0:0:0:
317,188,44676,1,0,0:0:0:0:
318,221,44764,1,0,0:0:0:0:
321,257,44852,1,0,0:0:0:0:
323,293,44941,2,0,L|327:340,1,45,8|0,0:0|0:0,0:0:0:0:
230,270,45117,2,0,L|234:317,1,45
137,247,45294,5,4,0:0:0:0:
137,70,56588,5,2,0:0:0:0:
251,44,56941,1,8,0:0:0:0:
170,138,57294,5,2,0:0:0:0:
286,142,57647,1,8,0:0:0:0:
185,214,58000,5,2,0:0:0:0:
296,248,58353,1,8,0:0:0:0:
179,289,58706,5,2,0:0:0:0:
278,350,59059,1,8,0:0:0:0:
436,336,59412,5,2,0:0:0:0:
471,178,59765,1,8,0:0:0:0:
342,290,60118,5,2,0:0:0:0:
336,130,60471,1,8,0:0:0:0:
237,269,60823,5,2,0:0:0:0:
190,116,61177,1,8,0:0:0:0:
388,138,62235,5,2,0:0:0:0:
350,292,62588,1,8,0:0:0:0:
196,254,62941,1,2,0:0:0:0:
234,100,63294,1,8,0:0:0:0:
424,183,63647,5,2,0:0:0:0:
306,328,64000,1,8,0:0:0:0:
161,210,64353,1,2,0:0:0:0:
279,65,64706,1,8,0:0:0:0:
334,266,65059,5,8,0:0:0:0:
243,338,65235,1,0,0:0:0:0:
299,198,65412,5,8,0:0:0:0:
178,295,65588,1,0,0:0:0:0:
262,130,65765,5,8,0:0:0:0:
115,246,65941,1,0,0:0:0:0:
230,61,66117,5,8,0:0:0:0:
53,199,66293,1,0,0:0:0:0:
338,116,66470,5,8,0:0:0:0:
129,223,67529,5,0,0:0:0:0:
177,225,67617,1,0,0:0:0:0:
226,229,67705,1,0,0:0:0:0:
275,233,67793,1,0,0:0:0:0:
311,201,67882,6,0,L|207:194,1,103.500001974106,4|0,0:0|0:0,0:0:0:0:
54,92,68235,1,8,0:0:0:0:
116,225,68412,1,0,0:0:0:0:
37,347,68588,2,0,P|86:335|136:347,1,103.500001974106
284,297,68941,1,8,0:0:0:0:
426,356,69117,1,0,0:0:0:0:
404,201,69294,6,0,L|394:94,1,103.500001974106
255,167,69647,1,8,0:0:0:0:
186,28,69823,1,0,0:0:0:0:
47,97,70000,2,0,L|40:205,1,103.500001974106
33,355,70353,1,8,0:0:0:0:
171,283,70529,1,0,0:0:0:0:
313,345,70706,6,0,L|422:336,1,103.500001974106
481,195,71059,2,0,L|377:186,1,103.500001974106,8|0,0:0|0:0,0:0:0:0:
228,229,71412,1,0,0:0:0:0:
266,79,71588,1,0,0:0:0:0:
311,287,71765,1,8,0:0:0:0:
108,222,71941,1,0,0:0:0:0:
260,197,72117,6,0,L|365:181,1,103.500001974106
504,118,72470,1,8,0:0:0:0:
487,273,72647,1,0,0:0:0:0:
408,93,72823,2,0,P|358:83|309:98,1,103.500001974106
157,64,73176,2,0,P|107:78|57:68,1,103.500001974106,8|0,0:0|0:0,0:0:0:0:
121,210,73529,6,0,P|135:259|125:309,1,103.500001974106
228,178,73882,2,0,P|218:127|232:78,1,103.500001974106,8|0,0:0|0:0,0:0:0:0:
379,26,74235,1,0,0:0:0:0:
487,137,74412,1,0,0:0:0:0:
400,265,74588,2,0,L|420:366,1,103.500001974106,8|0,0:0|0:0,0:0:0:0:
272,316,74941,6,0,P|221:305|171:316,1,103.500001974106
0,344,75294,2,0,P|58:354|119:334,1,103.500001974106,8|0,0:0|0:0,0:0:0:0:
188,214,75647,2,0,P|198:156|178:95,1,103.500001974106
38,61,76000,2,0,P|27:111|38:162,1,103.500001974106,8|0,0:0|0:0,0:0:0:0:
1,313,76353,5,0,0:0:0:0:
149,268,76529,1,0,0:0:0:0:
291,330,76706,2,0,P|340:342|390:332,1,103.500001974106,8|0,0:0|0:0,0:1:0:0:
498,219,77059,1,0,0:0:0:0:
343,231,77235,1,0,0:0:0:0:
442,111,77412,2,0,P|455:57|444:8,1,103.500001974106,8|0,0:0|0:0,0:0:0:0:
290,10,77765,6,0,P|277:64|288:113,1,103.500001974106
202,260,78117,2,0,P|215:210|206:159,1,103.500001974106,8|0,0:0|0:0,0:0:0:0:
63,102,78470,6,0,L|59:205,1,103.500001974106,8|0,0:0|0:0,0:0:0:0:
135,342,78823,1,8,0:0:0:0:
216,209,79000,1,8,0:0:0:0:
350,284,79176,6,0,L|364:334,2,51.7500009870529,4|0|0,0:0|0:0|0:0,0:0:0:0:
348,131,79529,1,8,0:0:0:0:
268,273,79706,1,0,0:0:0:0:
268,273,79794,1,0,0:0:0:0:
268,273,79882,1,0,0:0:0:0:
457,235,80059,1,0,0:0:0:0:
457,235,80147,1,0,0:0:0:0:
456,235,80235,2,0,L|451:121,1,103.500001974106,8|0,0:0|0:0,0:0:0:0:
401,55,80588,6,0,L|409:2,2,51.7500009870529
265,133,80941,2,0,P|214:143|163:136,1,103.500001974106,8|0,0:0|0:0,0:0:0:0:
59,21,81294,1,0,0:0:0:0:
96,205,81470,1,0,0:0:0:0:
212,40,81647,1,8,0:0:0:0:
236,32,81735,1,0,0:0:0:0:
262,30,81823,1,0,0:0:0:0:
288,31,81911,1,0,0:0:0:0:
313,36,82000,6,0,L|417:28,1,103.500001974106
379,174,82353,2,0,L|275:166,1,103.500001974106,8|0,0:0|0:0,0:0:0:0:
244,164,82617,1,0,0:0:0:0:
212,162,82706,1,0,0:0:0:0:
75,234,82882,1,0,0:0:0:0:
206,317,83059,2,0,P|255:300|312:300,1,103.500001974106,8|0,0:0|0:0,0:0:0:0:
438,329,83412,6,0,L|447:379,2,51.7500009870529
412,134,83765,1,8,0:0:0:0:
303,239,83941,1,0,0:0:0:0:
303,239,84029,1,0,0:0:0:0:
303,237,84117,2,0,P|253:251|202:244,1,103.500001974106
10,209,84470,2,0,P|61:195|113:205,1,103.500001974106,8|0,0:0|0:0,0:0:0:0:
193,335,84823,5,8,0:0:0:0:
193,335,84911,1,0,0:0:0:0:
193,335,84999,1,8,0:0:0:0:
247,154,85176,2,0,L|232:47,1,103.500001974106,8|0,0:0|0:0,0:0:0:0:
374,83,85529,1,8,0:0:0:0:
509,29,85706,1,0,0:0:0:0:
488,172,85882,2,0,L|504:290,1,103.500001974106,8|0,0:0|0:0,0:0:0:0:
370,358,86235,5,8,0:0:0:0:
370,358,86323,1,0,0:0:0:0:
370,358,86412,1,8,0:0:0:0:
174,339,86588,1,8,0:0:0:0:
308,260,86765,1,0,0:0:0:0:
172,184,86941,2,0,L|163:81,1,103.500001974106,8|0,0:0|0:0,0:0:0:0:
312,38,87294,2,0,L|303:141,1,103.500001974106,8|0,0:0|0:0,0:0:0:0:
370,245,87647,5,8,0:0:0:0:
395,242,87735,1,0,0:0:0:0:
421,239,87823,1,0,0:0:0:0:
447,236,87911,1,0,0:0:0:0:
472,234,88000,5,8,0:0:0:0:
447,205,88088,1,0,0:0:0:0:
437,168,88176,1,0,0:0:0:0:
444,130,88264,1,0,0:0:0:0:
466,98,88353,5,8,0:0:0:0:
427,113,88441,1,0,0:0:0:0:
386,119,88529,1,0,0:0:0:0:
345,114,88617,1,0,0:0:0:0:
306,101,88706,5,8,0:0:0:0:
257,87,88794,1,0,0:0:0:0:
205,86,88882,1,8,0:0:0:0:
155,98,88970,1,0,0:0:0:0:
110,124,89059,6,0,L|103:153,14,25.8750004935265
173,173,89765,6,0,L|181:268,1,90
296,340,90117,1,0,0:0:0:0:
297,305,90205,1,0,0:0:0:0:
300,271,90293,1,0,0:0:0:0:
303,236,90381,1,0,0:0:0:0:
306,202,90469,1,0,0:0:0:0:
402,70,90647,5,8,0:0:0:0:
451,261,90823,1,12,0:0:0:0:
256,192,90912,12,0,94706,0:0:0:0:
